<?xml version="1.0" standalone="no"?>
<!DOCTYPE svg PUBLIC "-//W3C//DTD SVG 1.1//EN" "http://www.w3.org/Graphics/SVG/1.1/DTD/svg11.dtd" >
<svg xmlns="http://www.w3.org/2000/svg" xmlns:xlink="http://www.w3.org/1999/xlink" version="1.1">
<metadata>
Created by FontForge 20170731 at Mon Oct  1 20:58:46 2012
 By Aleksey,,,
Copyright (c) 2011-12 by vernon adams. All rights reserved.
</metadata>
<defs>
<font id="Oswald-Regular" horiz-adv-x="512" >
  <font-face 
    font-family="Oswald"
    font-weight="400"
    font-stretch="normal"
    units-per-em="2048"
    panose-1="2 0 5 3 0 0 0 0 0 0"
    ascent="1638"
    descent="-410"
    x-height="1280"
    cap-height="1792"
    bbox="-211 -652 2027 2424"
    underline-thickness="0"
    underline-position="0"
    unicode-range="U+0020-FB02"
  />
<missing-glyph horiz-adv-x="748" 
d="M68 0v1365h544v-1365h-544zM136 68h408v1229h-408v-1229z" />
    <glyph glyph-name=".notdef" horiz-adv-x="748" 
d="M68 0v1365h544v-1365h-544zM136 68h408v1229h-408v-1229z" />
    <glyph glyph-name="glyph1" horiz-adv-x="0" 
 />
    <glyph glyph-name="glyph2" horiz-adv-x="682" 
 />
    <glyph glyph-name="space" unicode=" " horiz-adv-x="416" 
 />
    <glyph glyph-name="exclam" unicode="!" horiz-adv-x="375" 
d="M128 384l-64 1408h256l-46 -1408h-146zM64 0v256h256v-256h-256z" />
    <glyph glyph-name="quotedbl" unicode="&#x22;" horiz-adv-x="704" 
d="M449 1328l-64 464h256l-64 -464h-128zM126 1328l-64 464h256l-64 -464h-128z" />
    <glyph glyph-name="numbersign" unicode="#" horiz-adv-x="1088" 
d="M437 832h193l27 192h-192zM64 0l90 640h-90v192h117l28 192h-145v192h172l82 576h256l-82 -576h192l82 576h256l-82 -576h84v-192h-111l-28 -192h139v-192h-166l-90 -640h-256l90 640h-192l-90 -640h-256z" />
    <glyph glyph-name="dollar" unicode="$" horiz-adv-x="1216" 
d="M704 198q128 29 128 186q0 78 -28 135t-80 109l-20 20v-450zM576 1101v499q-92 0 -142 -52t-50 -143q0 -152 128 -253zM576 -128v113q-208 15 -321.5 157.5t-126.5 369.5l256 64q10 -293 171 -368l21 -8v555l-256 205q-88 71 -140.5 176.5t-52.5 241.5q0 198 123 315
t326 117v110h128v-121l41 -9q316 -86 343 -446l-256 -64q-9 188 -108 269l-20 15v-566l128 -102q113 -88 184.5 -212.5t71.5 -282.5q0 -181 -104 -289t-280 -127v-113h-128z" />
    <glyph glyph-name="percent" unicode="%" horiz-adv-x="1999" 
d="M1554 0q-95 0 -166.5 38.5t-114.5 107t-64 155.5t-21 191q0 106 20.5 191.5t63 152t114 103t168.5 36.5t169 -36.5t114.5 -103t63 -152t20.5 -191.5q0 -105 -21 -192t-64 -155.5t-115 -106.5t-167 -38zM1554 195q134 0 134 297q0 288 -134 288q-133 0 -133 -288
q0 -52 5 -97t18 -94t41 -77.5t69 -28.5zM751 0l283 1518h219l-282 -1518h-220zM444 541q-95 0 -166.5 38.5t-114.5 106.5t-64 155t-21 191q0 106 20 192t62.5 152.5t114.5 103t169 36.5q78 0 140 -24.5t104 -67.5t70 -104t40.5 -132.5t12.5 -155.5q0 -104 -21.5 -191.5
t-64.5 -155.5t-114.5 -106t-166.5 -38zM444 735q134 0 134 297q0 289 -134 289q-133 0 -133 -289q0 -52 5 -97.5t18 -94t41 -77t69 -28.5z" />
    <glyph glyph-name="ampersand" unicode="&#x26;" horiz-adv-x="1344" 
d="M545 1024q64 80 111.5 205.5t47.5 242.5q0 58 -35 93t-93 35q-65 0 -96.5 -56.5t-31.5 -135.5q0 -65 17 -141t34 -124.5t46 -118.5zM512 192q122 0 224 128l-123 183q-13 21 -44.5 61.5t-54.5 75t-33 64.5q-44 -58 -70.5 -143t-26.5 -177q0 -84 30 -138t98 -54zM512 -18
q-178 0 -281 110t-103 292q0 286 256 512q-14 29 -58 109.5t-67 129t-45 126t-22 147.5q0 180 104 291t280 111q165 0 274.5 -91.5t109.5 -246.5q0 -70 -22 -142t-52.5 -128t-78.5 -118.5t-83.5 -101t-83.5 -86.5l256 -384q18 40 31 100t17.5 93.5t15.5 126.5h256
q0 -122 -47 -253t-112 -229q75 -94 159 -94v-274q-25 0 -47.5 2.5t-45.5 11t-39 14t-38.5 21t-32.5 21t-33 26.5t-28 25t-30 28.5t-26 25.5q-63 -80 -160.5 -127.5t-223.5 -47.5z" />
    <glyph glyph-name="quotesingle" unicode="'" horiz-adv-x="384" 
d="M126 1328l-64 464h256l-64 -464h-128z" />
    <glyph glyph-name="parenleft" unicode="(" horiz-adv-x="640" 
d="M576 -64q-80 0 -145 21.5t-110.5 67t-79 95.5t-54 129.5t-33.5 144t-18 165t-6.5 166t-1.5 171.5q0 122 1.5 196.5t10.5 188t26 184t49.5 153t79.5 129t118.5 78t162.5 31.5v-192q-50 0 -86.5 -31.5t-57 -79.5t-32.5 -121t-15.5 -139t-3.5 -150q0 -48 1.5 -131.5
t1.5 -115.5t-1.5 -117t-1.5 -134q0 -84 3.5 -149.5t15.5 -137.5t32.5 -120t57 -79t86.5 -31v-192z" />
    <glyph glyph-name="parenright" unicode=")" horiz-adv-x="640" 
d="M64 -64v192q50 0 86.5 31.5t57 79.5t32.5 121t15.5 139t3.5 150q0 48 -1.5 131.5t-1.5 115.5t1.5 117t1.5 134q0 84 -3.5 149.5t-15.5 137.5t-32.5 120t-57 79t-86.5 31v192q80 0 145 -21.5t110.5 -67t79 -95.5t54 -129.5t33.5 -144t18 -165t6.5 -166t1.5 -171.5
q0 -122 -1.5 -196.5t-10.5 -188t-26 -184t-49.5 -153t-79.5 -129t-118.5 -78t-162.5 -31.5z" />
    <glyph glyph-name="asterisk" unicode="*" horiz-adv-x="896" 
d="M343 904l-152 90l172 243l-257 98l61 161l245 -132l-28 300h192l-29 -300l246 132l61 -161l-257 -99l172 -242l-152 -90l-137 277z" />
    <glyph glyph-name="plus" unicode="+" horiz-adv-x="704" 
d="M256 384v192h-192v192h192v192h192v-192h192v-192h-192v-192h-192z" />
    <glyph glyph-name="comma" unicode="," horiz-adv-x="408" 
d="M140 -256l-64 128q69 0 98.5 30t29.5 98h-128v256h256q0 -144 -3 -242q-2 -54 -6 -91t-16 -73.5t-32 -58t-53.5 -34.5t-81.5 -13z" />
    <glyph glyph-name="hyphen" unicode="-" horiz-adv-x="384" 
d="M0 448v192h384v-192h-384z" />
    <glyph glyph-name="period" unicode="." horiz-adv-x="384" 
d="M64 0v256h256v-256h-256z" />
    <glyph glyph-name="slash" unicode="/" horiz-adv-x="832" 
d="M0 0l575 1792h257l-576 -1792h-256z" />
    <glyph glyph-name="zero" unicode="0" horiz-adv-x="1088" 
d="M544 -18q-146 0 -248.5 69t-151 186.5t-48.5 274.5v768q0 247 112 388.5t336 141.5q223 0 335.5 -142t112.5 -388v-768q0 -241 -114.5 -385.5t-333.5 -144.5zM544 192q192 0 192 320v768q0 54 -4 96.5t-16.5 86t-33 72.5t-55.5 47t-83 18t-83 -18t-55.5 -47t-33 -72.5
t-16.5 -86t-4 -96.5v-768q0 -63 8.5 -116t29 -101t59.5 -75.5t95 -27.5z" />
    <glyph glyph-name="one" unicode="1" horiz-adv-x="640" 
d="M256 0v1408h-192v192q193 69 256 192h192v-1792h-256z" />
    <glyph glyph-name="two" unicode="2" horiz-adv-x="1020" 
d="M71 0v256l449 640q8 11 35 48.5t36 51t31 48t30.5 53t23 52.5t20.5 60.5t11 62t5 72.5q0 107 -49.5 181.5t-142.5 74.5q-55 0 -94 -27t-59.5 -75t-29.5 -101.5t-9 -116.5v-64h-256v64q0 252 108 391t340 139q218 0 333 -122.5t115 -343.5q0 -83 -14.5 -155t-46 -138
t-58 -109t-73.5 -110l-448 -576h640v-256h-897z" />
    <glyph glyph-name="three" unicode="3" horiz-adv-x="1027" 
d="M526 -18q-218 0 -333 122.5t-115 343.5v64h256q0 -60 3.5 -102.5t15 -86.5t31.5 -70.5t56 -43.5t86 -17t86 17t56 43.5t31.5 70.5t15 86.5t3.5 102.5q0 154 -59.5 237t-196.5 83v256q140 0 198 57.5t58 198.5q0 127 -42 191.5t-150 64.5q-50 0 -86 -17t-56 -43.5
t-31.5 -70.5t-15 -86.5t-3.5 -102.5h-256v64q0 220 115.5 343t332.5 123q218 0 333 -122.5t115 -343.5q0 -152 -68 -249.5t-188 -134.5q125 -42 190.5 -157t65.5 -291q0 -252 -108 -391t-340 -139z" />
    <glyph glyph-name="four" unicode="4" horiz-adv-x="1087" 
d="M339 702h256v770zM595 0v460h-512v285l448 1048h320v-1091h198v-242h-198v-460h-256z" />
    <glyph glyph-name="five" unicode="5" horiz-adv-x="1050" 
d="M535 -18q-239 0 -341 134.5t-102 395.5h256v-40q0 -51 3.5 -88.5t14 -77t29 -64t50.5 -40.5t76 -16q35 0 63.5 8.5t49 21t36.5 36.5t26.5 44.5t17.5 56.5t10.5 60.5t5.5 69t2 69v73.5v33q0 43 -1 73.5t-5.5 66t-12.5 59.5t-22 48t-34 38t-49.5 22.5t-66.5 8.5
q-68 0 -118 -44t-73 -104h-218v966h792v-256h-560l-16 -434q108 64 256 64q87 0 153.5 -26.5t109.5 -72.5t70.5 -114t39 -144t11.5 -169q0 -115 -12 -208t-43 -179t-81 -144t-130.5 -92.5t-186.5 -34.5z" />
    <glyph glyph-name="six" unicode="6" horiz-adv-x="1083" 
d="M560 192q55 0 94 27t59.5 75t29.5 101.5t9 116.5v57.5t-1.5 55.5t-4 55.5t-7 49.5t-11.5 46.5t-17.5 39t-24.5 34.5t-32 24t-42 17t-52 5q-124 0 -192 -128v-256q0 -64 9 -117t29.5 -101t59.5 -75t94 -27zM560 -18q-92 0 -167 31t-126.5 85t-87 129.5t-51.5 163
t-16 185.5v576q0 110 13 203.5t45 179t82 145.5t128.5 95t179.5 35q216 0 332 -122.5t116 -343.5h-256q0 128 -41.5 192t-150.5 64q-192 0 -192 -384v-256q74 128 256 128q108 0 184.5 -37.5t119 -109t61.5 -160.5t19 -205q0 -126 -25 -230.5t-77 -187.5t-140 -129.5
t-206 -46.5z" />
    <glyph glyph-name="seven" unicode="7" horiz-adv-x="826" 
d="M190 0l328 1579h-473v213h717v-123l-326 -1669h-246z" />
    <glyph glyph-name="eight" unicode="8" horiz-adv-x="1024" 
d="M513 1063q50 0 83.5 23t49.5 66.5t21.5 87.5t5.5 104q0 256 -160 256q-162 0 -162 -256q0 -60 6 -104.5t22 -87.5t49.5 -66t84.5 -23zM513 192q50 0 86 18t56 45t31.5 71.5t14.5 85.5t3 99q0 64 -8 114.5t-28 96.5t-59 71t-96 25t-96.5 -25t-60 -70.5t-28.5 -96
t-8 -115.5q0 -58 3.5 -99.5t15 -86t32 -71.5t56.5 -44.5t86 -17.5zM513 -18q-236 0 -342.5 136.5t-106.5 392.5q0 167 46 268.5t148 166.5q-86 65 -127 160t-41 238q0 222 106 344t317 122q210 0 315.5 -122.5t105.5 -343.5q0 -144 -40.5 -238.5t-126.5 -159.5
q101 -66 147 -168t46 -267q0 -256 -106 -392.5t-341 -136.5z" />
    <glyph glyph-name="nine" unicode="9" horiz-adv-x="1083" 
d="M540 896q122 0 192 128v256q0 64 -9 117t-29.5 101t-59.5 75t-94 27t-94 -27t-59.5 -75t-29.5 -101.5t-9 -116.5v-57.5t1.5 -55.5t4 -55.5t7 -49.5t11.5 -46.5t17.5 -39t24.5 -34.5t32 -24t42 -17t52 -5zM540 -18q-216 0 -332 122.5t-116 343.5h256q0 -128 41.5 -192
t150.5 -64q192 0 192 384v256q-76 -128 -256 -128q-108 0 -184.5 37.5t-119 109t-61.5 160.5t-19 205q0 126 25 230.5t77 187.5t140 129.5t206 46.5q92 0 167 -31t126.5 -85t87 -129.5t51.5 -163t16 -185.5v-576q0 -110 -13 -203.5t-45 -179t-82 -145.5t-128.5 -95
t-179.5 -35z" />
    <glyph glyph-name="colon" unicode=":" horiz-adv-x="439" 
d="M128 832v256h256v-256h-256zM128 256v256h256v-256h-256z" />
    <glyph glyph-name="semicolon" unicode=";" horiz-adv-x="384" 
d="M64 832v256h256v-256h-256zM128 0l-64 128q69 0 98.5 30t29.5 98h-128v256h256q0 -144 -3 -242q-2 -54 -6 -91t-16 -73.5t-32 -58t-53.5 -34.5t-81.5 -13z" />
    <glyph glyph-name="less" unicode="&#x3c;" horiz-adv-x="832" 
d="M704 64l-640 448v256l640 448v-256l-448 -319l448 -321v-256z" />
    <glyph glyph-name="equal" unicode="=" horiz-adv-x="704" 
d="M64 576v192h576v-192h-576zM64 255v192h576v-192h-576z" />
    <glyph glyph-name="greater" unicode="&#x3e;" horiz-adv-x="832" 
d="M128 64v256l448 321l-448 319v256l640 -448v-256z" />
    <glyph glyph-name="question" unicode="?" horiz-adv-x="1152" 
d="M384 0v256h256v-256h-256zM384 384v320q63 38 109.5 70t102 81.5t90 99.5t58.5 118t24 143q0 192 -192 192q-108 0 -150 -64.5t-42 -191.5h-256v64q0 219 115.5 333.5t332.5 114.5q219 0 334 -115.5t115 -332.5q0 -212 -101.5 -350.5t-283.5 -225.5v-256h-256z" />
    <glyph glyph-name="at" unicode="@" horiz-adv-x="1782" 
d="M884 502q69 0 74 40v403q-7 51 -54 51q-20 0 -37 -4t-30 -14.5t-23 -20t-17.5 -28.5t-12.5 -31.5t-8 -38t-4.5 -39t-2.5 -43t-1 -41.5v-43q0 -191 116 -191zM958 -128q-434 0 -632 221.5t-198 674.5q0 372 203 588t565 216q371 0 564.5 -211.5t193.5 -592.5
q0 -101 -22 -186.5t-66 -150.5t-115.5 -102t-164.5 -37q-96 0 -167.5 34t-107.5 94q-57 -128 -171 -128q-106 0 -181.5 56t-111 145t-35.5 200q0 77 9 146.5t31.5 136t56.5 114.5t87 77.5t120 29.5q66 0 102.5 -36.5t39.5 -99.5v127h256v-568q0 -38 3 -60t19 -40t46 -18
q116 0 116 266q0 148 -26 257.5t-84 191t-156 122.5t-236 41q-129 0 -228 -45t-160.5 -127t-92.5 -193t-31 -247q0 -172 29 -297.5t94 -219t177.5 -140.5t273.5 -47q125 0 296 55l94 -196q-223 -51 -390 -51z" />
    <glyph glyph-name="A" unicode="A" horiz-adv-x="1056" 
d="M400 640h256l-128 768zM16 0l384 1792h256l384 -1792h-256l-96 448h-320l-96 -448h-256z" />
    <glyph glyph-name="B" unicode="B" horiz-adv-x="1146" 
d="M384 1024h128q320 0 320 320q0 53 -13 93.5t-31 67.5t-54.5 45.5t-66.5 28.5t-85.5 14.5t-92.5 5.5t-105 1v-576zM384 192h128q166 0 243 76.5t77 243.5t-77 243.5t-243 76.5h-128v-640zM128 0v1792h384q124 0 222 -26t171.5 -79t113 -140t39.5 -203q0 -168 -71 -255.5
t-219 -128.5q160 -53 240 -155.5t80 -292.5q0 -237 -137.5 -374.5t-374.5 -137.5h-448z" />
    <glyph glyph-name="C" unicode="C" horiz-adv-x="1107" 
d="M588 -18q-113 0 -199 32t-141 88.5t-89.5 141t-48.5 180.5t-14 217v511q0 121 14 217t48.5 180.5t89.5 140.5t141 88t199 32q125 0 216 -37t145.5 -109t82 -167t32.5 -222q1 -19 1 -59h-256v57q-1 53 -4 90.5t-11 77.5t-23.5 66.5t-39 49t-59.5 33t-84 10.5
q-62 0 -106.5 -20t-69.5 -51.5t-38.5 -84.5t-17.5 -103.5t-4 -124.5v-640q0 -64 5.5 -116t21.5 -103.5t41.5 -86.5t68 -56.5t99.5 -21.5t98 22t64.5 56t37 87t17.5 103t4 116v64h256v-64q0 -139 -24.5 -244t-79 -185.5t-148 -122.5t-225.5 -42z" />
    <glyph glyph-name="D" unicode="D" horiz-adv-x="1133" 
d="M128 0v1792h397q281 0 396.5 -115t115.5 -397v-704q0 -295 -117.5 -435.5t-396.5 -140.5h-395zM384 192h141q63 0 108 11.5t73 42t44 58t22.5 85.5t7.5 95.5t1 116.5v39v576q0 49 -0.5 78t-3 68.5t-7.5 62.5t-14 51.5t-22.5 44.5t-33 33.5t-45 26t-59.5 14t-76 5.5h-136
v-1408z" />
    <glyph glyph-name="E" unicode="E" horiz-adv-x="861" 
d="M128 0v1792h704v-192h-448v-576h320v-192h-320v-640h448v-192h-704z" />
    <glyph glyph-name="F" unicode="F" horiz-adv-x="821" 
d="M128 0v1792h704v-192h-448v-576h320v-192h-320v-832h-256z" />
    <glyph glyph-name="G" unicode="G" horiz-adv-x="1199" 
d="M608 -18q-123 0 -213.5 35t-147.5 95t-91 153t-47 196t-13 237v454q0 658 522 658q125 0 217 -37.5t149 -109.5t86 -168.5t34 -223.5q1 -18 1 -55h-256v54q-1 63 -6.5 108.5t-20 89.5t-39.5 71.5t-66.5 44t-98.5 16.5q-78 0 -131.5 -28.5t-82 -83t-40.5 -120t-12 -152.5
v-576q0 -64 4 -115.5t13.5 -105t28 -92.5t46 -70.5t69 -48t95.5 -16.5q64 0 111 25t74.5 64.5t43.5 100.5t21.5 121t5.5 137v64h-256v190h512v-894h-192l-64 192q-75 -210 -256 -210z" />
    <glyph glyph-name="H" unicode="H" horiz-adv-x="1216" 
d="M128 0v1792h256v-768h448v768h256v-1792h-256v832h-448v-832h-256z" />
    <glyph glyph-name="I" unicode="I" horiz-adv-x="542" 
d="M140 0v1792h256v-1792h-256z" />
    <glyph glyph-name="J" unicode="J" horiz-adv-x="640" 
d="M0 0v192q83 0 129.5 9t76.5 38.5t40 77t10 131.5v1344h256v-1344q0 -122 -16 -201.5t-58.5 -137.5t-118 -83.5t-191.5 -25.5h-128z" />
    <glyph glyph-name="K" unicode="K" horiz-adv-x="1118" 
d="M128 0v1792h256v-768l384 768h320l-385 -704l449 -1088h-320l-320 832l-128 -256v-576h-256z" />
    <glyph glyph-name="L" unicode="L" horiz-adv-x="823" 
d="M128 0v1792h256v-1600h448v-192h-704z" />
    <glyph glyph-name="M" unicode="M" horiz-adv-x="1472" 
d="M128 0v1792h354l254 -1372l254 1372h354v-1792h-256v1414l-256 -1414h-192l-256 1414v-1414h-256z" />
    <glyph glyph-name="N" unicode="N" horiz-adv-x="1152" 
d="M128 0v1792h192l448 -1108v1108h256v-1792h-182l-458 1192v-1192h-256z" />
    <glyph glyph-name="O" unicode="O" horiz-adv-x="1180" 
d="M590 -18q-135 0 -231.5 41t-153.5 120t-83 185.5t-26 247.5v650q0 141 26 246t83 182.5t153.5 116.5t231.5 39q262 0 378 -150t116 -434v-650q0 -139 -26.5 -245.5t-83.5 -186t-153.5 -121t-230.5 -41.5zM590 192q135 0 186.5 81t51.5 239v778q0 156 -51 233t-187 77
t-187 -77t-51 -233v-778q0 -158 51.5 -239t186.5 -81z" />
    <glyph glyph-name="P" unicode="P" horiz-adv-x="1041" 
d="M384 1024h64q87 0 142.5 10t98 37.5t61 78.5t18.5 130q0 96 -14 155.5t-51.5 97.5t-97 52.5t-157.5 14.5h-64v-576zM128 0v1792h448q448 0 448 -512q0 -219 -115.5 -333.5t-332.5 -114.5h-192v-832h-256z" />
    <glyph glyph-name="Q" unicode="Q" horiz-adv-x="1180" 
d="M590 192q135 0 186.5 81t51.5 239v778q0 156 -51 233t-187 77t-187 -77t-51 -233v-778q0 -158 51.5 -239t186.5 -81zM1063 -256q-109 0 -216.5 76t-156.5 169q-43 -7 -100 -7q-135 0 -231.5 41t-153.5 120t-83 185.5t-26 247.5v650q0 141 26 246t83 182.5t153.5 116.5
t231.5 39q262 0 378 -150t116 -434v-650q0 -396 -215 -527q29 -42 87.5 -68.5t106.5 -26.5v-210z" />
    <glyph glyph-name="R" unicode="R" horiz-adv-x="1108" 
d="M384 1024h64q160 0 240 67.5t80 220.5t-80 220.5t-240 67.5h-64v-576zM128 0v1792h320q286 0 431 -111t145 -369q0 -160 -57 -268t-167 -148l288 -896h-254l-258 832h-192v-832h-256z" />
    <glyph glyph-name="S" unicode="S" horiz-adv-x="1102" 
d="M595 -18q-242 0 -369.5 142t-142.5 388l256 64q19 -384 256 -384q192 0 192 192q0 57 -15.5 105.5t-47.5 89t-58 65t-71 60.5l-320 256q-88 69 -140.5 175.5t-52.5 242.5q0 198 123 315t326 117q218 0 346.5 -106.5t158.5 -301.5q3 -21 7 -58l-256 -64q-1 17 -5 51
q-17 122 -76.5 195.5t-174.5 73.5q-92 0 -142 -51.5t-50 -143.5q0 -151 128 -253l320 -256q256 -207 256 -495q0 -197 -121.5 -308t-326.5 -111z" />
    <glyph glyph-name="T" unicode="T" horiz-adv-x="894" 
d="M319 0v1564h-320v228h896v-228h-320v-1564h-256z" />
    <glyph glyph-name="U" unicode="U" horiz-adv-x="1252" 
d="M626 -19q-117 0 -206 31t-146.5 86.5t-93.5 139.5t-51 181.5t-15 220.5v1152h256v-1152q0 -83 3.5 -139t18.5 -119.5t41.5 -101.5t75 -63t117.5 -25t117.5 25t75 63t41.5 101.5t18.5 119.5t3.5 139v1152h256v-1152q0 -123 -15 -220.5t-51 -181.5t-93.5 -139.5
t-146.5 -86.5t-206 -31z" />
    <glyph glyph-name="V" unicode="V" horiz-adv-x="1048" 
d="M396 0l-384 1792h256l189 -960l66 -448l68 448l189 960h256l-384 -1792h-256z" />
    <glyph glyph-name="W" unicode="W" horiz-adv-x="1558" 
d="M331 0l-320 1792h256l128 -832l65 -512l63 512l128 832h256l128 -832l63 -512l65 512l128 832h256l-320 -1792h-256l-128 832l-64 512l-64 -512l-128 -832h-256z" />
    <glyph glyph-name="X" unicode="X" horiz-adv-x="1070" 
d="M25 0l318 929l-320 863h256l256 -704l256 704h256l-320 -859l316 -933h-254l-254 768l-254 -768h-256z" />
    <glyph glyph-name="Y" unicode="Y" horiz-adv-x="1018" 
d="M381 0v576l-384 1216h256l256 -896l256 896h256l-384 -1216v-576h-256z" />
    <glyph glyph-name="Z" unicode="Z" horiz-adv-x="951" 
d="M62 0v192l576 1408h-512v192h768v-192l-576 -1408h576v-192h-832z" />
    <glyph glyph-name="bracketleft" unicode="[" horiz-adv-x="768" 
d="M128 -64v1920h512v-128h-256v-1664h256v-128h-512z" />
    <glyph glyph-name="backslash" unicode="\" horiz-adv-x="576" 
d="M256 0l-192 1792h256l192 -1792h-256z" />
    <glyph glyph-name="bracketright" unicode="]" horiz-adv-x="768" 
d="M128 -64v128h256v1664h-256v128h512v-1920h-512z" />
    <glyph glyph-name="asciicircum" unicode="^" horiz-adv-x="896" 
d="M64 896l256 640h256l256 -640h-256l-129 448l-127 -448h-256z" />
    <glyph glyph-name="underscore" unicode="_" horiz-adv-x="768" 
d="M0 0v192h768v-192h-768z" />
    <glyph glyph-name="grave" unicode="`" horiz-adv-x="640" 
d="M384 1408l-256 384h256l128 -384h-128z" />
    <glyph glyph-name="a" unicode="a" horiz-adv-x="955" 
d="M468 192q27 0 52.5 16t38.5 31t32 40q3 5 5 7v354q-16 -11 -53 -34t-59 -37.5t-53 -40t-48 -49t-30 -57.5t-13 -71q0 -159 128 -159zM340 -18q-107 0 -181.5 92.5t-74.5 208.5q0 93 31.5 169t66.5 121.5t117 94t124 66.5t146 59q18 7 27 11v92q0 97 -27 150.5t-101 53.5
q-66 0 -94.5 -45.5t-32.5 -125.5q-1 -11 -1 -33h-256q2 184 103 293t281 109q179 0 281.5 -110.5t102.5 -291.5v-576q0 -200 33 -320h-255l-34 192q-20 -40 -32.5 -62t-36.5 -54.5t-48 -50t-60 -30.5t-79 -13z" />
    <glyph glyph-name="b" unicode="b" horiz-adv-x="1042" 
d="M565 192q41 0 68.5 30t40 85.5t17 110.5t4.5 128q0 54 -0.5 143t-0.5 134t-2 78.5t-10 70.5t-21.5 61t-37.5 39.5t-58 15.5q-106 0 -192 -51v-805q99 -40 192 -40zM629 -18q-78 0 -138 37t-118 97v-116h-256v1791h256v-638q36 38 54 55t52.5 43t71.5 36.5t82 10.5
q65 0 116 -23.5t84 -56.5t56 -95t34.5 -112t17.5 -135t7 -137.5t1 -144.5v-17q0 -84 -8.5 -162t-31 -159t-57 -140t-92 -96.5t-131.5 -37.5z" />
    <glyph glyph-name="c" unicode="c" horiz-adv-x="863" 
d="M437 -18q-93 0 -161.5 31t-109.5 81t-66 127.5t-34.5 155t-11.5 180.5q-3 83 0 167q2 102 11.5 180t35 155.5t66 127t109 80.5t161.5 31q202 0 290 -109t94 -323v-34h-256v36q-1 48 -6.5 84t-18 72t-39 55.5t-64.5 19.5t-64 -22.5t-39.5 -64.5t-19.5 -86.5t-7 -102.5
q-4 -124 0 -374q2 -55 8 -96.5t19.5 -80t39.5 -59.5t63 -21q34 0 58.5 13t37.5 32t20.5 51t9.5 59.5t2 69.5v31h256v-33q-3 -101 -25 -178.5t-66.5 -135.5t-118 -88.5t-174.5 -30.5z" />
    <glyph glyph-name="d" unicode="d" horiz-adv-x="1050" 
d="M480 192q93 0 192 40v805q-86 51 -192 51q-38 0 -64 -18.5t-39 -54t-19 -73t-7 -88.5q-4 -224 0 -355q1 -64 7 -114t19.5 -96.5t39.5 -71.5t63 -25zM416 -18q-85 0 -148.5 48t-98 130t-51.5 170.5t-21 190.5q-2 47 0 230q2 66 6 119.5t13.5 111.5t24 102.5t38.5 86
t56 68.5t77 43t100 16q43 0 80.5 -11.5t71.5 -36t54.5 -43.5t53.5 -54v638h256v-1791h-256v116q-58 -60 -118 -97t-138 -37z" />
    <glyph glyph-name="e" unicode="e" horiz-adv-x="933" 
d="M479 -18q-93 0 -161.5 32t-109 83.5t-65.5 132t-34.5 161t-11.5 187.5q-3 84 0 168q3 100 13.5 177.5t36.5 150.5t67.5 120t109 75.5t157.5 28.5q82 0 144.5 -21.5t104 -65t69 -96.5t41.5 -128.5t19.5 -148.5t5.5 -168v-30h-512v-64v-41q-2 -37 -0.5 -76.5t3.5 -77.5
t11 -72.5t22 -60.5t36.5 -41t55.5 -15q40 0 66 15.5t38.5 46.5t17.5 62t6 78v54h254v-51q-9 -205 -101 -310t-283 -105zM353 768h254v77q-1 51 -6 89t-17.5 76t-38.5 58t-64 20q-39 0 -65.5 -21t-39 -60.5t-17.5 -77.5t-6 -91v-70z" />
    <glyph glyph-name="f" unicode="f" horiz-adv-x="634" 
d="M184 0v1088h-128v192h128v49q0 81 6 137.5t24.5 109t50 84t84 50t125.5 18.5q62 0 158 -12v-190q-10 1 -41 5.5t-45 4.5q-64 0 -85 -40.5t-21 -119.5v-96h192v-192h-192v-1088h-256z" />
    <glyph glyph-name="g" unicode="g" horiz-adv-x="925" 
d="M458 560q160 0 160 272q0 55 -7 101.5t-24 91t-50 70t-79 25.5q-47 0 -80 -25.5t-49.5 -70t-23.5 -91t-7 -101.5q0 -272 160 -272zM522 -194q27 0 48.5 1t49.5 4t48.5 9.5t39 16.5t28.5 26.5t10 37.5q0 107 -205 131l-211 25q-39 -28 -66.5 -81t-27.5 -111
q0 -16 11 -27.5t32.5 -17.5t44 -10t53.5 -5t53 -1t51.5 1t40.5 1zM522 -383q-48 0 -78 0.5t-82 2.5t-87 7.5t-80 14t-74.5 22.5t-56.5 33t-40.5 46.5t-13.5 61.5q0 100 53.5 171t138.5 113q-52 14 -90 42.5t-38 69.5q0 17 4 36t9 34.5t16 35.5t17.5 31.5t21.5 32t20.5 28
t21.5 27t18 22.5q-128 152 -128 384q0 133 42 237t130.5 166.5t211.5 62.5q71 0 124 -20t86.5 -50.5t65.5 -80.5q76 141 216 150h6h7.5h6.5v-209h-16q-43 0 -65 -1t-49 -8.5t-43 -23.5q18 -39 31.5 -103.5t13.5 -119.5q0 -134 -40.5 -237t-129 -165t-214.5 -62l-129 15
q-2 -5 -10 -17.5t-12.5 -20.5t-8.5 -20.5t-4 -23.5q0 -26 25 -44t69 -26.5t84.5 -12.5t90.5 -6.5t69 -5.5q57 -8 101.5 -18.5t91 -30.5t76.5 -48t49.5 -72t19.5 -101q0 -70 -24.5 -125t-65.5 -91t-99 -59.5t-122 -33.5t-137 -10z" />
    <glyph glyph-name="h" unicode="h" horiz-adv-x="992" 
d="M117 0v1792h256v-650q57 52 93 79.5t99.5 52t135.5 24.5q82 0 133 -60t51 -147v-1091h-256v960q0 66 -16.5 97t-71.5 31q-78 0 -168 -75v-1013h-256z" />
    <glyph glyph-name="i" unicode="i" 
d="M128 1472v256h256v-256h-256zM128 0v1280h256v-1280h-256z" />
    <glyph glyph-name="j" unicode="j" horiz-adv-x="507" 
d="M150 1472v256h256v-256h-256zM86 -320q-84 0 -128 17v182q35 -7 64 -7q128 0 128 149v1259h256v-1287q0 -148 -85.5 -230.5t-234.5 -82.5z" />
    <glyph glyph-name="k" unicode="k" horiz-adv-x="961" 
d="M117 0v1792h256v-985l320 473h256l-287 -447l287 -833h-256l-192 619l-128 -171v-448h-256z" />
    <glyph glyph-name="l" unicode="l" horiz-adv-x="485" 
d="M118 0v1792h256v-1792h-256z" />
    <glyph glyph-name="m" unicode="m" horiz-adv-x="1504" 
d="M117 0v1280h256v-145q137 163 319 163q92 0 135 -40.5t58 -128.5q63 83 136 126t184 43q32 0 57.5 -6.5t44.5 -15.5t33.5 -27.5t24 -34t16 -44.5t9.5 -48t5 -56t2 -58v-63v-14v-931h-256v934v16q0 33 -1 51t-6.5 41.5t-19.5 34.5t-37 11q-39 0 -78 -15.5t-60.5 -30
t-53.5 -40.5v-1002h-256v929v18v42t-3.5 36.5t-9.5 33.5t-19 20t-32 9q-94 0 -192 -81v-1007h-256z" />
    <glyph glyph-name="n" unicode="n" horiz-adv-x="992" 
d="M117 0v1280h256v-138q57 52 93 79.5t99.5 52t135.5 24.5q82 0 133 -60t51 -147v-1091h-256v960q0 67 -19 97.5t-77 30.5q-33 0 -65.5 -13.5t-48.5 -25t-46 -36.5v-1013h-256z" />
    <glyph glyph-name="o" unicode="o" horiz-adv-x="954" 
d="M477 -18q-206 0 -295 120t-89 346v384q0 226 89 346t295 120t295 -120t89 -346v-384q0 -226 -89 -346t-295 -120zM477 192q27 0 47.5 8t34 19.5t22.5 34t14 39.5t7 49t2.5 50.5t0.5 55.5v384q0 37 -0.5 55.5t-2.5 50.5t-7 49t-14 39.5t-22.5 34t-34 19.5t-47.5 8
t-47.5 -8t-34 -19.5t-22.5 -34t-14 -39.5t-7 -49t-2.5 -50.5t-0.5 -55.5v-384q0 -37 0.5 -55.5t2.5 -50.5t7 -49t14 -39.5t22.5 -34t34 -19.5t47.5 -8z" />
    <glyph glyph-name="p" unicode="p" horiz-adv-x="1042" 
d="M565 192q41 0 68.5 30t40 85.5t17 110t4.5 127.5l-2 169q0 45 -0.5 72.5t-3.5 73t-8.5 74.5t-16.5 64t-26.5 55t-40 34t-55.5 14q-15 0 -28.5 -2t-28 -6.5t-24 -8t-24.5 -11.5t-21.5 -11.5t-22.5 -13.5t-20 -12v-792q88 -52 192 -52zM117 -384v1664h256v-128q31 33 43 45
t41.5 37t51 35t55 19.5t69.5 9.5q65 0 116 -23.5t84 -56.5t56 -94.5t34.5 -111.5t17.5 -135t7 -137.5t1 -144.5v-19q0 -84 -8.5 -162t-31 -158.5t-57 -139.5t-92 -96.5t-131.5 -37.5q-130 0 -256 133v-499h-256z" />
    <glyph glyph-name="q" unicode="q" horiz-adv-x="1012" 
d="M476 192q101 0 192 52v792q-4 2 -20 12t-22.5 13.5t-21.5 11.5t-24.5 11.5t-24 8t-28 6.5t-28.5 2q-32 0 -56.5 -14.5t-40.5 -34.5t-27.5 -57t-16.5 -65.5t-8 -76t-3.5 -73.5t-0.5 -73v-3v-55v-73v-66q1 -67 6.5 -117.5t19 -99t40 -75t64.5 -26.5zM668 -384v499
q-57 -59 -117.5 -96t-138.5 -37q-74 0 -131.5 37.5t-92 96.5t-57 139.5t-31 158.5t-8.5 162v195q0 87 8 159t29 142t55.5 118.5t91.5 78t132 29.5q43 0 80.5 -11.5t72 -36.5t54 -43.5t53.5 -54.5v128h256v-1664h-256z" />
    <glyph glyph-name="r" unicode="r" horiz-adv-x="693" 
d="M117 0v1280h256v-171q39 76 113.5 132.5t165.5 56.5q3 0 41 -4v-283q-71 28 -142 28q-80 0 -129 -48t-49 -127v-864h-256z" />
    <glyph glyph-name="s" unicode="s" horiz-adv-x="876" 
d="M453 -18q-158 0 -253.5 94t-130.5 244l192 64q69 -192 192 -192q61 0 94.5 33.5t33.5 94.5q0 89 -64 148l-256 192q-43 29 -72 54.5t-59 62.5t-45.5 83t-15.5 100q0 164 104.5 251t279.5 87q83 0 150 -26.5t112.5 -74.5t75 -106.5t46.5 -130.5l-192 -64q-14 38 -28 65.5
t-37.5 59.5t-55.5 49.5t-71 17.5q-61 0 -94.5 -33.5t-33.5 -94.5q0 -60 64 -108l256 -192q43 -34 73.5 -65.5t59.5 -73t44 -92.5t15 -109q0 -164 -104.5 -251t-279.5 -87z" />
    <glyph glyph-name="t" unicode="t" horiz-adv-x="700" 
d="M472 -18q-151 0 -219.5 77t-70.5 233v796h-128v192h128v448h256v-448h192v-192h-192v-747q0 -77 21 -113t85 -36q28 0 86 10v-208q-96 -12 -158 -12z" />
    <glyph glyph-name="u" unicode="u" horiz-adv-x="987" 
d="M300 -18q-84 0 -135 59.5t-51 147.5v1091h256v-1013q0 -40 24.5 -65t63.5 -25q21 0 41 5t39.5 17.5t30.5 20t31.5 25.5t25.5 22v1013h256v-1280h-256v138q-38 -33 -55.5 -48t-53.5 -40.5t-63.5 -37t-68.5 -21t-85 -9.5z" />
    <glyph glyph-name="v" unicode="v" horiz-adv-x="872" 
d="M308 0l-288 1280h246l178 -961l162 961h246l-286 -1280h-258z" />
    <glyph glyph-name="w" unicode="w" horiz-adv-x="1281" 
d="M257 0l-237 1280h227l142 -972l134 972h234l136 -962l140 962h228l-248 -1280h-236l-136 882l-138 -882h-246z" />
    <glyph glyph-name="x" unicode="x" horiz-adv-x="866" 
d="M17 0l256 640v26l-256 614h247l171 -489l171 489h243l-256 -614v-26l256 -640h-256l-152 493l-168 -493h-256z" />
    <glyph glyph-name="y" unicode="y" horiz-adv-x="872" 
d="M84 -320v192q76 0 121.5 10t68.5 35.5t29.5 56t6.5 84.5l-290 1222h256q149 -823 161 -896q21 135 47.5 284.5t60 330t51.5 281.5h256l-320 -1344q-32 -139 -135 -197.5t-287 -58.5h-26z" />
    <glyph glyph-name="z" unicode="z" horiz-adv-x="818" 
d="M71 0v192l448 896h-384v192h640v-192l-448 -896h448v-192h-704z" />
    <glyph glyph-name="braceleft" unicode="{" horiz-adv-x="704" 
d="M640 -64q-132 0 -221 37t-138 114t-69 178t-20 247q0 13 0.5 42.5t0 41t-1.5 36.5t-3 35t-6.5 28t-11 26t-16 19.5t-22.5 16t-30 8t-38 3.5v256q24 0 43 7t32 23.5t23 32.5t15.5 45.5t9 49.5t4.5 56.5t1.5 56t0 59t-0.5 54.5q0 131 21.5 214.5t75 137t137 75t214.5 21.5
v-192q-39 0 -68 -5t-49.5 -13t-34.5 -25t-22 -34t-12 -47.5t-5 -58t-1 -73.5q0 -422 -192 -512q95 -41 143.5 -139.5t48.5 -244.5v-9q0 -56 0.5 -84t4 -75.5t10.5 -72t21 -56.5t34 -48t51 -27.5t71 -11.5v-192z" />
    <glyph glyph-name="bar" unicode="|" horiz-adv-x="384" 
d="M128 -128v2048h192v-2048h-192z" />
    <glyph glyph-name="braceright" unicode="}" horiz-adv-x="704" 
d="M64 -64v192q28 0 52 4.5t42 16t32 23t24.5 33t17.5 37.5t11.5 45.5t7 48.5t4 55t1.5 55.5v59.5v6q0 145 48.5 244.5t143.5 139.5q-192 86 -192 512q0 36 -0.5 58.5t-2.5 49t-6 42t-10.5 33.5t-16.5 28t-24 20t-33.5 14.5t-43.5 7.5t-55 3v192q173 0 268.5 -42
t137.5 -137.5t42 -268.5q0 -16 -0.5 -54.5t-0.5 -58.5t1.5 -56.5t4.5 -57t9 -49t15.5 -45t23 -33t32.5 -23.5t43 -7v-256q-27 0 -48 -5.5t-34.5 -15.5t-23 -24.5t-14 -33t-6.5 -41t-2 -47.5v-52v-37q0 -117 -12 -203t-42 -159t-80.5 -118.5t-128.5 -70.5t-185 -25z" />
    <glyph glyph-name="asciitilde" unicode="~" horiz-adv-x="960" 
d="M613 812q-48 0 -98.5 22t-97.5 43.5t-88 21.5q-48 0 -48 -67h-154q0 116 57.5 194.5t162.5 78.5q58 0 145 -43t136 -43q51 0 51 69h154q0 -119 -56.5 -197.5t-163.5 -78.5z" />
    <glyph glyph-name="uni00A0" unicode="&#xa0;" horiz-adv-x="416" 
 />
    <glyph glyph-name="exclamdown" unicode="&#xa1;" horiz-adv-x="384" 
d="M64 1280v256h256v-256h-256zM64 0l64 1152h128v-1152h-192z" />
    <glyph glyph-name="cent" unicode="&#xa2;" horiz-adv-x="1027" 
d="M479 206v865q-23 -11 -40.5 -30.5t-27.5 -50t-16.5 -56.5t-8.5 -71t-2.5 -70.5t0.5 -79t1 -73.5q0 -24 -1 -73t-1 -79t1.5 -73.5t7.5 -72t16 -58.5t28 -49t43 -29zM479 -128v113q-88 7 -151 36t-101 73t-60.5 114t-30 145t-7.5 179v201q0 100 8.5 177t32 147.5t62 118
t100.5 79t147 39.5v114h78v-114q178 -20 259 -137t81 -326l-256 1q0 101 -16 159t-68 82v-866q24 12 40.5 32.5t25 42.5t12.5 58t5 62t1 71h256q0 -5 0.5 -20t0.5 -23q0 -191 -86.5 -308t-254.5 -136v-114h-78z" />
    <glyph glyph-name="sterling" unicode="&#xa3;" horiz-adv-x="896" 
d="M0 0v128l128 63v577h-128v192h128v192q0 83 3 146t12.5 135t26 124t45.5 102t69 81.5t97.5 50.5t130.5 19q165 0 241.5 -104t78.5 -284v-78h-192q0 53 -4 91t-16 79.5t-39 63.5t-69 22q-33 0 -57 -17.5t-36.5 -42.5t-20.5 -65t-10.5 -71t-3.5 -74v-370h256v-192h-256
v-576h448v-192h-832z" />
    <glyph glyph-name="currency" unicode="&#xa4;" horiz-adv-x="1024" 
d="M512 682q91 0 141.5 59t50.5 155t-50.5 155t-141.5 59q-92 0 -142 -58.5t-50 -154.5t50.5 -155.5t141.5 -59.5zM195 489l-90 90l86 86q-63 96 -63 232q0 133 63 230l-86 86l90 90l86 -86q97 63 231 63t231 -63l86 86l90 -90l-87 -87q64 -98 64 -229q0 -132 -64 -232
l87 -86l-90 -90l-86 86q-97 -63 -231 -63t-231 63z" />
    <glyph glyph-name="yen" unicode="&#xa5;" horiz-adv-x="1024" 
d="M384 0v256h-192v168h192v129h-192v166h149l-293 1073h260l204 -944l202 944h260l-295 -1073h153v-166h-192v-129h192v-168h-192v-256h-256z" />
    <glyph glyph-name="brokenbar" unicode="&#xa6;" horiz-adv-x="395" 
d="M94 889v629h203v-629h-203zM94 -14v628h203v-628h-203z" />
    <glyph glyph-name="section" unicode="&#xa7;" horiz-adv-x="960" 
d="M512 754q96 45 96 128q0 24 -10 47t-33.5 47t-36.5 36t-45.5 36.5t-34.5 25.5q-96 -57 -96 -149q0 -34 19 -63t45 -45zM480 -17q-82 0 -149 27t-112.5 75t-75.5 106.5t-47 129.5l192 64q69 -192 192 -192q61 0 94.5 33.5t33.5 94.5q0 49 -17.5 90t-46.5 58l-256 156
q-60 36 -98.5 71t-66 94t-27.5 135q0 110 49.5 186t136.5 115q-43 25 -69 43.5t-56.5 48.5t-45.5 68.5t-15 85.5q0 164 104.5 251t279.5 87q83 0 149.5 -26.5t112.5 -74.5t75.5 -107t46.5 -130l-192 -64q-14 38 -28 65.5t-37.5 59.5t-55.5 49.5t-71 17.5q-61 0 -94.5 -33.5
t-33.5 -94.5q0 -60 64 -108q161 -89 184 -103q175 -108 231 -229q33 -69 33 -150q0 -195 -158 -286q73 -59 115.5 -123t42.5 -152q0 -164 -104.5 -251t-279.5 -87z" />
    <glyph glyph-name="dieresis" unicode="&#xa8;" horiz-adv-x="896" 
d="M512 1536v256h256v-256h-256zM128 1536v256h256v-256h-256z" />
    <glyph glyph-name="copyright" unicode="&#xa9;" horiz-adv-x="1528" 
d="M764 -14q-150 0 -279.5 55t-220 150t-142.5 227t-52 282q0 202 88 365t247 256.5t359 93.5q150 0 279.5 -55t220 -150t142.5 -227.5t52 -282.5q0 -201 -88.5 -364t-247.5 -256.5t-358 -93.5zM764 133q152 0 272 75.5t185 203.5t65 284q0 117 -38 221t-105.5 179.5
t-165.5 119.5t-213 44q-153 0 -273.5 -75.5t-184.5 -203.5t-64 -285q0 -155 65 -283.5t185 -204t272 -75.5zM768 217q-58 0 -103.5 14.5t-76 37t-52 61.5t-33.5 77t-18.5 95.5t-8 104.5t-1.5 116q0 87 6 149t24 123.5t50 99.5t87 61.5t132 23.5q281 0 281 -340h-183
q0 41 -3 70t-12 61t-29.5 48.5t-51.5 16.5q-23 0 -41.5 -5t-31.5 -17t-22 -24.5t-14.5 -34t-8.5 -38.5t-3.5 -46t-0.5 -47.5t0.5 -51.5t0.5 -51t-0.5 -50t-1 -54t0 -52.5t3 -52t7.5 -46.5t13.5 -41.5t20.5 -31t30 -21.5t40 -7q35 0 58 18t32.5 52.5t12.5 65.5t3 77h179v-16
q0 -156 -70.5 -250.5t-214.5 -94.5z" />
    <glyph glyph-name="ordfeminine" unicode="&#xaa;" horiz-adv-x="842" 
d="M374 144q36 0 66 22t45 53v189q-95 -51 -124 -76q-58 -47 -58 -104q0 -39 18.5 -61.5t52.5 -22.5zM301 -10q-83 0 -138 55t-55 138q0 68 26.5 117.5t90 84.5t101 49.5t124.5 40.5q24 7 35 11v94q0 139 -76 139q-90 0 -90 -151h-178q2 134 73 214.5t199 80.5
q79 0 132 -22.5t81.5 -69t40 -105.5t11.5 -145v-521h-177v111q-29 -53 -82.5 -87t-117.5 -34z" />
    <glyph glyph-name="guillemotleft" unicode="&#xab;" horiz-adv-x="1024" 
d="M960 64l-448 512v128l448 512v-320l-256 -255l256 -257v-320zM512 64l-448 512v128l448 512v-320l-256 -255l256 -257v-320z" />
    <glyph glyph-name="logicalnot" unicode="&#xac;" horiz-adv-x="768" 
d="M512 256v192h-384v192h512v-384h-128z" />
    <glyph glyph-name="uni00AD" unicode="&#xad;" horiz-adv-x="768" 
d="M128 448v192h512v-192h-512z" />
    <glyph glyph-name="registered" unicode="&#xae;" horiz-adv-x="1528" 
d="M764 -14q-150 0 -279.5 55t-220 150t-142.5 227t-52 282q0 202 88 365t247 256.5t359 93.5q150 0 279.5 -55t220 -150t142.5 -227.5t52 -282.5q0 -201 -88.5 -364t-247.5 -256.5t-358 -93.5zM764 133q152 0 272 75.5t185 203.5t65 284q0 117 -38 221t-105.5 179.5
t-165.5 119.5t-213 44q-153 0 -273.5 -75.5t-184.5 -203.5t-64 -285q0 -155 65 -283.5t185 -204t272 -75.5zM672 729h33q93 0 127 35.5t34 132.5q0 75 -28.5 113.5t-94.5 38.5h-71v-320zM516 248v919h240q270 0 270 -274q0 -155 -125 -223l148 -422h-168l-127 385h-82v-385
h-156z" />
    <glyph glyph-name="macron" unicode="&#xaf;" horiz-adv-x="640" 
d="M123 1407v152h434v-152h-434z" />
    <glyph glyph-name="degree" unicode="&#xb0;" horiz-adv-x="1024" 
d="M512 1042q-180 0 -282 103t-102 282q0 178 102 280.5t282 102.5t282 -102.5t102 -280.5q0 -179 -102 -282t-282 -103zM512 1212q91 0 141.5 59t50.5 155t-50.5 155t-141.5 59q-92 0 -142 -58.5t-50 -154.5t50.5 -155.5t141.5 -59.5z" />
    <glyph glyph-name="plusminus" unicode="&#xb1;" horiz-adv-x="832" 
d="M128 0v192h576v-192h-576zM320 384v192h-192v192h192v192h192v-192h192v-192h-192v-192h-192z" />
    <glyph glyph-name="uni00B2" unicode="&#xb2;" horiz-adv-x="640" 
d="M64 576v128l192 256q7 9 27.5 35.5t30 39t26 38.5t24 45t14 45.5t6.5 52.5q0 21 -0.5 32t-2 29t-5.5 27.5t-11 20t-18 15t-27 4.5t-27 -4.5t-18 -15t-11 -20t-5.5 -27.5t-2 -29t-0.5 -32h-192q0 121 66.5 188.5t189.5 67.5t189.5 -67.5t66.5 -188.5q0 -71 -37.5 -148.5
t-81.5 -130.5t-109.5 -125.5t-91.5 -107.5h320v-128h-512z" />
    <glyph glyph-name="uni00B3" unicode="&#xb3;" horiz-adv-x="768" 
d="M384 640q-123 0 -189.5 67t-66.5 189h192q0 -21 0.5 -32t2 -29t5.5 -27.5t11 -20t18 -15t27 -4.5t27 4.5t18 15t11 20t5.5 27.5t2 29t0.5 32q0 71 -28 99.5t-100 28.5v128q73 0 100.5 28t27.5 100q0 21 -0.5 32t-2 29t-5.5 27.5t-11 20t-18 15t-27 4.5t-27 -4.5t-18 -15
t-11 -20t-5.5 -27.5t-2 -29t-0.5 -32h-192q0 121 66.5 188.5t189.5 67.5t189.5 -67.5t66.5 -188.5q0 -91 -51.5 -140t-140.5 -52q90 -6 141 -53t51 -139q0 -121 -66.5 -188.5t-189.5 -67.5z" />
    <glyph glyph-name="acute" unicode="&#xb4;" horiz-adv-x="640" 
d="M128 1408l128 384h256l-256 -384h-128z" />
    <glyph glyph-name="mu" unicode="&#xb5;" horiz-adv-x="987" 
d="M370 267q0 -40 24.5 -65t63.5 -25q21 0 41 5t39.5 17.5t30.5 20t31.5 25.5t25.5 22v1013h256v-1280h-256v138q-36 -63 -96.5 -100t-159.5 -38v-252l-256 -1v1533h256v-1013z" />
    <glyph glyph-name="paragraph" unicode="&#xb6;" horiz-adv-x="952" 
d="M382 0v876q-164 0 -265 86t-101 242q0 169 107 250.5t300 81.5h473v-1536h-178v876h-139v-876h-197z" />
    <glyph glyph-name="periodcentered" unicode="&#xb7;" horiz-adv-x="384" 
d="M64 706v256h256v-256h-256z" />
    <glyph glyph-name="cedilla" unicode="&#xb8;" horiz-adv-x="576" 
d="M64 -512v128q15 0 51.5 -1t56.5 -1q68 0 108 13.5t40 52.5q0 14 -7.5 27t-22 24.5t-29 20.5t-36.5 18.5t-35 15t-35 13t-27 9.5v192h128v-128q47 -13 81.5 -26t79.5 -36t70 -56t25 -74q0 -38 -11 -67.5t-28.5 -49.5t-46 -34t-56.5 -22t-69 -12.5t-73.5 -5.5t-78.5 -1h-85
z" />
    <glyph glyph-name="uni00B9" unicode="&#xb9;" 
d="M192 640v576h-128v128q168 83 256 192h64v-896h-192z" />
    <glyph glyph-name="ordmasculine" unicode="&#xba;" horiz-adv-x="899" 
d="M450 -14q-189 0 -270 108t-81 316v319q0 208 81 316t270 108q180 0 265 -113t85 -311v-319q0 -198 -85 -311t-265 -113zM445 186q19 0 35.5 3t28.5 11.5t21.5 16t16.5 23.5t11.5 26t7.5 32.5t5 33.5t2.5 38.5t0.5 38.5v42v237v12v44.5t-1 41t-3.5 40t-7 34.5t-10.5 32
t-16 24.5t-22.5 20t-30 11t-38.5 4.5q-27 0 -48 -8t-35 -19.5t-24 -33.5t-15 -40.5t-7.5 -50t-3 -53.5t-0.5 -59v-237q0 -43 1 -68.5t4.5 -61t12.5 -56t23 -41t37 -29.5t55 -9z" />
    <glyph glyph-name="guillemotright" unicode="&#xbb;" horiz-adv-x="1024" 
d="M512 64v320l256 257l-256 255v320l448 -512v-128zM64 64v320l256 257l-256 255v320l448 -512v-128z" />
    <glyph glyph-name="onequarter" unicode="&#xbc;" horiz-adv-x="1687" 
d="M1173 383h128v256zM1301 -1v256h-320v128l340 576h172v-576h128v-128h-128v-256h-192zM409 0l575 1792h257l-576 -1792h-256zM197 744v576h-128v128q168 83 256 192h64v-896h-192z" />
    <glyph glyph-name="onehalf" unicode="&#xbd;" horiz-adv-x="1713" 
d="M1130 3v128l192 256q7 9 27.5 35.5t30 39t26 38.5t24 45t14 45.5t6.5 52.5q0 21 -0.5 32t-2 29t-5.5 27.5t-11 20t-18 15t-27 4.5t-27 -4.5t-18 -15t-11 -20t-5.5 -27.5t-2 -29t-0.5 -32h-192q0 121 66.5 188.5t189.5 67.5t189.5 -67.5t66.5 -188.5q0 -71 -37.5 -148.5
t-81.5 -130.5t-109.5 -125.5t-91.5 -107.5h320v-128h-512zM434 0l575 1792h257l-576 -1792h-256zM194 744v576h-128v128q168 83 256 192h64v-896h-192z" />
    <glyph glyph-name="threequarters" unicode="&#xbe;" horiz-adv-x="1803" 
d="M1291 386h128v256zM1419 2v256h-320v128l340 576h172v-576h128v-128h-128v-256h-192zM519 0l575 1792h257l-576 -1792h-256zM327 764q-123 0 -189.5 67t-66.5 189h192q0 -21 0.5 -32t2 -29t5.5 -27.5t11 -20t18 -15t27 -4.5t27 4.5t18 15t11 20t5.5 27.5t2 29t0.5 32
q0 71 -28 99.5t-100 28.5v128q73 0 100.5 28t27.5 100q0 21 -0.5 32t-2 29t-5.5 27.5t-11 20t-18 15t-27 4.5t-27 -4.5t-18 -15t-11 -20t-5.5 -27.5t-2 -29t-0.5 -32h-192q0 121 66.5 188.5t189.5 67.5t189.5 -67.5t66.5 -188.5q0 -91 -51.5 -140t-140.5 -52q90 -6 141 -53
t51 -139q0 -121 -66.5 -188.5t-189.5 -67.5z" />
    <glyph glyph-name="questiondown" unicode="&#xbf;" horiz-adv-x="891" 
d="M343 1106v223h221v-223h-221zM430 -5q-350 0 -350 351q0 41 10.5 84t23 75.5t40.5 75t43.5 64.5t53.5 63.5t48.5 53t49.5 50.5v217h216v-269q-12 -15 -55 -65.5t-68.5 -84.5t-58 -84.5t-49 -100.5t-16.5 -97q0 -126 112 -126q42 0 71 17.5t43.5 49.5t20.5 68.5t6 83.5
h219v-25q0 -186 -91.5 -293.5t-268.5 -107.5z" />
    <glyph glyph-name="Agrave" unicode="&#xc0;" horiz-adv-x="1056" 
d="M400 640h256l-128 768zM16 0l384 1792h256l384 -1792h-256l-96 448h-320l-96 -448h-256zM464 1912l-256 384h256l128 -384h-128z" />
    <glyph glyph-name="Aacute" unicode="&#xc1;" horiz-adv-x="1056" 
d="M400 640h256l-128 768zM16 0l384 1792h256l384 -1792h-256l-96 448h-320l-96 -448h-256zM464 1912l128 384h256l-256 -384h-128z" />
    <glyph glyph-name="Acircumflex" unicode="&#xc2;" horiz-adv-x="1056" 
d="M400 640h256l-128 768zM16 0l384 1792h256l384 -1792h-256l-96 448h-320l-96 -448h-256zM208 1912l192 384h256l192 -384h-192l-128 256l-128 -256h-192z" />
    <glyph glyph-name="Atilde" unicode="&#xc3;" horiz-adv-x="1056" 
d="M400 640h256l-128 768zM16 0l384 1792h256l384 -1792h-256l-96 448h-320l-96 -448h-256zM661 1912q-48 0 -98.5 22t-97.5 43.5t-88 21.5q-48 0 -48 -67h-154q0 116 57.5 194.5t162.5 78.5q58 0 145 -43t136 -43q51 0 51 69h154q0 -117 -57.5 -196.5t-162.5 -79.5z" />
    <glyph glyph-name="Adieresis" unicode="&#xc4;" horiz-adv-x="1056" 
d="M400 640h256l-128 768zM16 0l384 1792h256l384 -1792h-256l-96 448h-320l-96 -448h-256zM592 1912v256h256v-256h-256zM208 1912v256h256v-256h-256z" />
    <glyph glyph-name="Aring" unicode="&#xc5;" horiz-adv-x="1056" 
d="M400 640h256l-128 768zM16 0l384 1792h256l384 -1792h-256l-96 448h-320l-96 -448h-256zM528 1857q-117 0 -186.5 70t-69.5 186t69.5 186t186.5 70t186.5 -70t69.5 -186t-69.5 -186t-186.5 -70zM528 1985q60 0 94 34.5t34 93.5t-34 93.5t-94 34.5t-94 -34t-34 -94t34 -94
t94 -34z" />
    <glyph glyph-name="AE" unicode="&#xc6;" horiz-adv-x="1408" 
d="M393 640h247v658zM-126 0l764 1792h706v-192h-448v-576h320v-192h-320v-640h448v-192h-704v448h-320l-191 -448h-255z" />
    <glyph glyph-name="Ccedilla" unicode="&#xc7;" horiz-adv-x="1107" 
d="M588 -18q-113 0 -199 32t-141 88.5t-89.5 141t-48.5 180.5t-14 217v511q0 121 14 217t48.5 180.5t89.5 140.5t141 88t199 32q125 0 216 -37t145.5 -109t82 -167t32.5 -222q1 -19 1 -59h-256v57q-1 53 -4 90.5t-11 77.5t-23.5 66.5t-39 49t-59.5 33t-84 10.5
q-62 0 -106.5 -20t-69.5 -51.5t-38.5 -84.5t-17.5 -103.5t-4 -124.5v-640q0 -64 5.5 -116t21.5 -103.5t41.5 -86.5t68 -56.5t99.5 -21.5t98 22t64.5 56t37 87t17.5 103t4 116v64h256v-64q0 -139 -24.5 -244t-79 -185.5t-148 -122.5t-225.5 -42zM452 -513v128q15 0 51.5 -1
t56.5 -1q68 0 108 13.5t40 52.5q0 14 -7.5 27t-22 24.5t-29 20.5t-36.5 18.5t-35 15t-35 13t-27 9.5v192h128v-128q47 -13 81.5 -26t79.5 -36t70 -56t25 -74q0 -38 -11 -67.5t-28.5 -49.5t-46 -34t-56.5 -22t-69 -12.5t-73.5 -5.5t-78.5 -1h-85z" />
    <glyph glyph-name="Egrave" unicode="&#xc8;" horiz-adv-x="861" 
d="M128 0v1792h704v-192h-448v-576h320v-192h-320v-640h448v-192h-704zM416 1912l-256 384h256l128 -384h-128z" />
    <glyph glyph-name="Eacute" unicode="&#xc9;" horiz-adv-x="861" 
d="M128 0v1792h704v-192h-448v-576h320v-192h-320v-640h448v-192h-704zM416 1912l128 384h256l-256 -384h-128z" />
    <glyph glyph-name="Ecircumflex" unicode="&#xca;" horiz-adv-x="861" 
d="M128 0v1792h704v-192h-448v-576h320v-192h-320v-640h448v-192h-704zM160 1912l192 384h256l192 -384h-192l-128 256l-128 -256h-192z" />
    <glyph glyph-name="Edieresis" unicode="&#xcb;" horiz-adv-x="861" 
d="M128 0v1792h704v-192h-448v-576h320v-192h-320v-640h448v-192h-704zM544 1912v256h256v-256h-256zM160 1912v256h256v-256h-256z" />
    <glyph glyph-name="Igrave" unicode="&#xcc;" horiz-adv-x="542" 
d="M140 0v1792h256v-1792h-256zM204 1912l-256 384h256l128 -384h-128z" />
    <glyph glyph-name="Iacute" unicode="&#xcd;" horiz-adv-x="542" 
d="M140 0v1792h256v-1792h-256zM204 1912l128 384h256l-256 -384h-128z" />
    <glyph glyph-name="Icircumflex" unicode="&#xce;" horiz-adv-x="542" 
d="M140 0v1792h256v-1792h-256zM-52 1912l192 384h256l192 -384h-192l-128 256l-128 -256h-192z" />
    <glyph glyph-name="Idieresis" unicode="&#xcf;" horiz-adv-x="542" 
d="M140 0v1792h256v-1792h-256zM332 1912v256h256v-256h-256zM-52 1912v256h256v-256h-256z" />
    <glyph glyph-name="Eth" unicode="&#xd0;" horiz-adv-x="1152" 
d="M128 0v852h-94v152h94v788h384q281 0 396.5 -115t115.5 -397v-704q0 -295 -117.5 -435.5t-396.5 -140.5h-382zM384 192h128q63 0 108 11.5t73 42t44 58t22.5 85.5t7.5 95.5t1 116.5v39v576q0 49 -0.5 78t-3 68.5t-7.5 62.5t-14 51.5t-22.5 44.5t-33 33.5t-45 26t-59.5 14
t-76 5.5h-123v-596h144v-152h-144v-660z" />
    <glyph glyph-name="Ntilde" unicode="&#xd1;" horiz-adv-x="1152" 
d="M128 0v1792h192l448 -1108v1108h256v-1792h-182l-458 1192v-1192h-256zM709 1912q-48 0 -98.5 22t-97.5 43.5t-88 21.5q-48 0 -48 -67h-154q0 116 57.5 194.5t162.5 78.5q58 0 145 -43t136 -43q51 0 51 69h154q0 -117 -57.5 -196.5t-162.5 -79.5z" />
    <glyph glyph-name="Ograve" unicode="&#xd2;" horiz-adv-x="1180" 
d="M590 -18q-135 0 -231.5 41t-153.5 120t-83 185.5t-26 247.5v650q0 141 26 246t83 182.5t153.5 116.5t231.5 39q262 0 378 -150t116 -434v-650q0 -139 -26.5 -245.5t-83.5 -186t-153.5 -121t-230.5 -41.5zM590 192q135 0 186.5 81t51.5 239v778q0 156 -51 233t-187 77
t-187 -77t-51 -233v-778q0 -158 51.5 -239t186.5 -81zM526 1912l-256 384h256l128 -384h-128z" />
    <glyph glyph-name="Oacute" unicode="&#xd3;" horiz-adv-x="1180" 
d="M590 -18q-135 0 -231.5 41t-153.5 120t-83 185.5t-26 247.5v650q0 141 26 246t83 182.5t153.5 116.5t231.5 39q262 0 378 -150t116 -434v-650q0 -139 -26.5 -245.5t-83.5 -186t-153.5 -121t-230.5 -41.5zM590 192q135 0 186.5 81t51.5 239v778q0 156 -51 233t-187 77
t-187 -77t-51 -233v-778q0 -158 51.5 -239t186.5 -81zM526 1912l128 384h256l-256 -384h-128z" />
    <glyph glyph-name="Ocircumflex" unicode="&#xd4;" horiz-adv-x="1180" 
d="M590 -18q-135 0 -231.5 41t-153.5 120t-83 185.5t-26 247.5v650q0 141 26 246t83 182.5t153.5 116.5t231.5 39q262 0 378 -150t116 -434v-650q0 -139 -26.5 -245.5t-83.5 -186t-153.5 -121t-230.5 -41.5zM590 192q135 0 186.5 81t51.5 239v778q0 156 -51 233t-187 77
t-187 -77t-51 -233v-778q0 -158 51.5 -239t186.5 -81zM270 1912l192 384h256l192 -384h-192l-128 256l-128 -256h-192z" />
    <glyph glyph-name="Otilde" unicode="&#xd5;" horiz-adv-x="1180" 
d="M590 -18q-135 0 -231.5 41t-153.5 120t-83 185.5t-26 247.5v650q0 141 26 246t83 182.5t153.5 116.5t231.5 39q262 0 378 -150t116 -434v-650q0 -139 -26.5 -245.5t-83.5 -186t-153.5 -121t-230.5 -41.5zM590 192q135 0 186.5 81t51.5 239v778q0 156 -51 233t-187 77
t-187 -77t-51 -233v-778q0 -158 51.5 -239t186.5 -81zM723 1912q-48 0 -98.5 22t-97.5 43.5t-88 21.5q-48 0 -48 -67h-154q0 116 57.5 194.5t162.5 78.5q58 0 145 -43t136 -43q51 0 51 69h154q0 -117 -57.5 -196.5t-162.5 -79.5z" />
    <glyph glyph-name="Odieresis" unicode="&#xd6;" horiz-adv-x="1180" 
d="M590 -18q-135 0 -231.5 41t-153.5 120t-83 185.5t-26 247.5v650q0 141 26 246t83 182.5t153.5 116.5t231.5 39q262 0 378 -150t116 -434v-650q0 -139 -26.5 -245.5t-83.5 -186t-153.5 -121t-230.5 -41.5zM590 192q135 0 186.5 81t51.5 239v778q0 156 -51 233t-187 77
t-187 -77t-51 -233v-778q0 -158 51.5 -239t186.5 -81zM654 1912v256h256v-256h-256zM270 1912v256h256v-256h-256z" />
    <glyph glyph-name="multiply" unicode="&#xd7;" horiz-adv-x="768" 
d="M192 320l-128 128l192 192l-192 192l128 128l192 -192l192 192l128 -128l-192 -192l192 -192l-128 -128l-192 192z" />
    <glyph glyph-name="Oslash" unicode="&#xd8;" horiz-adv-x="1180" 
d="M590 192q135 0 186.5 81t51.5 239v778q0 127 -29 194l-336 -1265q49 -27 127 -27zM387 301l336 1270q-52 29 -133 29q-136 0 -187 -77t-51 -233v-778q0 -138 35 -211zM364 -156l-90 28l45 171q-223 126 -223 533v650q0 141 26 246t83 182.5t153.5 116.5t231.5 39
q110 0 189 -25l42 159l93 -24l-46 -174q216 -127 216 -520v-650q0 -139 -26.5 -245.5t-83.5 -186t-153.5 -121t-230.5 -41.5q-104 0 -183 24z" />
    <glyph glyph-name="Ugrave" unicode="&#xd9;" horiz-adv-x="1252" 
d="M626 -19q-117 0 -206 31t-146.5 86.5t-93.5 139.5t-51 181.5t-15 220.5v1152h256v-1152q0 -83 3.5 -139t18.5 -119.5t41.5 -101.5t75 -63t117.5 -25t117.5 25t75 63t41.5 101.5t18.5 119.5t3.5 139v1152h256v-1152q0 -123 -15 -220.5t-51 -181.5t-93.5 -139.5
t-146.5 -86.5t-206 -31zM562 1912l-256 384h256l128 -384h-128z" />
    <glyph glyph-name="Uacute" unicode="&#xda;" horiz-adv-x="1252" 
d="M626 -19q-117 0 -206 31t-146.5 86.5t-93.5 139.5t-51 181.5t-15 220.5v1152h256v-1152q0 -83 3.5 -139t18.5 -119.5t41.5 -101.5t75 -63t117.5 -25t117.5 25t75 63t41.5 101.5t18.5 119.5t3.5 139v1152h256v-1152q0 -123 -15 -220.5t-51 -181.5t-93.5 -139.5
t-146.5 -86.5t-206 -31zM562 1912l128 384h256l-256 -384h-128z" />
    <glyph glyph-name="Ucircumflex" unicode="&#xdb;" horiz-adv-x="1252" 
d="M626 -19q-117 0 -206 31t-146.5 86.5t-93.5 139.5t-51 181.5t-15 220.5v1152h256v-1152q0 -83 3.5 -139t18.5 -119.5t41.5 -101.5t75 -63t117.5 -25t117.5 25t75 63t41.5 101.5t18.5 119.5t3.5 139v1152h256v-1152q0 -123 -15 -220.5t-51 -181.5t-93.5 -139.5
t-146.5 -86.5t-206 -31zM306 1912l192 384h256l192 -384h-192l-128 256l-128 -256h-192z" />
    <glyph glyph-name="Udieresis" unicode="&#xdc;" horiz-adv-x="1252" 
d="M626 -19q-117 0 -206 31t-146.5 86.5t-93.5 139.5t-51 181.5t-15 220.5v1152h256v-1152q0 -83 3.5 -139t18.5 -119.5t41.5 -101.5t75 -63t117.5 -25t117.5 25t75 63t41.5 101.5t18.5 119.5t3.5 139v1152h256v-1152q0 -123 -15 -220.5t-51 -181.5t-93.5 -139.5
t-146.5 -86.5t-206 -31zM690 1912v256h256v-256h-256zM306 1912v256h256v-256h-256z" />
    <glyph glyph-name="Yacute" unicode="&#xdd;" horiz-adv-x="1018" 
d="M381 0v576l-384 1216h256l256 -896l256 896h256l-384 -1216v-576h-256zM445 1912l128 384h256l-256 -384h-128z" />
    <glyph glyph-name="Thorn" unicode="&#xde;" horiz-adv-x="952" 
d="M324 581h45q155 0 227.5 65.5t72.5 241.5q0 164 -63.5 232t-204.5 68h-77v-607zM72 0v1792h252v-381h180q216 0 321.5 -137.5t105.5 -387.5q0 -264 -118.5 -393t-355.5 -129h-131v-364h-254z" />
    <glyph glyph-name="germandbls" unicode="&#xdf;" horiz-adv-x="1152" 
d="M512 -18v210q79 0 129.5 18.5t78.5 61t38 98.5t10 142q0 141 -64.5 220.5t-191.5 79.5v212q56 0 96 27t62 74.5t31.5 101t9.5 117.5q0 60 -6.5 102t-23.5 79t-51 56t-86 19q-49 0 -81.5 -17.5t-49 -52.5t-23 -75t-6.5 -96v-1359h-256v1354q0 207 98.5 331.5t285.5 124.5
q223 0 335.5 -120t112.5 -346q0 -153 -54 -248.5t-165 -156.5q132 -36 207.5 -148t75.5 -279q0 -265 -125 -397.5t-387 -132.5z" />
    <glyph glyph-name="agrave" unicode="&#xe0;" horiz-adv-x="955" 
d="M468 192q27 0 52.5 16t38.5 31t32 40q3 5 5 7v354q-16 -11 -53 -34t-59 -37.5t-53 -40t-48 -49t-30 -57.5t-13 -71q0 -159 128 -159zM340 -18q-107 0 -181.5 92.5t-74.5 208.5q0 93 31.5 169t66.5 121.5t117 94t124 66.5t146 59q18 7 27 11v92q0 97 -27 150.5t-101 53.5
q-66 0 -94.5 -45.5t-32.5 -125.5q-1 -11 -1 -33h-256q2 184 103 293t281 109q179 0 281.5 -110.5t102.5 -291.5v-576q0 -200 33 -320h-255l-34 192q-20 -40 -32.5 -62t-36.5 -54.5t-48 -50t-60 -30.5t-79 -13zM392 1400l-256 384h256l128 -384h-128z" />
    <glyph glyph-name="aacute" unicode="&#xe1;" horiz-adv-x="955" 
d="M468 192q27 0 52.5 16t38.5 31t32 40q3 5 5 7v354q-16 -11 -53 -34t-59 -37.5t-53 -40t-48 -49t-30 -57.5t-13 -71q0 -159 128 -159zM340 -18q-107 0 -181.5 92.5t-74.5 208.5q0 93 31.5 169t66.5 121.5t117 94t124 66.5t146 59q18 7 27 11v92q0 97 -27 150.5t-101 53.5
q-66 0 -94.5 -45.5t-32.5 -125.5q-1 -11 -1 -33h-256q2 184 103 293t281 109q179 0 281.5 -110.5t102.5 -291.5v-576q0 -200 33 -320h-255l-34 192q-20 -40 -32.5 -62t-36.5 -54.5t-48 -50t-60 -30.5t-79 -13zM392 1400l128 384h256l-256 -384h-128z" />
    <glyph glyph-name="acircumflex" unicode="&#xe2;" horiz-adv-x="955" 
d="M468 192q27 0 52.5 16t38.5 31t32 40q3 5 5 7v354q-16 -11 -53 -34t-59 -37.5t-53 -40t-48 -49t-30 -57.5t-13 -71q0 -159 128 -159zM340 -18q-107 0 -181.5 92.5t-74.5 208.5q0 93 31.5 169t66.5 121.5t117 94t124 66.5t146 59q18 7 27 11v92q0 97 -27 150.5t-101 53.5
q-66 0 -94.5 -45.5t-32.5 -125.5q-1 -11 -1 -33h-256q2 184 103 293t281 109q179 0 281.5 -110.5t102.5 -291.5v-576q0 -200 33 -320h-255l-34 192q-20 -40 -32.5 -62t-36.5 -54.5t-48 -50t-60 -30.5t-79 -13zM136 1400l192 384h256l192 -384h-192l-128 256l-128 -256h-192z
" />
    <glyph glyph-name="atilde" unicode="&#xe3;" horiz-adv-x="955" 
d="M468 192q27 0 52.5 16t38.5 31t32 40q3 5 5 7v354q-16 -11 -53 -34t-59 -37.5t-53 -40t-48 -49t-30 -57.5t-13 -71q0 -159 128 -159zM340 -18q-107 0 -181.5 92.5t-74.5 208.5q0 93 31.5 169t66.5 121.5t117 94t124 66.5t146 59q18 7 27 11v92q0 97 -27 150.5t-101 53.5
q-66 0 -94.5 -45.5t-32.5 -125.5q-1 -11 -1 -33h-256q2 184 103 293t281 109q179 0 281.5 -110.5t102.5 -291.5v-576q0 -200 33 -320h-255l-34 192q-20 -40 -32.5 -62t-36.5 -54.5t-48 -50t-60 -30.5t-79 -13zM589 1400q-48 0 -98.5 22t-97.5 43.5t-88 21.5q-48 0 -48 -67
h-154q0 116 57.5 194.5t162.5 78.5q58 0 145 -43t136 -43q51 0 51 69h154q0 -117 -57.5 -196.5t-162.5 -79.5z" />
    <glyph glyph-name="adieresis" unicode="&#xe4;" horiz-adv-x="955" 
d="M468 192q27 0 52.5 16t38.5 31t32 40q3 5 5 7v354q-16 -11 -53 -34t-59 -37.5t-53 -40t-48 -49t-30 -57.5t-13 -71q0 -159 128 -159zM340 -18q-107 0 -181.5 92.5t-74.5 208.5q0 93 31.5 169t66.5 121.5t117 94t124 66.5t146 59q18 7 27 11v92q0 97 -27 150.5t-101 53.5
q-66 0 -94.5 -45.5t-32.5 -125.5q-1 -11 -1 -33h-256q2 184 103 293t281 109q179 0 281.5 -110.5t102.5 -291.5v-576q0 -200 33 -320h-255l-34 192q-20 -40 -32.5 -62t-36.5 -54.5t-48 -50t-60 -30.5t-79 -13zM520 1400v256h256v-256h-256zM136 1400v256h256v-256h-256z" />
    <glyph glyph-name="aring" unicode="&#xe5;" horiz-adv-x="955" 
d="M468 192q27 0 52.5 16t38.5 31t32 40q3 5 5 7v354q-16 -11 -53 -34t-59 -37.5t-53 -40t-48 -49t-30 -57.5t-13 -71q0 -159 128 -159zM340 -18q-107 0 -181.5 92.5t-74.5 208.5q0 93 31.5 169t66.5 121.5t117 94t124 66.5t146 59q18 7 27 11v92q0 97 -27 150.5t-101 53.5
q-66 0 -94.5 -45.5t-32.5 -125.5q-1 -11 -1 -33h-256q2 184 103 293t281 109q179 0 281.5 -110.5t102.5 -291.5v-576q0 -200 33 -320h-255l-34 192q-20 -40 -32.5 -62t-36.5 -54.5t-48 -50t-60 -30.5t-79 -13zM456 1400q-117 0 -186.5 70t-69.5 186t69.5 186t186.5 70
t186.5 -70t69.5 -186t-69.5 -186t-186.5 -70zM456 1528q60 0 94 34.5t34 93.5t-34 93.5t-94 34.5t-94 -34t-34 -94t34 -94t94 -34z" />
    <glyph glyph-name="ae" unicode="&#xe6;" horiz-adv-x="1465" 
d="M864 764h117q40 6 62 12.5t41.5 21t27.5 40t8 66.5q0 79 -31 131.5t-97 52.5q-27 0 -47.5 -11.5t-34 -27t-23 -44t-14 -51t-6.5 -60.5t-2.5 -59t-0.5 -60v-11zM481 192q84 0 171 99q-39 142 -43 289q-56 -15 -94.5 -29.5t-79 -40.5t-61.5 -66t-21 -93q0 -159 128 -159z
M353 -18q-107 0 -181.5 92.5t-74.5 208.5q0 65 15.5 120t39.5 94.5t65 73t79.5 55t97 41.5t103.5 31.5t112 26.5v171q0 97 -27 150.5t-101 53.5q-50 0 -79.5 -29t-39 -71t-9.5 -104h-256q2 184 103.5 293t280.5 109q95 0 163.5 -40t92.5 -112q38 67 102.5 109.5t152.5 42.5
q177 0 269.5 -113t92.5 -305q0 -39 -7.5 -71t-20 -55.5t-33.5 -42t-42 -31t-52 -22t-58 -14.5t-65.5 -9t-67.5 -6t-72 -4.5t-72 -5.5v-43v-43q-2 -37 -0.5 -77t3.5 -79t11 -73.5t22 -61t36.5 -42t55.5 -15.5q24 0 43 8.5t31 20.5t20.5 34.5t12.5 40t6 49t2.5 49.5t0.5 52v5
v4h255q0 -228 -87.5 -347t-284.5 -119q-224 0 -307 197q-32 -46 -59 -76.5t-66.5 -60.5t-91 -45t-114.5 -15z" />
    <glyph glyph-name="ccedilla" unicode="&#xe7;" horiz-adv-x="901" 
d="M437 -18q-93 0 -161.5 31t-109.5 81t-66 127.5t-34.5 155t-11.5 180.5q-3 83 0 167q2 102 11.5 180t35 155.5t66 127t109 80.5t161.5 31q202 0 290 -109t94 -323v-34h-256v36q-1 48 -6.5 84t-18 72t-39 55.5t-64.5 19.5t-64 -22.5t-39.5 -64.5t-19.5 -86.5t-7 -102.5
q-4 -124 0 -374q2 -55 8 -96.5t19.5 -80t39.5 -59.5t63 -21q34 0 58.5 13t37.5 32t20.5 51t9.5 59.5t2 69.5v31h256v-33q-3 -101 -25 -178.5t-66.5 -135.5t-118 -88.5t-174.5 -30.5zM349 -513v128q15 0 51.5 -1t56.5 -1q68 0 108 13.5t40 52.5q0 14 -7.5 27t-22 24.5
t-29 20.5t-36.5 18.5t-35 15t-35 13t-27 9.5v192h128v-128q47 -13 81.5 -26t79.5 -36t70 -56t25 -74q0 -38 -11 -67.5t-28.5 -49.5t-46 -34t-56.5 -22t-69 -12.5t-73.5 -5.5t-78.5 -1h-85z" />
    <glyph glyph-name="egrave" unicode="&#xe8;" horiz-adv-x="910" 
d="M479 -18q-93 0 -161.5 32t-109 83.5t-65.5 132t-34.5 161t-11.5 187.5q-3 84 0 168q3 100 13.5 177.5t36.5 150.5t67.5 120t109 75.5t157.5 28.5q82 0 144.5 -21.5t104 -65t69 -96.5t41.5 -128.5t19.5 -148.5t5.5 -168v-30h-512v-64v-41q-2 -37 -0.5 -76.5t3.5 -77.5
t11 -72.5t22 -60.5t36.5 -41t55.5 -15q40 0 66 15.5t38.5 46.5t17.5 62t6 78v54h254v-51q-9 -205 -101 -310t-283 -105zM353 768h254v77q-1 51 -6 89t-17.5 76t-38.5 58t-64 20q-39 0 -65.5 -21t-39 -60.5t-17.5 -77.5t-6 -91v-70zM413 1400l-256 384h256l128 -384h-128z
" />
    <glyph glyph-name="eacute" unicode="&#xe9;" horiz-adv-x="910" 
d="M479 -18q-93 0 -161.5 32t-109 83.5t-65.5 132t-34.5 161t-11.5 187.5q-3 84 0 168q3 100 13.5 177.5t36.5 150.5t67.5 120t109 75.5t157.5 28.5q82 0 144.5 -21.5t104 -65t69 -96.5t41.5 -128.5t19.5 -148.5t5.5 -168v-30h-512v-64v-41q-2 -37 -0.5 -76.5t3.5 -77.5
t11 -72.5t22 -60.5t36.5 -41t55.5 -15q40 0 66 15.5t38.5 46.5t17.5 62t6 78v54h254v-51q-9 -205 -101 -310t-283 -105zM353 768h254v77q-1 51 -6 89t-17.5 76t-38.5 58t-64 20q-39 0 -65.5 -21t-39 -60.5t-17.5 -77.5t-6 -91v-70zM413 1400l128 384h256l-256 -384h-128z
" />
    <glyph glyph-name="ecircumflex" unicode="&#xea;" horiz-adv-x="910" 
d="M479 -18q-93 0 -161.5 32t-109 83.5t-65.5 132t-34.5 161t-11.5 187.5q-3 84 0 168q3 100 13.5 177.5t36.5 150.5t67.5 120t109 75.5t157.5 28.5q82 0 144.5 -21.5t104 -65t69 -96.5t41.5 -128.5t19.5 -148.5t5.5 -168v-30h-512v-64v-41q-2 -37 -0.5 -76.5t3.5 -77.5
t11 -72.5t22 -60.5t36.5 -41t55.5 -15q40 0 66 15.5t38.5 46.5t17.5 62t6 78v54h254v-51q-9 -205 -101 -310t-283 -105zM353 768h254v77q-1 51 -6 89t-17.5 76t-38.5 58t-64 20q-39 0 -65.5 -21t-39 -60.5t-17.5 -77.5t-6 -91v-70zM157 1400l192 384h256l192 -384h-192
l-128 256l-128 -256h-192z" />
    <glyph glyph-name="edieresis" unicode="&#xeb;" horiz-adv-x="910" 
d="M479 -18q-93 0 -161.5 32t-109 83.5t-65.5 132t-34.5 161t-11.5 187.5q-3 84 0 168q3 100 13.5 177.5t36.5 150.5t67.5 120t109 75.5t157.5 28.5q82 0 144.5 -21.5t104 -65t69 -96.5t41.5 -128.5t19.5 -148.5t5.5 -168v-30h-512v-64v-41q-2 -37 -0.5 -76.5t3.5 -77.5
t11 -72.5t22 -60.5t36.5 -41t55.5 -15q40 0 66 15.5t38.5 46.5t17.5 62t6 78v54h254v-51q-9 -205 -101 -310t-283 -105zM353 768h254v77q-1 51 -6 89t-17.5 76t-38.5 58t-64 20q-39 0 -65.5 -21t-39 -60.5t-17.5 -77.5t-6 -91v-70zM541 1400v256h256v-256h-256zM157 1400
v256h256v-256h-256z" />
    <glyph glyph-name="igrave" unicode="&#xec;" 
d="M128 0v1280h256v-1280h-256zM192 1400l-256 384h256l128 -384h-128z" />
    <glyph glyph-name="iacute" unicode="&#xed;" 
d="M128 0v1280h256v-1280h-256zM192 1400l128 384h256l-256 -384h-128z" />
    <glyph glyph-name="icircumflex" unicode="&#xee;" 
d="M128 0v1280h256v-1280h-256zM-64 1400l192 384h256l192 -384h-192l-128 256l-128 -256h-192z" />
    <glyph glyph-name="idieresis" unicode="&#xef;" 
d="M128 0v1280h256v-1280h-256zM320 1400v256h256v-256h-256zM-64 1400v256h256v-256h-256z" />
    <glyph glyph-name="eth" unicode="&#xf0;" horiz-adv-x="1152" 
d="M576 192q55 0 94 27t59.5 75t29.5 101.5t9 116.5v466q-75 110 -192 110q-192 0 -192 -384v-6q0 -73 1 -113t6 -110.5t17.5 -111t32.5 -85t54.5 -65.5t80.5 -21zM576 -18q-106 0 -186 34t-129 91.5t-79 143.5t-41.5 179t-11.5 210q0 101 10 190t37 177t69 150.5
t110.5 101.5t156.5 39q90 0 162 -41t94 -105q0 193 -69 294l-443 -102v128l320 74q-72 32 -162.5 43t-221.5 11v210q242 0 407 -44t261 -155l228 53v-128l-156 -36q92 -189 92 -540v-384q0 -124 -26.5 -229.5t-79 -188t-140.5 -129.5t-202 -47z" />
    <glyph glyph-name="ntilde" unicode="&#xf1;" horiz-adv-x="992" 
d="M117 0v1280h256v-138q57 52 93 79.5t99.5 52t135.5 24.5q82 0 133 -60t51 -147v-1091h-256v960q0 67 -19 97.5t-77 30.5q-33 0 -65.5 -13.5t-48.5 -25t-46 -36.5v-1013h-256zM634 1400q-48 0 -98.5 22t-97.5 43.5t-88 21.5q-48 0 -48 -67h-154q0 116 57.5 194.5
t162.5 78.5q58 0 145 -43t136 -43q51 0 51 69h154q0 -117 -57.5 -196.5t-162.5 -79.5z" />
    <glyph glyph-name="ograve" unicode="&#xf2;" horiz-adv-x="954" 
d="M477 -18q-206 0 -295 120t-89 346v384q0 226 89 346t295 120t295 -120t89 -346v-384q0 -226 -89 -346t-295 -120zM477 192q27 0 47.5 8t34 19.5t22.5 34t14 39.5t7 49t2.5 50.5t0.5 55.5v384q0 37 -0.5 55.5t-2.5 50.5t-7 49t-14 39.5t-22.5 34t-34 19.5t-47.5 8
t-47.5 -8t-34 -19.5t-22.5 -34t-14 -39.5t-7 -49t-2.5 -50.5t-0.5 -55.5v-384q0 -37 0.5 -55.5t2.5 -50.5t7 -49t14 -39.5t22.5 -34t34 -19.5t47.5 -8zM413 1400l-256 384h256l128 -384h-128z" />
    <glyph glyph-name="oacute" unicode="&#xf3;" horiz-adv-x="954" 
d="M477 -18q-206 0 -295 120t-89 346v384q0 226 89 346t295 120t295 -120t89 -346v-384q0 -226 -89 -346t-295 -120zM477 192q27 0 47.5 8t34 19.5t22.5 34t14 39.5t7 49t2.5 50.5t0.5 55.5v384q0 37 -0.5 55.5t-2.5 50.5t-7 49t-14 39.5t-22.5 34t-34 19.5t-47.5 8
t-47.5 -8t-34 -19.5t-22.5 -34t-14 -39.5t-7 -49t-2.5 -50.5t-0.5 -55.5v-384q0 -37 0.5 -55.5t2.5 -50.5t7 -49t14 -39.5t22.5 -34t34 -19.5t47.5 -8zM413 1400l128 384h256l-256 -384h-128z" />
    <glyph glyph-name="ocircumflex" unicode="&#xf4;" horiz-adv-x="954" 
d="M477 -18q-206 0 -295 120t-89 346v384q0 226 89 346t295 120t295 -120t89 -346v-384q0 -226 -89 -346t-295 -120zM477 192q27 0 47.5 8t34 19.5t22.5 34t14 39.5t7 49t2.5 50.5t0.5 55.5v384q0 37 -0.5 55.5t-2.5 50.5t-7 49t-14 39.5t-22.5 34t-34 19.5t-47.5 8
t-47.5 -8t-34 -19.5t-22.5 -34t-14 -39.5t-7 -49t-2.5 -50.5t-0.5 -55.5v-384q0 -37 0.5 -55.5t2.5 -50.5t7 -49t14 -39.5t22.5 -34t34 -19.5t47.5 -8zM157 1400l192 384h256l192 -384h-192l-128 256l-128 -256h-192z" />
    <glyph glyph-name="otilde" unicode="&#xf5;" horiz-adv-x="954" 
d="M477 -18q-206 0 -295 120t-89 346v384q0 226 89 346t295 120t295 -120t89 -346v-384q0 -226 -89 -346t-295 -120zM477 192q27 0 47.5 8t34 19.5t22.5 34t14 39.5t7 49t2.5 50.5t0.5 55.5v384q0 37 -0.5 55.5t-2.5 50.5t-7 49t-14 39.5t-22.5 34t-34 19.5t-47.5 8
t-47.5 -8t-34 -19.5t-22.5 -34t-14 -39.5t-7 -49t-2.5 -50.5t-0.5 -55.5v-384q0 -37 0.5 -55.5t2.5 -50.5t7 -49t14 -39.5t22.5 -34t34 -19.5t47.5 -8zM610 1400q-48 0 -98.5 22t-97.5 43.5t-88 21.5q-48 0 -48 -67h-154q0 116 57.5 194.5t162.5 78.5q58 0 145 -43t136 -43
q51 0 51 69h154q0 -117 -57.5 -196.5t-162.5 -79.5z" />
    <glyph glyph-name="odieresis" unicode="&#xf6;" horiz-adv-x="954" 
d="M477 -18q-206 0 -295 120t-89 346v384q0 226 89 346t295 120t295 -120t89 -346v-384q0 -226 -89 -346t-295 -120zM477 192q27 0 47.5 8t34 19.5t22.5 34t14 39.5t7 49t2.5 50.5t0.5 55.5v384q0 37 -0.5 55.5t-2.5 50.5t-7 49t-14 39.5t-22.5 34t-34 19.5t-47.5 8
t-47.5 -8t-34 -19.5t-22.5 -34t-14 -39.5t-7 -49t-2.5 -50.5t-0.5 -55.5v-384q0 -37 0.5 -55.5t2.5 -50.5t7 -49t14 -39.5t22.5 -34t34 -19.5t47.5 -8zM541 1400v256h256v-256h-256zM157 1400v256h256v-256h-256z" />
    <glyph glyph-name="divide" unicode="&#xf7;" horiz-adv-x="640" 
d="M192 879v256h256v-256h-256zM0 576v192h640v-192h-640zM192 233v256h256v-256h-256z" />
    <glyph glyph-name="oslash" unicode="&#xf8;" horiz-adv-x="1024" 
d="M384 346l238 669q-28 73 -110 73q-27 0 -47.5 -8t-34 -19.5t-22.5 -34t-14 -39.5t-7 -49t-2.5 -50.5t-0.5 -55.5v-486zM512 192q27 0 47.5 8t34 19.5t22.5 34t14 39.5t7 49t2.5 50.5t0.5 55.5v355l-209 -583q33 -28 81 -28zM272 -222l-76 26l84 239q-152 98 -152 405v384
q0 110 20 193t64 145.5t119.5 95t180.5 32.5q107 0 195 -40l82 233l87 -29l-92 -257q112 -112 112 -373v-384q0 -226 -89 -346t-295 -120q-94 0 -158 24z" />
    <glyph glyph-name="ugrave" unicode="&#xf9;" horiz-adv-x="987" 
d="M300 -18q-84 0 -135 59.5t-51 147.5v1091h256v-1013q0 -40 24.5 -65t63.5 -25q21 0 41 5t39.5 17.5t30.5 20t31.5 25.5t25.5 22v1013h256v-1280h-256v138q-38 -33 -55.5 -48t-53.5 -40.5t-63.5 -37t-68.5 -21t-85 -9.5zM434 1400l-256 384h256l128 -384h-128z" />
    <glyph glyph-name="uacute" unicode="&#xfa;" horiz-adv-x="987" 
d="M300 -18q-84 0 -135 59.5t-51 147.5v1091h256v-1013q0 -40 24.5 -65t63.5 -25q21 0 41 5t39.5 17.5t30.5 20t31.5 25.5t25.5 22v1013h256v-1280h-256v138q-38 -33 -55.5 -48t-53.5 -40.5t-63.5 -37t-68.5 -21t-85 -9.5zM434 1400l128 384h256l-256 -384h-128z" />
    <glyph glyph-name="ucircumflex" unicode="&#xfb;" horiz-adv-x="987" 
d="M300 -18q-84 0 -135 59.5t-51 147.5v1091h256v-1013q0 -40 24.5 -65t63.5 -25q21 0 41 5t39.5 17.5t30.5 20t31.5 25.5t25.5 22v1013h256v-1280h-256v138q-38 -33 -55.5 -48t-53.5 -40.5t-63.5 -37t-68.5 -21t-85 -9.5zM178 1400l192 384h256l192 -384h-192l-128 256
l-128 -256h-192z" />
    <glyph glyph-name="udieresis" unicode="&#xfc;" horiz-adv-x="987" 
d="M300 -18q-84 0 -135 59.5t-51 147.5v1091h256v-1013q0 -40 24.5 -65t63.5 -25q21 0 41 5t39.5 17.5t30.5 20t31.5 25.5t25.5 22v1013h256v-1280h-256v138q-38 -33 -55.5 -48t-53.5 -40.5t-63.5 -37t-68.5 -21t-85 -9.5zM562 1400v256h256v-256h-256zM178 1400v256h256
v-256h-256z" />
    <glyph glyph-name="yacute" unicode="&#xfd;" horiz-adv-x="842" 
d="M84 -320v192q76 0 121.5 10t68.5 35.5t29.5 56t6.5 84.5l-290 1222h256q149 -823 161 -896q21 135 47.5 284.5t60 330t51.5 281.5h256l-320 -1344q-32 -139 -135 -197.5t-287 -58.5h-26zM362 1400l128 384h256l-256 -384h-128z" />
    <glyph glyph-name="thorn" unicode="&#xfe;" horiz-adv-x="1056" 
d="M576 192q41 0 68.5 30t40 85.5t17 110.5t4.5 128v277q0 45 -2.5 78.5t-10 70.5t-21.5 61t-38 39.5t-58 15.5q-106 0 -192 -51v-805q99 -40 192 -40zM128 -410v2201h256v-638q36 38 54 55t52.5 43t71.5 36.5t82 10.5q65 0 116 -23.5t84 -56.5t56 -94.5t34.5 -111.5
t17.5 -135t7 -137.5t1 -145.5q0 -87 -8 -166.5t-29.5 -163.5t-56 -144.5t-93 -99t-133.5 -38.5q-78 0 -138 37t-118 97v-526h-256z" />
    <glyph glyph-name="ydieresis" unicode="&#xff;" horiz-adv-x="842" 
d="M84 -320v192q76 0 121.5 10t68.5 35.5t29.5 56t6.5 84.5l-290 1222h256q149 -823 161 -896q21 135 47.5 284.5t60 330t51.5 281.5h256l-320 -1344q-32 -139 -135 -197.5t-287 -58.5h-26zM490 1400v256h256v-256h-256zM106 1400v256h256v-256h-256z" />
    <glyph glyph-name="Amacron" unicode="&#x100;" horiz-adv-x="1056" 
d="M400 640h256l-128 768zM16 0l384 1792h256l384 -1792h-256l-96 448h-320l-96 -448h-256zM311 1912v152h434v-152h-434z" />
    <glyph glyph-name="amacron" unicode="&#x101;" horiz-adv-x="955" 
d="M468 192q27 0 52.5 16t38.5 31t32 40q3 5 5 7v354q-16 -11 -53 -34t-59 -37.5t-53 -40t-48 -49t-30 -57.5t-13 -71q0 -159 128 -159zM340 -18q-107 0 -181.5 92.5t-74.5 208.5q0 93 31.5 169t66.5 121.5t117 94t124 66.5t146 59q18 7 27 11v92q0 97 -27 150.5t-101 53.5
q-66 0 -94.5 -45.5t-32.5 -125.5q-1 -11 -1 -33h-256q2 184 103 293t281 109q179 0 281.5 -110.5t102.5 -291.5v-576q0 -200 33 -320h-255l-34 192q-20 -40 -32.5 -62t-36.5 -54.5t-48 -50t-60 -30.5t-79 -13zM239 1400v152h434v-152h-434z" />
    <glyph glyph-name="Abreve" unicode="&#x102;" horiz-adv-x="1056" 
d="M400 640h256l-128 768zM16 0l384 1792h256l384 -1792h-256l-96 448h-320l-96 -448h-256zM528 1912q-179 0 -249.5 93t-70.5 291h192q0 -102 24.5 -147t103.5 -45t103.5 45.5t24.5 146.5h192q0 -200 -69.5 -292t-250.5 -92z" />
    <glyph glyph-name="abreve" unicode="&#x103;" horiz-adv-x="955" 
d="M468 192q27 0 52.5 16t38.5 31t32 40q3 5 5 7v354q-16 -11 -53 -34t-59 -37.5t-53 -40t-48 -49t-30 -57.5t-13 -71q0 -159 128 -159zM340 -18q-107 0 -181.5 92.5t-74.5 208.5q0 93 31.5 169t66.5 121.5t117 94t124 66.5t146 59q18 7 27 11v92q0 97 -27 150.5t-101 53.5
q-66 0 -94.5 -45.5t-32.5 -125.5q-1 -11 -1 -33h-256q2 184 103 293t281 109q179 0 281.5 -110.5t102.5 -291.5v-576q0 -200 33 -320h-255l-34 192q-20 -40 -32.5 -62t-36.5 -54.5t-48 -50t-60 -30.5t-79 -13zM456 1400q-179 0 -249.5 93t-70.5 291h192q0 -102 24.5 -147
t103.5 -45t103.5 45.5t24.5 146.5h192q0 -200 -69.5 -292t-250.5 -92z" />
    <glyph glyph-name="Aogonek" unicode="&#x104;" horiz-adv-x="1056" 
d="M400 640h256l-128 768zM16 0l384 1792h256l384 -1792h-256l-96 448h-320l-96 -448h-256zM985 -519q-47 0 -76.5 0.5t-69 2.5t-64 5.5t-54.5 10.5t-48.5 16.5t-37.5 24t-29.5 33t-17 43.5t-6.5 56q0 108 81 205.5t175 124.5h128q-6 -8 -53 -65t-69 -88t-46 -82t-24 -91
q0 -74 144 -74q19 0 58.5 3t53.5 3v-128h-45z" />
    <glyph glyph-name="aogonek" unicode="&#x105;" horiz-adv-x="955" 
d="M468 192q27 0 52.5 16t38.5 31t32 40q3 5 5 7v354q-16 -11 -53 -34t-59 -37.5t-53 -40t-48 -49t-30 -57.5t-13 -71q0 -159 128 -159zM340 -18q-107 0 -181.5 92.5t-74.5 208.5q0 93 31.5 169t66.5 121.5t117 94t124 66.5t146 59q18 7 27 11v92q0 97 -27 150.5t-101 53.5
q-66 0 -94.5 -45.5t-32.5 -125.5q-1 -11 -1 -33h-256q2 184 103 293t281 109q179 0 281.5 -110.5t102.5 -291.5v-576q0 -200 33 -320h-255l-34 192q-20 -40 -32.5 -62t-36.5 -54.5t-48 -50t-60 -30.5t-79 -13zM789 -515q-47 0 -76.5 0.5t-69 2.5t-64 5.5t-54.5 10.5
t-48.5 16.5t-37.5 24t-29.5 33t-17 43.5t-6.5 56q0 108 81 205.5t175 124.5h128q-6 -8 -53 -65t-69 -88t-46 -82t-24 -91q0 -74 144 -74q19 0 58.5 3t53.5 3v-128h-45z" />
    <glyph glyph-name="Cacute" unicode="&#x106;" horiz-adv-x="1107" 
d="M588 -18q-113 0 -199 32t-141 88.5t-89.5 141t-48.5 180.5t-14 217v511q0 121 14 217t48.5 180.5t89.5 140.5t141 88t199 32q125 0 216 -37t145.5 -109t82 -167t32.5 -222q1 -19 1 -59h-256v57q-1 53 -4 90.5t-11 77.5t-23.5 66.5t-39 49t-59.5 33t-84 10.5
q-62 0 -106.5 -20t-69.5 -51.5t-38.5 -84.5t-17.5 -103.5t-4 -124.5v-640q0 -64 5.5 -116t21.5 -103.5t41.5 -86.5t68 -56.5t99.5 -21.5t98 22t64.5 56t37 87t17.5 103t4 116v64h256v-64q0 -139 -24.5 -244t-79 -185.5t-148 -122.5t-225.5 -42zM516 1912l128 384h256
l-256 -384h-128z" />
    <glyph glyph-name="cacute" unicode="&#x107;" horiz-adv-x="901" 
d="M437 -18q-93 0 -161.5 31t-109.5 81t-66 127.5t-34.5 155t-11.5 180.5q-3 83 0 167q2 102 11.5 180t35 155.5t66 127t109 80.5t161.5 31q202 0 290 -109t94 -323v-34h-256v36q-1 48 -6.5 84t-18 72t-39 55.5t-64.5 19.5t-64 -22.5t-39.5 -64.5t-19.5 -86.5t-7 -102.5
q-4 -124 0 -374q2 -55 8 -96.5t19.5 -80t39.5 -59.5t63 -21q34 0 58.5 13t37.5 32t20.5 51t9.5 59.5t2 69.5v31h256v-33q-3 -101 -25 -178.5t-66.5 -135.5t-118 -88.5t-174.5 -30.5zM413 1400l128 384h256l-256 -384h-128z" />
    <glyph glyph-name="Ccircumflex" unicode="&#x108;" horiz-adv-x="1107" 
d="M588 -18q-113 0 -199 32t-141 88.5t-89.5 141t-48.5 180.5t-14 217v511q0 121 14 217t48.5 180.5t89.5 140.5t141 88t199 32q125 0 216 -37t145.5 -109t82 -167t32.5 -222q1 -19 1 -59h-256v57q-1 53 -4 90.5t-11 77.5t-23.5 66.5t-39 49t-59.5 33t-84 10.5
q-62 0 -106.5 -20t-69.5 -51.5t-38.5 -84.5t-17.5 -103.5t-4 -124.5v-640q0 -64 5.5 -116t21.5 -103.5t41.5 -86.5t68 -56.5t99.5 -21.5t98 22t64.5 56t37 87t17.5 103t4 116v64h256v-64q0 -139 -24.5 -244t-79 -185.5t-148 -122.5t-225.5 -42zM260 1912l192 384h256
l192 -384h-192l-128 256l-128 -256h-192z" />
    <glyph glyph-name="ccircumflex" unicode="&#x109;" horiz-adv-x="901" 
d="M437 -18q-93 0 -161.5 31t-109.5 81t-66 127.5t-34.5 155t-11.5 180.5q-3 83 0 167q2 102 11.5 180t35 155.5t66 127t109 80.5t161.5 31q202 0 290 -109t94 -323v-34h-256v36q-1 48 -6.5 84t-18 72t-39 55.5t-64.5 19.5t-64 -22.5t-39.5 -64.5t-19.5 -86.5t-7 -102.5
q-4 -124 0 -374q2 -55 8 -96.5t19.5 -80t39.5 -59.5t63 -21q34 0 58.5 13t37.5 32t20.5 51t9.5 59.5t2 69.5v31h256v-33q-3 -101 -25 -178.5t-66.5 -135.5t-118 -88.5t-174.5 -30.5zM157 1400l192 384h256l192 -384h-192l-128 256l-128 -256h-192z" />
    <glyph glyph-name="Cdotaccent" unicode="&#x10a;" horiz-adv-x="1107" 
d="M452 1912v256h256v-256h-256zM588 -18q-113 0 -199 32t-141 88.5t-89.5 141t-48.5 180.5t-14 217v511q0 121 14 217t48.5 180.5t89.5 140.5t141 88t199 32q125 0 216 -37t145.5 -109t82 -167t32.5 -222q1 -19 1 -59h-256v57q-1 53 -4 90.5t-11 77.5t-23.5 66.5t-39 49
t-59.5 33t-84 10.5q-62 0 -106.5 -20t-69.5 -51.5t-38.5 -84.5t-17.5 -103.5t-4 -124.5v-640q0 -64 5.5 -116t21.5 -103.5t41.5 -86.5t68 -56.5t99.5 -21.5t98 22t64.5 56t37 87t17.5 103t4 116v64h256v-64q0 -139 -24.5 -244t-79 -185.5t-148 -122.5t-225.5 -42z" />
    <glyph glyph-name="cdotaccent" unicode="&#x10b;" horiz-adv-x="901" 
d="M352 1400v256h256v-256h-256zM437 -18q-93 0 -161.5 31t-109.5 81t-66 127.5t-34.5 155t-11.5 180.5q-3 83 0 167q2 102 11.5 180t35 155.5t66 127t109 80.5t161.5 31q202 0 290 -109t94 -323v-34h-256v36q-1 48 -6.5 84t-18 72t-39 55.5t-64.5 19.5t-64 -22.5
t-39.5 -64.5t-19.5 -86.5t-7 -102.5q-4 -124 0 -374q2 -55 8 -96.5t19.5 -80t39.5 -59.5t63 -21q34 0 58.5 13t37.5 32t20.5 51t9.5 59.5t2 69.5v31h256v-33q-3 -101 -25 -178.5t-66.5 -135.5t-118 -88.5t-174.5 -30.5z" />
    <glyph glyph-name="Ccaron" unicode="&#x10c;" horiz-adv-x="1107" 
d="M588 -18q-113 0 -199 32t-141 88.5t-89.5 141t-48.5 180.5t-14 217v511q0 121 14 217t48.5 180.5t89.5 140.5t141 88t199 32q125 0 216 -37t145.5 -109t82 -167t32.5 -222q1 -19 1 -59h-256v57q-1 53 -4 90.5t-11 77.5t-23.5 66.5t-39 49t-59.5 33t-84 10.5
q-62 0 -106.5 -20t-69.5 -51.5t-38.5 -84.5t-17.5 -103.5t-4 -124.5v-640q0 -64 5.5 -116t21.5 -103.5t41.5 -86.5t68 -56.5t99.5 -21.5t98 22t64.5 56t37 87t17.5 103t4 116v64h256v-64q0 -139 -24.5 -244t-79 -185.5t-148 -122.5t-225.5 -42zM452 1912l-192 384h192
l128 -256l128 256h192l-192 -384h-256z" />
    <glyph glyph-name="ccaron" unicode="&#x10d;" horiz-adv-x="901" 
d="M437 -18q-93 0 -161.5 31t-109.5 81t-66 127.5t-34.5 155t-11.5 180.5q-3 83 0 167q2 102 11.5 180t35 155.5t66 127t109 80.5t161.5 31q202 0 290 -109t94 -323v-34h-256v36q-1 48 -6.5 84t-18 72t-39 55.5t-64.5 19.5t-64 -22.5t-39.5 -64.5t-19.5 -86.5t-7 -102.5
q-4 -124 0 -374q2 -55 8 -96.5t19.5 -80t39.5 -59.5t63 -21q34 0 58.5 13t37.5 32t20.5 51t9.5 59.5t2 69.5v31h256v-33q-3 -101 -25 -178.5t-66.5 -135.5t-118 -88.5t-174.5 -30.5zM349 1400l-192 384h192l128 -256l128 256h192l-192 -384h-256z" />
    <glyph glyph-name="Dcaron" unicode="&#x10e;" horiz-adv-x="1133" 
d="M128 0v1792h397q281 0 396.5 -115t115.5 -397v-704q0 -295 -117.5 -435.5t-396.5 -140.5h-395zM384 192h141q63 0 108 11.5t73 42t44 58t22.5 85.5t7.5 95.5t1 116.5v39v576q0 49 -0.5 78t-3 68.5t-7.5 62.5t-14 51.5t-22.5 44.5t-33 33.5t-45 26t-59.5 14t-76 5.5h-136
v-1408zM454 1912l-192 384h192l128 -256l128 256h192l-192 -384h-256z" />
    <glyph glyph-name="dcaron" unicode="&#x10f;" horiz-adv-x="1042" 
d="M480 192q93 0 192 40v805q-86 51 -192 51q-38 0 -64 -18.5t-39 -54t-19 -73t-7 -88.5q-4 -224 0 -355q1 -64 7 -114t19.5 -96.5t39.5 -71.5t63 -25zM416 -18q-85 0 -148.5 48t-98 130t-51.5 170.5t-21 190.5q-2 47 0 230q2 66 6 119.5t13.5 111.5t24 102.5t38.5 86
t56 68.5t77 43t100 16q43 0 80.5 -11.5t71.5 -36t54.5 -43.5t53.5 -54v638h256v-1791h-256v116q-58 -60 -118 -97t-138 -37zM1142 1279l-64 128q69 0 98.5 30t29.5 98h-128v256h256q0 -144 -3 -242q-2 -54 -6 -91t-16 -73.5t-32 -58t-53.5 -34.5t-81.5 -13z" />
    <glyph glyph-name="Dcroat" unicode="&#x110;" horiz-adv-x="1152" 
d="M128 0v852h-94v152h94v788h384q281 0 396.5 -115t115.5 -397v-704q0 -295 -117.5 -435.5t-396.5 -140.5h-382zM384 192h128q63 0 108 11.5t73 42t44 58t22.5 85.5t7.5 95.5t1 116.5v39v576q0 49 -0.5 78t-3 68.5t-7.5 62.5t-14 51.5t-22.5 44.5t-33 33.5t-45 26t-59.5 14
t-76 5.5h-123v-596h144v-152h-144v-660z" />
    <glyph glyph-name="dcroat" unicode="&#x111;" horiz-adv-x="1056" 
d="M480 192q93 0 192 40v805q-86 51 -192 51q-24 0 -43.5 -7.5t-33 -23.5t-23.5 -33.5t-15.5 -45t-8.5 -49.5t-4 -56.5t-1 -56.5t0.5 -58t0.5 -53q0 -21 -0.5 -63t-1 -72.5t0 -74.5t4 -76.5t8.5 -69.5t15 -63t23.5 -48.5t33.5 -34t45 -11.5zM416 -18q-74 0 -131.5 37.5
t-92.5 96.5t-57 140t-30.5 159t-8.5 162v12q0 96 1 146t6.5 138t17 136.5t34.5 112t56 96t84 56.5t117 24q43 0 80.5 -11.5t71.5 -36t54.5 -43.5t53.5 -54v347h-260v138h260v153h256v-153h128v-138h-128v-1500h-256v116q-58 -60 -118 -97t-138 -37z" />
    <glyph glyph-name="Emacron" unicode="&#x112;" horiz-adv-x="861" 
d="M128 0v1792h704v-192h-448v-576h320v-192h-320v-640h448v-192h-704zM263 1912v152h434v-152h-434z" />
    <glyph glyph-name="emacron" unicode="&#x113;" horiz-adv-x="910" 
d="M479 -18q-93 0 -161.5 32t-109 83.5t-65.5 132t-34.5 161t-11.5 187.5q-3 84 0 168q3 100 13.5 177.5t36.5 150.5t67.5 120t109 75.5t157.5 28.5q82 0 144.5 -21.5t104 -65t69 -96.5t41.5 -128.5t19.5 -148.5t5.5 -168v-30h-512v-64v-41q-2 -37 -0.5 -76.5t3.5 -77.5
t11 -72.5t22 -60.5t36.5 -41t55.5 -15q40 0 66 15.5t38.5 46.5t17.5 62t6 78v54h254v-51q-9 -205 -101 -310t-283 -105zM353 768h254v77q-1 51 -6 89t-17.5 76t-38.5 58t-64 20q-39 0 -65.5 -21t-39 -60.5t-17.5 -77.5t-6 -91v-70zM260 1400v152h434v-152h-434z" />
    <glyph glyph-name="Edotaccent" unicode="&#x116;" horiz-adv-x="861" 
d="M352 1932v256h256v-256h-256zM128 0v1792h704v-192h-448v-576h320v-192h-320v-640h448v-192h-704z" />
    <glyph glyph-name="edotaccent" unicode="&#x117;" horiz-adv-x="933" 
d="M349 1420v256h256v-256h-256zM479 -18q-93 0 -161.5 32t-109 83.5t-65.5 132t-34.5 161t-11.5 187.5q-3 84 0 168q3 100 13.5 177.5t36.5 150.5t67.5 120t109 75.5t157.5 28.5q82 0 144.5 -21.5t104 -65t69 -96.5t41.5 -128.5t19.5 -148.5t5.5 -168v-30h-512v-64v-41
q-2 -37 -0.5 -76.5t3.5 -77.5t11 -72.5t22 -60.5t36.5 -41t55.5 -15q40 0 66 15.5t38.5 46.5t17.5 62t6 78v54h254v-51q-9 -205 -101 -310t-283 -105zM353 768h254v77q-1 51 -6 89t-17.5 76t-38.5 58t-64 20q-39 0 -65.5 -21t-39 -60.5t-17.5 -77.5t-6 -91v-70z" />
    <glyph glyph-name="Eogonek" unicode="&#x118;" horiz-adv-x="861" 
d="M128 0v1792h704v-192h-448v-576h320v-192h-320v-640h448v-192h-704zM627 -505q-47 0 -76.5 0.5t-69 2.5t-64 5.5t-54.5 10.5t-48.5 16.5t-37.5 24t-29.5 33t-17 43.5t-6.5 56q0 108 81 205.5t175 124.5h128q-6 -8 -53 -65t-69 -88t-46 -82t-24 -91q0 -74 144 -74
q19 0 58.5 3t53.5 3v-128h-45z" />
    <glyph glyph-name="eogonek" unicode="&#x119;" horiz-adv-x="910" 
d="M479 -18q-93 0 -161.5 32t-109 83.5t-65.5 132t-34.5 161t-11.5 187.5q-3 84 0 168q3 100 13.5 177.5t36.5 150.5t67.5 120t109 75.5t157.5 28.5q82 0 144.5 -21.5t104 -65t69 -96.5t41.5 -128.5t19.5 -148.5t5.5 -168v-30h-512v-64v-41q-2 -37 -0.5 -76.5t3.5 -77.5
t11 -72.5t22 -60.5t36.5 -41t55.5 -15q40 0 66 15.5t38.5 46.5t17.5 62t6 78v54h254v-51q-9 -205 -101 -310t-283 -105zM353 768h254v77q-1 51 -6 89t-17.5 76t-38.5 58t-64 20q-39 0 -65.5 -21t-39 -60.5t-17.5 -77.5t-6 -91v-70zM560 -523q-47 0 -76.5 0.5t-69 2.5
t-64 5.5t-54.5 10.5t-48.5 16.5t-37.5 24t-29.5 33t-17 43.5t-6.5 56q0 108 81 205.5t175 124.5h128q-6 -8 -53 -65t-69 -88t-46 -82t-24 -91q0 -74 144 -74q19 0 58.5 3t53.5 3v-128h-45z" />
    <glyph glyph-name="Ecaron" unicode="&#x11a;" horiz-adv-x="861" 
d="M128 0v1792h704v-192h-448v-576h320v-192h-320v-640h448v-192h-704zM352 1912l-192 384h192l128 -256l128 256h192l-192 -384h-256z" />
    <glyph glyph-name="ecaron" unicode="&#x11b;" horiz-adv-x="910" 
d="M479 -18q-93 0 -161.5 32t-109 83.5t-65.5 132t-34.5 161t-11.5 187.5q-3 84 0 168q3 100 13.5 177.5t36.5 150.5t67.5 120t109 75.5t157.5 28.5q82 0 144.5 -21.5t104 -65t69 -96.5t41.5 -128.5t19.5 -148.5t5.5 -168v-30h-512v-64v-41q-2 -37 -0.5 -76.5t3.5 -77.5
t11 -72.5t22 -60.5t36.5 -41t55.5 -15q40 0 66 15.5t38.5 46.5t17.5 62t6 78v54h254v-51q-9 -205 -101 -310t-283 -105zM353 768h254v77q-1 51 -6 89t-17.5 76t-38.5 58t-64 20q-39 0 -65.5 -21t-39 -60.5t-17.5 -77.5t-6 -91v-70zM349 1400l-192 384h192l128 -256l128 256
h192l-192 -384h-256z" />
    <glyph glyph-name="Gcircumflex" unicode="&#x11c;" horiz-adv-x="1199" 
d="M608 -18q-123 0 -213.5 35t-147.5 95t-91 153t-47 196t-13 237v454q0 658 522 658q125 0 217 -37.5t149 -109.5t86 -168.5t34 -223.5q1 -18 1 -55h-256v54q-1 63 -6.5 108.5t-20 89.5t-39.5 71.5t-66.5 44t-98.5 16.5q-78 0 -131.5 -28.5t-82 -83t-40.5 -120t-12 -152.5
v-576q0 -64 4 -115.5t13.5 -105t28 -92.5t46 -70.5t69 -48t95.5 -16.5q64 0 111 25t74.5 64.5t43.5 100.5t21.5 121t5.5 137v64h-256v190h512v-894h-192l-64 192q-75 -210 -256 -210zM288 1912l192 384h256l192 -384h-192l-128 256l-128 -256h-192z" />
    <glyph glyph-name="gcircumflex" unicode="&#x11d;" horiz-adv-x="968" 
d="M458 560q160 0 160 272q0 55 -7 101.5t-24 91t-50 70t-79 25.5q-47 0 -80 -25.5t-49.5 -70t-23.5 -91t-7 -101.5q0 -272 160 -272zM522 -194q27 0 48.5 1t49.5 4t48.5 9.5t39 16.5t28.5 26.5t10 37.5q0 107 -205 131l-211 25q-39 -28 -66.5 -81t-27.5 -111
q0 -16 11 -27.5t32.5 -17.5t44 -10t53.5 -5t53 -1t51.5 1t40.5 1zM522 -383q-48 0 -78 0.5t-82 2.5t-87 7.5t-80 14t-74.5 22.5t-56.5 33t-40.5 46.5t-13.5 61.5q0 100 53.5 171t138.5 113q-52 14 -90 42.5t-38 69.5q0 17 4 36t9 34.5t16 35.5t17.5 31.5t21.5 32t20.5 28
t21.5 27t18 22.5q-128 152 -128 384q0 133 42 237t130.5 166.5t211.5 62.5q71 0 124 -20t86.5 -50.5t65.5 -80.5q76 141 216 150h6h7.5h6.5v-209h-16q-43 0 -65 -1t-49 -8.5t-43 -23.5q18 -39 31.5 -103.5t13.5 -119.5q0 -134 -40.5 -237t-129 -165t-214.5 -62l-129 15
q-2 -5 -10 -17.5t-12.5 -20.5t-8.5 -20.5t-4 -23.5q0 -26 25 -44t69 -26.5t84.5 -12.5t90.5 -6.5t69 -5.5q57 -8 101.5 -18.5t91 -30.5t76.5 -48t49.5 -72t19.5 -101q0 -70 -24.5 -125t-65.5 -91t-99 -59.5t-122 -33.5t-137 -10zM178 1400l192 384h256l192 -384h-192
l-128 256l-128 -256h-192z" />
    <glyph glyph-name="Gbreve" unicode="&#x11e;" horiz-adv-x="1199" 
d="M608 -18q-123 0 -213.5 35t-147.5 95t-91 153t-47 196t-13 237v454q0 658 522 658q125 0 217 -37.5t149 -109.5t86 -168.5t34 -223.5q1 -18 1 -55h-256v54q-1 63 -6.5 108.5t-20 89.5t-39.5 71.5t-66.5 44t-98.5 16.5q-78 0 -131.5 -28.5t-82 -83t-40.5 -120t-12 -152.5
v-576q0 -64 4 -115.5t13.5 -105t28 -92.5t46 -70.5t69 -48t95.5 -16.5q64 0 111 25t74.5 64.5t43.5 100.5t21.5 121t5.5 137v64h-256v190h512v-894h-192l-64 192q-75 -210 -256 -210zM608 1912q-179 0 -249.5 93t-70.5 291h192q0 -102 24.5 -147t103.5 -45t103.5 45.5
t24.5 146.5h192q0 -200 -69.5 -292t-250.5 -92z" />
    <glyph glyph-name="gbreve" unicode="&#x11f;" horiz-adv-x="968" 
d="M458 560q160 0 160 272q0 55 -7 101.5t-24 91t-50 70t-79 25.5q-47 0 -80 -25.5t-49.5 -70t-23.5 -91t-7 -101.5q0 -272 160 -272zM522 -194q27 0 48.5 1t49.5 4t48.5 9.5t39 16.5t28.5 26.5t10 37.5q0 107 -205 131l-211 25q-39 -28 -66.5 -81t-27.5 -111
q0 -16 11 -27.5t32.5 -17.5t44 -10t53.5 -5t53 -1t51.5 1t40.5 1zM522 -383q-48 0 -78 0.5t-82 2.5t-87 7.5t-80 14t-74.5 22.5t-56.5 33t-40.5 46.5t-13.5 61.5q0 100 53.5 171t138.5 113q-52 14 -90 42.5t-38 69.5q0 17 4 36t9 34.5t16 35.5t17.5 31.5t21.5 32t20.5 28
t21.5 27t18 22.5q-128 152 -128 384q0 133 42 237t130.5 166.5t211.5 62.5q71 0 124 -20t86.5 -50.5t65.5 -80.5q76 141 216 150h6h7.5h6.5v-209h-16q-43 0 -65 -1t-49 -8.5t-43 -23.5q18 -39 31.5 -103.5t13.5 -119.5q0 -134 -40.5 -237t-129 -165t-214.5 -62l-129 15
q-2 -5 -10 -17.5t-12.5 -20.5t-8.5 -20.5t-4 -23.5q0 -26 25 -44t69 -26.5t84.5 -12.5t90.5 -6.5t69 -5.5q57 -8 101.5 -18.5t91 -30.5t76.5 -48t49.5 -72t19.5 -101q0 -70 -24.5 -125t-65.5 -91t-99 -59.5t-122 -33.5t-137 -10zM498 1400q-179 0 -249.5 93t-70.5 291h192
q0 -102 24.5 -147t103.5 -45t103.5 45.5t24.5 146.5h192q0 -200 -69.5 -292t-250.5 -92z" />
    <glyph glyph-name="Gdotaccent" unicode="&#x120;" horiz-adv-x="1199" 
d="M480 1912v256h256v-256h-256zM608 -18q-123 0 -213.5 35t-147.5 95t-91 153t-47 196t-13 237v454q0 658 522 658q125 0 217 -37.5t149 -109.5t86 -168.5t34 -223.5q1 -18 1 -55h-256v54q-1 63 -6.5 108.5t-20 89.5t-39.5 71.5t-66.5 44t-98.5 16.5q-78 0 -131.5 -28.5
t-82 -83t-40.5 -120t-12 -152.5v-576q0 -64 4 -115.5t13.5 -105t28 -92.5t46 -70.5t69 -48t95.5 -16.5q64 0 111 25t74.5 64.5t43.5 100.5t21.5 121t5.5 137v64h-256v190h512v-894h-192l-64 192q-75 -210 -256 -210z" />
    <glyph glyph-name="gdotaccent" unicode="&#x121;" horiz-adv-x="968" 
d="M370 1400v256h256v-256h-256zM458 560q160 0 160 272q0 55 -7 101.5t-24 91t-50 70t-79 25.5q-47 0 -80 -25.5t-49.5 -70t-23.5 -91t-7 -101.5q0 -272 160 -272zM522 -194q27 0 48.5 1t49.5 4t48.5 9.5t39 16.5t28.5 26.5t10 37.5q0 107 -205 131l-211 25
q-39 -28 -66.5 -81t-27.5 -111q0 -16 11 -27.5t32.5 -17.5t44 -10t53.5 -5t53 -1t51.5 1t40.5 1zM522 -383q-48 0 -78 0.5t-82 2.5t-87 7.5t-80 14t-74.5 22.5t-56.5 33t-40.5 46.5t-13.5 61.5q0 100 53.5 171t138.5 113q-52 14 -90 42.5t-38 69.5q0 17 4 36t9 34.5t16 35.5
t17.5 31.5t21.5 32t20.5 28t21.5 27t18 22.5q-128 152 -128 384q0 133 42 237t130.5 166.5t211.5 62.5q71 0 124 -20t86.5 -50.5t65.5 -80.5q76 141 216 150h6h7.5h6.5v-209h-16q-43 0 -65 -1t-49 -8.5t-43 -23.5q18 -39 31.5 -103.5t13.5 -119.5q0 -134 -40.5 -237
t-129 -165t-214.5 -62l-129 15q-2 -5 -10 -17.5t-12.5 -20.5t-8.5 -20.5t-4 -23.5q0 -26 25 -44t69 -26.5t84.5 -12.5t90.5 -6.5t69 -5.5q57 -8 101.5 -18.5t91 -30.5t76.5 -48t49.5 -72t19.5 -101q0 -70 -24.5 -125t-65.5 -91t-99 -59.5t-122 -33.5t-137 -10z" />
    <glyph glyph-name="uni0122" unicode="&#x122;" horiz-adv-x="1199" 
d="M608 -18q-123 0 -213.5 35t-147.5 95t-91 153t-47 196t-13 237v454q0 658 522 658q125 0 217 -37.5t149 -109.5t86 -168.5t34 -223.5q1 -18 1 -55h-256v54q-1 63 -6.5 108.5t-20 89.5t-39.5 71.5t-66.5 44t-98.5 16.5q-78 0 -131.5 -28.5t-82 -83t-40.5 -120t-12 -152.5
v-576q0 -64 4 -115.5t13.5 -105t28 -92.5t46 -70.5t69 -48t95.5 -16.5q64 0 111 25t74.5 64.5t43.5 100.5t21.5 121t5.5 137v64h-256v190h512v-894h-192l-64 192q-75 -210 -256 -210z" />
    <glyph glyph-name="uni0123" unicode="&#x123;" horiz-adv-x="973" 
d="M481 560q160 0 160 272q0 55 -7 101.5t-24 91t-50 70t-79 25.5q-47 0 -80 -25.5t-49.5 -70t-23.5 -91t-7 -101.5q0 -272 160 -272zM371 1377q0 30 -1 80.5t-1.5 82t0.5 76.5t5.5 74.5t12.5 64t22.5 56t35 41t50.5 28.5t68 9l64 -128q-69 0 -98.5 -30t-29.5 -98h128v-256
h-256zM545 -194q27 0 48.5 1t49.5 4t48.5 9.5t39 16.5t28.5 26.5t10 37.5q0 18 -4 33q-14 76 -201 98l-211 25q-39 -28 -66.5 -81t-27.5 -111q0 -16 11 -27.5t32.5 -17.5t44 -10t53.5 -5t53 -1t51.5 1t40.5 1zM545 -383q-48 0 -78 0.5t-82 2.5t-87 7.5t-80 14t-74.5 22.5
t-56.5 33t-40.5 46.5t-13.5 61.5q0 100 53.5 171t138.5 113q-52 14 -90 42.5t-38 69.5q0 17 4 36t9 34.5t16 35.5t17.5 31.5t21.5 32t20.5 28t21.5 27t18 22.5q-128 152 -128 384q0 133 42 237t130.5 166.5t211.5 62.5q71 0 124 -20t86.5 -50.5t65.5 -80.5q81 151 236 151
v-210q-96 0 -160 -64q32 -94 32 -192q0 -134 -40.5 -237t-129 -165t-214.5 -62q-37 0 -81 7h-48q-3 -6 -13.5 -20.5t-16 -27t-5.5 -26.5q0 -34 37.5 -54.5t97 -30t131.5 -17t144 -23t131.5 -40.5t97 -76t37.5 -124q0 -70 -24.5 -125t-65.5 -91t-99 -59.5t-122 -33.5
t-137 -10z" />
    <glyph glyph-name="Hcircumflex" unicode="&#x124;" horiz-adv-x="1216" 
d="M128 0v1792h256v-768h448v768h256v-1792h-256v832h-448v-832h-256zM288 1912l192 384h256l192 -384h-192l-128 256l-128 -256h-192z" />
    <glyph glyph-name="hcircumflex" unicode="&#x125;" horiz-adv-x="992" 
d="M117 0v1792h256v-650q57 52 93 79.5t99.5 52t135.5 24.5q82 0 133 -60t51 -147v-1091h-256v960q0 66 -16.5 97t-71.5 31q-78 0 -168 -75v-1013h-256zM181 1894l192 384h256l192 -384h-192l-128 256l-128 -256h-192z" />
    <glyph glyph-name="Hbar" unicode="&#x126;" horiz-adv-x="1216" 
d="M384 1024h448v331h-448v-331zM128 0v1355h-98v139h98v298h256v-298h448v298h256v-298h98v-139h-98v-1355h-256v832h-448v-832h-256z" />
    <glyph glyph-name="hbar" unicode="&#x127;" horiz-adv-x="1024" 
d="M128 0v1450h-129v152h129v190h256v-190h167v-152h-167v-308q57 52 93 79.5t99.5 52t135.5 24.5q82 0 133 -60t51 -147v-1091h-256v960q0 66 -16.5 97t-71.5 31q-78 0 -168 -75v-1013h-256z" />
    <glyph glyph-name="Itilde" unicode="&#x128;" horiz-adv-x="542" 
d="M140 0v1792h256v-1792h-256zM401 1912q-48 0 -98.5 22t-97.5 43.5t-88 21.5q-48 0 -48 -67h-154q0 116 57.5 194.5t162.5 78.5q58 0 145 -43t136 -43q51 0 51 69h154q0 -117 -57.5 -196.5t-162.5 -79.5z" />
    <glyph glyph-name="itilde" unicode="&#x129;" 
d="M128 0v1280h256v-1280h-256zM389 1400q-48 0 -98.5 22t-97.5 43.5t-88 21.5q-48 0 -48 -67h-154q0 116 57.5 194.5t162.5 78.5q58 0 145 -43t136 -43q51 0 51 69h154q0 -117 -57.5 -196.5t-162.5 -79.5z" />
    <glyph glyph-name="Imacron" unicode="&#x12a;" horiz-adv-x="542" 
d="M140 0v1792h256v-1792h-256zM51 1912v152h434v-152h-434z" />
    <glyph glyph-name="imacron" unicode="&#x12b;" 
d="M128 0v1280h256v-1280h-256zM39 1400v152h434v-152h-434z" />
    <glyph glyph-name="Ibreve" unicode="&#x12c;" horiz-adv-x="542" 
d="M140 0v1792h256v-1792h-256zM268 1912q-179 0 -249.5 93t-70.5 291h192q0 -102 24.5 -147t103.5 -45t103.5 45.5t24.5 146.5h192q0 -200 -69.5 -292t-250.5 -92z" />
    <glyph glyph-name="ibreve" unicode="&#x12d;" 
d="M128 0v1280h256v-1280h-256zM256 1400q-179 0 -249.5 93t-70.5 291h192q0 -102 24.5 -147t103.5 -45t103.5 45.5t24.5 146.5h192q0 -200 -69.5 -292t-250.5 -92z" />
    <glyph glyph-name="Iogonek" unicode="&#x12e;" horiz-adv-x="542" 
d="M140 0v1792h256v-1792h-256zM351 -505q-47 0 -76.5 0.5t-69 2.5t-64 5.5t-54.5 10.5t-48.5 16.5t-37.5 24t-29.5 33t-17 43.5t-6.5 56q0 108 81 205.5t175 124.5h128q-6 -8 -53 -65t-69 -88t-46 -82t-24 -91q0 -74 144 -74q19 0 58.5 3t53.5 3v-128h-45z" />
    <glyph glyph-name="iogonek" unicode="&#x12f;" 
d="M128 1472v256h256v-256h-256zM128 0v1280h256v-1280h-256zM339 -505q-47 0 -76.5 0.5t-69 2.5t-64 5.5t-54.5 10.5t-48.5 16.5t-37.5 24t-29.5 33t-17 43.5t-6.5 56q0 108 81 205.5t175 124.5h128q-6 -8 -53 -65t-69 -88t-46 -82t-24 -91q0 -74 144 -74q19 0 58.5 3
t53.5 3v-128h-45z" />
    <glyph glyph-name="Idotaccent" unicode="&#x130;" horiz-adv-x="542" 
d="M140 1912v256h256v-256h-256zM140 0v1792h256v-1792h-256z" />
    <glyph glyph-name="dotlessi" unicode="&#x131;" 
d="M128 0v1280h256v-1280h-256z" />
    <glyph glyph-name="IJ" unicode="&#x132;" horiz-adv-x="1182" 
d="M542 0v192q83 0 129.5 9t76.5 38.5t40 77t10 131.5v1344h256v-1344q0 -122 -16 -201.5t-58.5 -137.5t-118 -83.5t-191.5 -25.5h-128zM140 0v1792h256v-1792h-256z" />
    <glyph glyph-name="ij" unicode="&#x133;" horiz-adv-x="1019" 
d="M662 1472v256h256v-256h-256zM598 -320q-84 0 -128 17v182q35 -7 64 -7q128 0 128 149v1259h256v-1287q0 -148 -85.5 -230.5t-234.5 -82.5zM128 1472v256h256v-256h-256zM128 0v1280h256v-1280h-256z" />
    <glyph glyph-name="Jcircumflex" unicode="&#x134;" horiz-adv-x="640" 
d="M0 0v192q83 0 129.5 9t76.5 38.5t40 77t10 131.5v1344h256v-1344q0 -122 -16 -201.5t-58.5 -137.5t-118 -83.5t-191.5 -25.5h-128zM26 1912l192 384h256l192 -384h-192l-128 256l-128 -256h-192z" />
    <glyph glyph-name="jcircumflex" unicode="&#x135;" horiz-adv-x="576" 
d="M128 -320q-84 0 -128 17v182q35 -7 64 -7q128 0 128 149v1259h256v-1287q0 -148 -85.5 -230.5t-234.5 -82.5zM-16 1400l192 384h256l192 -384h-192l-128 256l-128 -256h-192z" />
    <glyph glyph-name="uni0136" unicode="&#x136;" horiz-adv-x="1118" 
d="M576 -634l-64 128q69 0 98.5 30t29.5 98h-128v256h256q0 -145 -3 -242q-2 -54 -6 -91t-16 -73.5t-32 -58t-53.5 -34.5t-81.5 -13zM128 0v1792h256v-768l384 768h320l-385 -704l449 -1088h-320l-320 832l-128 -256v-576h-256z" />
    <glyph glyph-name="uni0137" unicode="&#x137;" horiz-adv-x="961" 
d="M469 -634l-64 128q69 0 98.5 30t29.5 98h-128v256h256q0 -145 -3 -242q-2 -54 -6 -91t-16 -73.5t-32 -58t-53.5 -34.5t-81.5 -13zM117 0v1792h256v-985l320 473h256l-287 -447l287 -833h-256l-192 619l-128 -171v-448h-256z" />
    <glyph glyph-name="kgreenlandic" unicode="&#x138;" horiz-adv-x="960" 
d="M128 0v1281h256v-544l320 543h256l-287 -487l287 -793h-256l-202 619l-118 -181v-438h-256z" />
    <glyph glyph-name="Lacute" unicode="&#x139;" horiz-adv-x="823" 
d="M128 0v1792h256v-1600h448v-192h-704zM416 1912l128 384h256l-256 -384h-128z" />
    <glyph glyph-name="lacute" unicode="&#x13a;" horiz-adv-x="497" 
d="M118 0v1792h256v-1792h-256zM186 1894l128 384h256l-256 -384h-128z" />
    <glyph glyph-name="uni013B" unicode="&#x13b;" horiz-adv-x="823" 
d="M416 -634l-64 128q69 0 98.5 30t29.5 98h-128v256h256q0 -145 -3 -242q-2 -54 -6 -91t-16 -73.5t-32 -58t-53.5 -34.5t-81.5 -13zM128 0v1792h256v-1600h448v-192h-704z" />
    <glyph glyph-name="uni013C" unicode="&#x13c;" horiz-adv-x="485" 
d="M182 -634l-64 128q69 0 98.5 30t29.5 98h-128v256h256q0 -145 -3 -242q-2 -54 -6 -91t-16 -73.5t-32 -58t-53.5 -34.5t-81.5 -13zM118 0v1792h256v-1792h-256z" />
    <glyph glyph-name="Lcaron" unicode="&#x13d;" horiz-adv-x="823" 
d="M128 0v1792h256v-1600h448v-192h-704zM1049 1298l-64 128q69 0 98.5 30t29.5 98h-128v256h256q0 -144 -3 -242q-2 -54 -6 -91t-16 -73.5t-32 -58t-53.5 -34.5t-81.5 -13z" />
    <glyph glyph-name="lcaron" unicode="&#x13e;" horiz-adv-x="497" 
d="M118 0v1792h256v-1792h-256zM595 1280l-64 128q69 0 98.5 30t29.5 98h-128v256h256q0 -144 -3 -242q-2 -54 -6 -91t-16 -73.5t-32 -58t-53.5 -34.5t-81.5 -13z" />
    <glyph glyph-name="Ldot" unicode="&#x13f;" horiz-adv-x="823" 
d="M600 912v256h256v-256h-256zM128 0v1792h256v-1600h448v-192h-704zM558 706v256h256v-256h-256z" />
    <glyph glyph-name="ldot" unicode="&#x140;" horiz-adv-x="497" 
d="M118 0v1792h256v-1792h-256zM569 706v256h256v-256h-256z" />
    <glyph glyph-name="Lslash" unicode="&#x141;" horiz-adv-x="945" 
d="M177 0v858l-128 -71v206l128 71v728h256v-585l266 148v-206l-266 -148v-809h448v-192h-704z" />
    <glyph glyph-name="lslash" unicode="&#x142;" horiz-adv-x="519" 
d="M142 0v1160l-130 -60v192l130 60v440h256v-323l158 73v-195l-158 -70v-1277h-256z" />
    <glyph glyph-name="Nacute" unicode="&#x143;" horiz-adv-x="1152" 
d="M128 0v1792h192l448 -1108v1108h256v-1792h-182l-458 1192v-1192h-256zM512 1912l128 384h256l-256 -384h-128z" />
    <glyph glyph-name="nacute" unicode="&#x144;" horiz-adv-x="992" 
d="M117 0v1280h256v-138q57 52 93 79.5t99.5 52t135.5 24.5q82 0 133 -60t51 -147v-1091h-256v960q0 67 -19 97.5t-77 30.5q-33 0 -65.5 -13.5t-48.5 -25t-46 -36.5v-1013h-256zM437 1400l128 384h256l-256 -384h-128z" />
    <glyph glyph-name="uni0145" unicode="&#x145;" horiz-adv-x="1152" 
d="M512 -634l-64 128q69 0 98.5 30t29.5 98h-128v256h256q0 -145 -3 -242q-2 -54 -6 -91t-16 -73.5t-32 -58t-53.5 -34.5t-81.5 -13zM128 0v1792h192l448 -1108v1108h256v-1792h-182l-458 1192v-1192h-256z" />
    <glyph glyph-name="uni0146" unicode="&#x146;" horiz-adv-x="992" 
d="M437 -634l-64 128q69 0 98.5 30t29.5 98h-128v256h256q0 -145 -3 -242q-2 -54 -6 -91t-16 -73.5t-32 -58t-53.5 -34.5t-81.5 -13zM117 0v1280h256v-138q57 52 93 79.5t99.5 52t135.5 24.5q82 0 133 -60t51 -147v-1091h-256v960q0 67 -19 97.5t-77 30.5q-33 0 -65.5 -13.5
t-48.5 -25t-46 -36.5v-1013h-256z" />
    <glyph glyph-name="Ncaron" unicode="&#x147;" horiz-adv-x="1152" 
d="M128 0v1792h192l448 -1108v1108h256v-1792h-182l-458 1192v-1192h-256zM448 1912l-192 384h192l128 -256l128 256h192l-192 -384h-256z" />
    <glyph glyph-name="ncaron" unicode="&#x148;" horiz-adv-x="992" 
d="M117 0v1280h256v-138q57 52 93 79.5t99.5 52t135.5 24.5q82 0 133 -60t51 -147v-1091h-256v960q0 67 -19 97.5t-77 30.5q-33 0 -65.5 -13.5t-48.5 -25t-46 -36.5v-1013h-256zM373 1400l-192 384h192l128 -256l128 256h192l-192 -384h-256z" />
    <glyph glyph-name="Omacron" unicode="&#x14c;" horiz-adv-x="1180" 
d="M590 -18q-135 0 -231.5 41t-153.5 120t-83 185.5t-26 247.5v650q0 141 26 246t83 182.5t153.5 116.5t231.5 39q262 0 378 -150t116 -434v-650q0 -139 -26.5 -245.5t-83.5 -186t-153.5 -121t-230.5 -41.5zM590 192q135 0 186.5 81t51.5 239v778q0 156 -51 233t-187 77
t-187 -77t-51 -233v-778q0 -158 51.5 -239t186.5 -81zM373 1912v152h434v-152h-434z" />
    <glyph glyph-name="omacron" unicode="&#x14d;" horiz-adv-x="954" 
d="M477 -18q-206 0 -295 120t-89 346v384q0 226 89 346t295 120t295 -120t89 -346v-384q0 -226 -89 -346t-295 -120zM477 192q27 0 47.5 8t34 19.5t22.5 34t14 39.5t7 49t2.5 50.5t0.5 55.5v384q0 37 -0.5 55.5t-2.5 50.5t-7 49t-14 39.5t-22.5 34t-34 19.5t-47.5 8
t-47.5 -8t-34 -19.5t-22.5 -34t-14 -39.5t-7 -49t-2.5 -50.5t-0.5 -55.5v-384q0 -37 0.5 -55.5t2.5 -50.5t7 -49t14 -39.5t22.5 -34t34 -19.5t47.5 -8zM260 1400v152h434v-152h-434z" />
    <glyph glyph-name="Obreve" unicode="&#x14e;" horiz-adv-x="1180" 
d="M590 -18q-135 0 -231.5 41t-153.5 120t-83 185.5t-26 247.5v650q0 141 26 246t83 182.5t153.5 116.5t231.5 39q262 0 378 -150t116 -434v-650q0 -139 -26.5 -245.5t-83.5 -186t-153.5 -121t-230.5 -41.5zM590 192q135 0 186.5 81t51.5 239v778q0 156 -51 233t-187 77
t-187 -77t-51 -233v-778q0 -158 51.5 -239t186.5 -81zM590 1912q-179 0 -249.5 93t-70.5 291h192q0 -102 24.5 -147t103.5 -45t103.5 45.5t24.5 146.5h192q0 -200 -69.5 -292t-250.5 -92z" />
    <glyph glyph-name="obreve" unicode="&#x14f;" horiz-adv-x="954" 
d="M477 -18q-206 0 -295 120t-89 346v384q0 226 89 346t295 120t295 -120t89 -346v-384q0 -226 -89 -346t-295 -120zM477 192q27 0 47.5 8t34 19.5t22.5 34t14 39.5t7 49t2.5 50.5t0.5 55.5v384q0 37 -0.5 55.5t-2.5 50.5t-7 49t-14 39.5t-22.5 34t-34 19.5t-47.5 8
t-47.5 -8t-34 -19.5t-22.5 -34t-14 -39.5t-7 -49t-2.5 -50.5t-0.5 -55.5v-384q0 -37 0.5 -55.5t2.5 -50.5t7 -49t14 -39.5t22.5 -34t34 -19.5t47.5 -8zM477 1400q-179 0 -249.5 93t-70.5 291h192q0 -102 24.5 -147t103.5 -45t103.5 45.5t24.5 146.5h192q0 -200 -69.5 -292
t-250.5 -92z" />
    <glyph glyph-name="Ohungarumlaut" unicode="&#x150;" horiz-adv-x="1180" 
d="M590 -18q-135 0 -231.5 41t-153.5 120t-83 185.5t-26 247.5v650q0 141 26 246t83 182.5t153.5 116.5t231.5 39q262 0 378 -150t116 -434v-650q0 -139 -26.5 -245.5t-83.5 -186t-153.5 -121t-230.5 -41.5zM590 192q135 0 186.5 81t51.5 239v778q0 156 -51 233t-187 77
t-187 -77t-51 -233v-778q0 -158 51.5 -239t186.5 -81zM673 1912l128 384h256l-256 -384h-128zM379 1912l88 384h206l-166 -384h-128z" />
    <glyph glyph-name="ohungarumlaut" unicode="&#x151;" horiz-adv-x="954" 
d="M477 -18q-206 0 -295 120t-89 346v384q0 226 89 346t295 120t295 -120t89 -346v-384q0 -226 -89 -346t-295 -120zM477 192q27 0 47.5 8t34 19.5t22.5 34t14 39.5t7 49t2.5 50.5t0.5 55.5v384q0 37 -0.5 55.5t-2.5 50.5t-7 49t-14 39.5t-22.5 34t-34 19.5t-47.5 8
t-47.5 -8t-34 -19.5t-22.5 -34t-14 -39.5t-7 -49t-2.5 -50.5t-0.5 -55.5v-384q0 -37 0.5 -55.5t2.5 -50.5t7 -49t14 -39.5t22.5 -34t34 -19.5t47.5 -8zM560 1400l128 384h256l-256 -384h-128zM266 1400l88 384h206l-166 -384h-128z" />
    <glyph glyph-name="OE" unicode="&#x152;" horiz-adv-x="1664" 
d="M640 192q137 0 196.5 83t59.5 237v782q-2 147 -62 226.5t-194 79.5q-137 0 -196.5 -83t-59.5 -237v-768q0 -154 59.5 -237t196.5 -83zM640 -18q-512 0 -512 594v640q0 594 512 594q176 0 256 -146v128h704v-192h-448v-576h320v-192h-320v-640h448v-192h-704v128
q-76 -146 -256 -146z" />
    <glyph glyph-name="oe" unicode="&#x153;" horiz-adv-x="1536" 
d="M896 768h256v12q0 38 -0.5 59t-2.5 59t-6.5 59.5t-14 50t-22.5 43.5t-34 26t-47 11q-24 0 -43 -7.5t-32 -23.5t-22.5 -32.5t-15.5 -44t-9.5 -47t-4.5 -53.5t-1.5 -52t-0.5 -51v-9zM512 192q27 0 47.5 8t34 19.5t22.5 34t14 39.5t7 49t2.5 50.5t0.5 55.5v384
q0 37 -0.5 55.5t-2.5 50.5t-7 49t-14 39.5t-22.5 34t-34 19.5t-47.5 8t-47.5 -8t-34 -19.5t-22.5 -34t-14 -39.5t-7 -49t-2.5 -50.5t-0.5 -55.5v-384q0 -37 0.5 -55.5t2.5 -50.5t7 -49t14 -39.5t22.5 -34t34 -19.5t47.5 -8zM512 -18q-206 0 -295 120t-89 346v384
q0 226 89 346t295 120q176 0 256 -146q74 146 257 146q81 0 143.5 -21.5t104 -65t69 -97t41.5 -129t19.5 -148.5t5.5 -167v-30h-512v-64v-41q-2 -37 -0.5 -76.5t3.5 -77.5t11 -72.5t22 -60.5t36.5 -41t55.5 -15q27 0 48 8.5t34.5 19t22.5 33.5t13.5 38.5t7 49.5t2.5 51v56
h256q0 -230 -90.5 -348t-293.5 -118q-180 0 -256 146q-76 -146 -256 -146z" />
    <glyph glyph-name="Racute" unicode="&#x154;" horiz-adv-x="1108" 
d="M384 1024h64q160 0 240 67.5t80 220.5t-80 220.5t-240 67.5h-64v-576zM128 0v1792h320q286 0 431 -111t145 -369q0 -160 -57 -268t-167 -148l288 -896h-254l-258 832h-192v-832h-256zM544 1912l128 384h256l-256 -384h-128z" />
    <glyph glyph-name="racute" unicode="&#x155;" horiz-adv-x="680" 
d="M117 0v1280h256v-171q39 76 113.5 132.5t165.5 56.5q3 0 41 -4v-283q-71 28 -142 28q-80 0 -129 -48t-49 -127v-864h-256zM341 1400l128 384h256l-256 -384h-128z" />
    <glyph glyph-name="uni0156" unicode="&#x156;" horiz-adv-x="1108" 
d="M544 -634l-64 128q69 0 98.5 30t29.5 98h-128v256h256q0 -145 -3 -242q-2 -54 -6 -91t-16 -73.5t-32 -58t-53.5 -34.5t-81.5 -13zM384 1024h64q160 0 240 67.5t80 220.5t-80 220.5t-240 67.5h-64v-576zM128 0v1792h320q286 0 431 -111t145 -369q0 -160 -57 -268
t-167 -148l288 -896h-254l-258 832h-192v-832h-256z" />
    <glyph glyph-name="uni0157" unicode="&#x157;" horiz-adv-x="693" 
d="M181 -634l-64 128q69 0 98.5 30t29.5 98h-128v256h256q0 -145 -3 -242q-2 -54 -6 -91t-16 -73.5t-32 -58t-53.5 -34.5t-81.5 -13zM117 0v1280h256v-171q39 76 113.5 132.5t165.5 56.5q3 0 41 -4v-283q-71 28 -142 28q-80 0 -129 -48t-49 -127v-864h-256z" />
    <glyph glyph-name="Rcaron" unicode="&#x158;" horiz-adv-x="1108" 
d="M384 1024h64q160 0 240 67.5t80 220.5t-80 220.5t-240 67.5h-64v-576zM128 0v1792h320q286 0 431 -111t145 -369q0 -160 -57 -268t-167 -148l288 -896h-254l-258 832h-192v-832h-256zM480 1912l-192 384h192l128 -256l128 256h192l-192 -384h-256z" />
    <glyph glyph-name="rcaron" unicode="&#x159;" horiz-adv-x="680" 
d="M117 0v1280h256v-171q39 76 113.5 132.5t165.5 56.5q3 0 41 -4v-283q-71 28 -142 28q-80 0 -129 -48t-49 -127v-864h-256zM277 1400l-192 384h192l128 -256l128 256h192l-192 -384h-256z" />
    <glyph glyph-name="Sacute" unicode="&#x15a;" horiz-adv-x="1102" 
d="M595 -18q-242 0 -369.5 142t-142.5 388l256 64q19 -384 256 -384q192 0 192 192q0 57 -15.5 105.5t-47.5 89t-58 65t-71 60.5l-320 256q-88 69 -140.5 175.5t-52.5 242.5q0 198 123 315t326 117q218 0 346.5 -106.5t158.5 -301.5q3 -21 7 -58l-256 -64q-1 17 -5 51
q-17 122 -76.5 195.5t-174.5 73.5q-92 0 -142 -51.5t-50 -143.5q0 -151 128 -253l320 -256q256 -207 256 -495q0 -197 -121.5 -308t-326.5 -111zM498 1912l128 384h256l-256 -384h-128z" />
    <glyph glyph-name="sacute" unicode="&#x15b;" horiz-adv-x="876" 
d="M453 -18q-158 0 -253.5 94t-130.5 244l192 64q69 -192 192 -192q61 0 94.5 33.5t33.5 94.5q0 89 -64 148l-256 192q-43 29 -72 54.5t-59 62.5t-45.5 83t-15.5 100q0 164 104.5 251t279.5 87q83 0 150 -26.5t112.5 -74.5t75 -106.5t46.5 -130.5l-192 -64q-14 38 -28 65.5
t-37.5 59.5t-55.5 49.5t-71 17.5q-61 0 -94.5 -33.5t-33.5 -94.5q0 -60 64 -108l256 -192q43 -34 73.5 -65.5t59.5 -73t44 -92.5t15 -109q0 -164 -104.5 -251t-279.5 -87zM400 1400l128 384h256l-256 -384h-128z" />
    <glyph glyph-name="Scircumflex" unicode="&#x15c;" horiz-adv-x="1102" 
d="M595 -18q-242 0 -369.5 142t-142.5 388l256 64q19 -384 256 -384q192 0 192 192q0 57 -15.5 105.5t-47.5 89t-58 65t-71 60.5l-320 256q-88 69 -140.5 175.5t-52.5 242.5q0 198 123 315t326 117q218 0 346.5 -106.5t158.5 -301.5q3 -21 7 -58l-256 -64q-1 17 -5 51
q-17 122 -76.5 195.5t-174.5 73.5q-92 0 -142 -51.5t-50 -143.5q0 -151 128 -253l320 -256q256 -207 256 -495q0 -197 -121.5 -308t-326.5 -111zM242 1912l192 384h256l192 -384h-192l-128 256l-128 -256h-192z" />
    <glyph glyph-name="scircumflex" unicode="&#x15d;" horiz-adv-x="876" 
d="M453 -18q-158 0 -253.5 94t-130.5 244l192 64q69 -192 192 -192q61 0 94.5 33.5t33.5 94.5q0 89 -64 148l-256 192q-43 29 -72 54.5t-59 62.5t-45.5 83t-15.5 100q0 164 104.5 251t279.5 87q83 0 150 -26.5t112.5 -74.5t75 -106.5t46.5 -130.5l-192 -64q-14 38 -28 65.5
t-37.5 59.5t-55.5 49.5t-71 17.5q-61 0 -94.5 -33.5t-33.5 -94.5q0 -60 64 -108l256 -192q43 -34 73.5 -65.5t59.5 -73t44 -92.5t15 -109q0 -164 -104.5 -251t-279.5 -87zM144 1400l192 384h256l192 -384h-192l-128 256l-128 -256h-192z" />
    <glyph glyph-name="Scedilla" unicode="&#x15e;" horiz-adv-x="1102" 
d="M595 -18q-242 0 -369.5 142t-142.5 388l256 64q19 -384 256 -384q192 0 192 192q0 57 -15.5 105.5t-47.5 89t-58 65t-71 60.5l-320 256q-88 69 -140.5 175.5t-52.5 242.5q0 198 123 315t326 117q218 0 346.5 -106.5t158.5 -301.5q3 -21 7 -58l-256 -64q-1 17 -5 51
q-17 122 -76.5 195.5t-174.5 73.5q-92 0 -142 -51.5t-50 -143.5q0 -151 128 -253l320 -256q256 -207 256 -495q0 -197 -121.5 -308t-326.5 -111zM434 -513v128q15 0 51.5 -1t56.5 -1q68 0 108 13.5t40 52.5q0 14 -7.5 27t-22 24.5t-29 20.5t-36.5 18.5t-35 15t-35 13
t-27 9.5v192h128v-128q47 -13 81.5 -26t79.5 -36t70 -56t25 -74q0 -38 -11 -67.5t-28.5 -49.5t-46 -34t-56.5 -22t-69 -12.5t-73.5 -5.5t-78.5 -1h-85z" />
    <glyph glyph-name="scedilla" unicode="&#x15f;" horiz-adv-x="876" 
d="M453 -18q-158 0 -253.5 94t-130.5 244l192 64q69 -192 192 -192q61 0 94.5 33.5t33.5 94.5q0 89 -64 148l-256 192q-43 29 -72 54.5t-59 62.5t-45.5 83t-15.5 100q0 164 104.5 251t279.5 87q83 0 150 -26.5t112.5 -74.5t75 -106.5t46.5 -130.5l-192 -64q-14 38 -28 65.5
t-37.5 59.5t-55.5 49.5t-71 17.5q-61 0 -94.5 -33.5t-33.5 -94.5q0 -60 64 -108l256 -192q43 -34 73.5 -65.5t59.5 -73t44 -92.5t15 -109q0 -164 -104.5 -251t-279.5 -87zM336 -513v128q15 0 51.5 -1t56.5 -1q68 0 108 13.5t40 52.5q0 14 -7.5 27t-22 24.5t-29 20.5
t-36.5 18.5t-35 15t-35 13t-27 9.5v192h128v-128q47 -13 81.5 -26t79.5 -36t70 -56t25 -74q0 -38 -11 -67.5t-28.5 -49.5t-46 -34t-56.5 -22t-69 -12.5t-73.5 -5.5t-78.5 -1h-85z" />
    <glyph glyph-name="Scaron" unicode="&#x160;" horiz-adv-x="1102" 
d="M595 -18q-242 0 -369.5 142t-142.5 388l256 64q19 -384 256 -384q192 0 192 192q0 57 -15.5 105.5t-47.5 89t-58 65t-71 60.5l-320 256q-88 69 -140.5 175.5t-52.5 242.5q0 198 123 315t326 117q218 0 346.5 -106.5t158.5 -301.5q3 -21 7 -58l-256 -64q-1 17 -5 51
q-17 122 -76.5 195.5t-174.5 73.5q-92 0 -142 -51.5t-50 -143.5q0 -151 128 -253l320 -256q256 -207 256 -495q0 -197 -121.5 -308t-326.5 -111zM434 1912l-192 384h192l128 -256l128 256h192l-192 -384h-256z" />
    <glyph glyph-name="scaron" unicode="&#x161;" horiz-adv-x="876" 
d="M453 -18q-158 0 -253.5 94t-130.5 244l192 64q69 -192 192 -192q61 0 94.5 33.5t33.5 94.5q0 89 -64 148l-256 192q-43 29 -72 54.5t-59 62.5t-45.5 83t-15.5 100q0 164 104.5 251t279.5 87q83 0 150 -26.5t112.5 -74.5t75 -106.5t46.5 -130.5l-192 -64q-14 38 -28 65.5
t-37.5 59.5t-55.5 49.5t-71 17.5q-61 0 -94.5 -33.5t-33.5 -94.5q0 -60 64 -108l256 -192q43 -34 73.5 -65.5t59.5 -73t44 -92.5t15 -109q0 -164 -104.5 -251t-279.5 -87zM336 1400l-192 384h192l128 -256l128 256h192l-192 -384h-256z" />
    <glyph glyph-name="uni0162" unicode="&#x162;" horiz-adv-x="894" 
d="M319 -495v128q15 0 51.5 -1t56.5 -1q68 0 108 13.5t40 52.5q0 14 -7.5 27t-22 24.5t-29 20.5t-36.5 18.5t-35 15t-35 13t-27 9.5v192h128v-128q47 -13 81.5 -26t79.5 -36t70 -56t25 -74q0 -38 -11 -67.5t-28.5 -49.5t-46 -34t-56.5 -22t-69 -12.5t-73.5 -5.5t-78.5 -1
h-85zM319 0v1564h-320v228h896v-228h-320v-1564h-256z" />
    <glyph glyph-name="uni0163" unicode="&#x163;" horiz-adv-x="700" 
d="M214 -513v128q15 0 51.5 -1t56.5 -1q68 0 108 13.5t40 52.5q0 14 -7.5 27t-22 24.5t-29 20.5t-36.5 18.5t-35 15t-35 13t-27 9.5v192h128v-128q47 -13 81.5 -26t79.5 -36t70 -56t25 -74q0 -38 -11 -67.5t-28.5 -49.5t-46 -34t-56.5 -22t-69 -12.5t-73.5 -5.5t-78.5 -1
h-85zM472 -18q-151 0 -219.5 77t-70.5 233v796h-128v192h128v448h256v-448h192v-192h-192v-747q0 -77 21 -113t85 -36q28 0 86 10v-208q-96 -12 -158 -12z" />
    <glyph glyph-name="Tcaron" unicode="&#x164;" horiz-adv-x="894" 
d="M319 0v1564h-320v228h896v-228h-320v-1564h-256zM319 1912l-192 384h192l128 -256l128 256h192l-192 -384h-256z" />
    <glyph glyph-name="tcaron" unicode="&#x165;" horiz-adv-x="658" 
d="M472 -18q-151 0 -219.5 77t-70.5 233v796h-128v192h128v448h256v-448h192v-192h-192v-747q0 -77 21 -113t85 -36q28 0 86 10v-208q-96 -12 -158 -12zM834 1216l-64 128q69 0 98.5 30t29.5 98h-128v256h256q0 -144 -3 -242q-2 -54 -6 -91t-16 -73.5t-32 -58t-53.5 -34.5
t-81.5 -13z" />
    <glyph glyph-name="Utilde" unicode="&#x168;" horiz-adv-x="1252" 
d="M626 -19q-117 0 -206 31t-146.5 86.5t-93.5 139.5t-51 181.5t-15 220.5v1152h256v-1152q0 -83 3.5 -139t18.5 -119.5t41.5 -101.5t75 -63t117.5 -25t117.5 25t75 63t41.5 101.5t18.5 119.5t3.5 139v1152h256v-1152q0 -123 -15 -220.5t-51 -181.5t-93.5 -139.5
t-146.5 -86.5t-206 -31zM759 1912q-48 0 -98.5 22t-97.5 43.5t-88 21.5q-48 0 -48 -67h-154q0 116 57.5 194.5t162.5 78.5q58 0 145 -43t136 -43q51 0 51 69h154q0 -117 -57.5 -196.5t-162.5 -79.5z" />
    <glyph glyph-name="utilde" unicode="&#x169;" horiz-adv-x="987" 
d="M300 -18q-84 0 -135 59.5t-51 147.5v1091h256v-1013q0 -40 24.5 -65t63.5 -25q21 0 41 5t39.5 17.5t30.5 20t31.5 25.5t25.5 22v1013h256v-1280h-256v138q-38 -33 -55.5 -48t-53.5 -40.5t-63.5 -37t-68.5 -21t-85 -9.5zM631 1400q-48 0 -98.5 22t-97.5 43.5t-88 21.5
q-48 0 -48 -67h-154q0 116 57.5 194.5t162.5 78.5q58 0 145 -43t136 -43q51 0 51 69h154q0 -117 -57.5 -196.5t-162.5 -79.5z" />
    <glyph glyph-name="Umacron" unicode="&#x16a;" horiz-adv-x="1252" 
d="M626 -19q-117 0 -206 31t-146.5 86.5t-93.5 139.5t-51 181.5t-15 220.5v1152h256v-1152q0 -83 3.5 -139t18.5 -119.5t41.5 -101.5t75 -63t117.5 -25t117.5 25t75 63t41.5 101.5t18.5 119.5t3.5 139v1152h256v-1152q0 -123 -15 -220.5t-51 -181.5t-93.5 -139.5
t-146.5 -86.5t-206 -31zM409 1912v152h434v-152h-434z" />
    <glyph glyph-name="umacron" unicode="&#x16b;" horiz-adv-x="987" 
d="M300 -18q-84 0 -135 59.5t-51 147.5v1091h256v-1013q0 -40 24.5 -65t63.5 -25q21 0 41 5t39.5 17.5t30.5 20t31.5 25.5t25.5 22v1013h256v-1280h-256v138q-38 -33 -55.5 -48t-53.5 -40.5t-63.5 -37t-68.5 -21t-85 -9.5zM281 1400v152h434v-152h-434z" />
    <glyph glyph-name="Ubreve" unicode="&#x16c;" horiz-adv-x="1252" 
d="M626 -19q-117 0 -206 31t-146.5 86.5t-93.5 139.5t-51 181.5t-15 220.5v1152h256v-1152q0 -83 3.5 -139t18.5 -119.5t41.5 -101.5t75 -63t117.5 -25t117.5 25t75 63t41.5 101.5t18.5 119.5t3.5 139v1152h256v-1152q0 -123 -15 -220.5t-51 -181.5t-93.5 -139.5
t-146.5 -86.5t-206 -31zM626 1912q-179 0 -249.5 93t-70.5 291h192q0 -102 24.5 -147t103.5 -45t103.5 45.5t24.5 146.5h192q0 -200 -69.5 -292t-250.5 -92z" />
    <glyph glyph-name="ubreve" unicode="&#x16d;" horiz-adv-x="987" 
d="M300 -18q-84 0 -135 59.5t-51 147.5v1091h256v-1013q0 -40 24.5 -65t63.5 -25q21 0 41 5t39.5 17.5t30.5 20t31.5 25.5t25.5 22v1013h256v-1280h-256v138q-38 -33 -55.5 -48t-53.5 -40.5t-63.5 -37t-68.5 -21t-85 -9.5zM498 1400q-179 0 -249.5 93t-70.5 291h192
q0 -102 24.5 -147t103.5 -45t103.5 45.5t24.5 146.5h192q0 -200 -69.5 -292t-250.5 -92z" />
    <glyph glyph-name="Uring" unicode="&#x16e;" horiz-adv-x="1252" 
d="M626 -19q-117 0 -206 31t-146.5 86.5t-93.5 139.5t-51 181.5t-15 220.5v1152h256v-1152q0 -83 3.5 -139t18.5 -119.5t41.5 -101.5t75 -63t117.5 -25t117.5 25t75 63t41.5 101.5t18.5 119.5t3.5 139v1152h256v-1152q0 -123 -15 -220.5t-51 -181.5t-93.5 -139.5
t-146.5 -86.5t-206 -31zM626 1912q-117 0 -186.5 70t-69.5 186t69.5 186t186.5 70t186.5 -70t69.5 -186t-69.5 -186t-186.5 -70zM626 2040q60 0 94 34.5t34 93.5t-34 93.5t-94 34.5t-94 -34t-34 -94t34 -94t94 -34z" />
    <glyph glyph-name="uring" unicode="&#x16f;" horiz-adv-x="987" 
d="M300 -18q-84 0 -135 59.5t-51 147.5v1091h256v-1013q0 -40 24.5 -65t63.5 -25q21 0 41 5t39.5 17.5t30.5 20t31.5 25.5t25.5 22v1013h256v-1280h-256v138q-38 -33 -55.5 -48t-53.5 -40.5t-63.5 -37t-68.5 -21t-85 -9.5zM498 1400q-117 0 -186.5 70t-69.5 186t69.5 186
t186.5 70t186.5 -70t69.5 -186t-69.5 -186t-186.5 -70zM498 1528q60 0 94 34.5t34 93.5t-34 93.5t-94 34.5t-94 -34t-34 -94t34 -94t94 -34z" />
    <glyph glyph-name="Uhungarumlaut" unicode="&#x170;" horiz-adv-x="1252" 
d="M626 -19q-117 0 -206 31t-146.5 86.5t-93.5 139.5t-51 181.5t-15 220.5v1152h256v-1152q0 -83 3.5 -139t18.5 -119.5t41.5 -101.5t75 -63t117.5 -25t117.5 25t75 63t41.5 101.5t18.5 119.5t3.5 139v1152h256v-1152q0 -123 -15 -220.5t-51 -181.5t-93.5 -139.5
t-146.5 -86.5t-206 -31zM709 1912l128 384h256l-256 -384h-128zM415 1912l88 384h206l-166 -384h-128z" />
    <glyph glyph-name="uhungarumlaut" unicode="&#x171;" horiz-adv-x="987" 
d="M300 -18q-84 0 -135 59.5t-51 147.5v1091h256v-1013q0 -40 24.5 -65t63.5 -25q21 0 41 5t39.5 17.5t30.5 20t31.5 25.5t25.5 22v1013h256v-1280h-256v138q-38 -33 -55.5 -48t-53.5 -40.5t-63.5 -37t-68.5 -21t-85 -9.5zM581 1400l128 384h256l-256 -384h-128zM287 1400
l88 384h206l-166 -384h-128z" />
    <glyph glyph-name="Uogonek" unicode="&#x172;" horiz-adv-x="1252" 
d="M626 -19q-117 0 -206 31t-146.5 86.5t-93.5 139.5t-51 181.5t-15 220.5v1152h256v-1152q0 -83 3.5 -139t18.5 -119.5t41.5 -101.5t75 -63t117.5 -25t117.5 25t75 63t41.5 101.5t18.5 119.5t3.5 139v1152h256v-1152q0 -123 -15 -220.5t-51 -181.5t-93.5 -139.5
t-146.5 -86.5t-206 -31zM709 -524q-47 0 -76.5 0.5t-69 2.5t-64 5.5t-54.5 10.5t-48.5 16.5t-37.5 24t-29.5 33t-17 43.5t-6.5 56q0 108 81 205.5t175 124.5h128q-6 -8 -53 -65t-69 -88t-46 -82t-24 -91q0 -74 144 -74q19 0 58.5 3t53.5 3v-128h-45z" />
    <glyph glyph-name="uogonek" unicode="&#x173;" horiz-adv-x="987" 
d="M300 -18q-84 0 -135 59.5t-51 147.5v1091h256v-1013q0 -40 24.5 -65t63.5 -25q21 0 41 5t39.5 17.5t30.5 20t31.5 25.5t25.5 22v1013h256v-1280h-256v138q-38 -33 -55.5 -48t-53.5 -40.5t-63.5 -37t-68.5 -21t-85 -9.5zM782 -522q-47 0 -76.5 0.5t-69 2.5t-64 5.5
t-54.5 10.5t-48.5 16.5t-37.5 24t-29.5 33t-17 43.5t-6.5 56q0 108 81 205.5t175 124.5h128q-6 -8 -53 -65t-69 -88t-46 -82t-24 -91q0 -74 144 -74q19 0 58.5 3t53.5 3v-128h-45z" />
    <glyph glyph-name="Wcircumflex" unicode="&#x174;" horiz-adv-x="1558" 
d="M331 0l-320 1792h256l128 -832l65 -512l63 512l128 832h256l128 -832l63 -512l65 512l128 832h256l-320 -1792h-256l-128 832l-64 512l-64 -512l-128 -832h-256zM459 1912l192 384h256l192 -384h-192l-128 256l-128 -256h-192z" />
    <glyph glyph-name="wcircumflex" unicode="&#x175;" horiz-adv-x="1269" 
d="M257 0l-237 1280h227l142 -972l134 972h234l136 -962l140 962h228l-248 -1280h-236l-136 882l-138 -882h-246zM314 1400l192 384h256l192 -384h-192l-128 256l-128 -256h-192z" />
    <glyph glyph-name="Ycircumflex" unicode="&#x176;" horiz-adv-x="1018" 
d="M381 0v576l-384 1216h256l256 -896l256 896h256l-384 -1216v-576h-256zM189 1912l192 384h256l192 -384h-192l-128 256l-128 -256h-192z" />
    <glyph glyph-name="ycircumflex" unicode="&#x177;" horiz-adv-x="842" 
d="M84 -320v192q76 0 121.5 10t68.5 35.5t29.5 56t6.5 84.5l-290 1222h256q149 -823 161 -896q21 135 47.5 284.5t60 330t51.5 281.5h256l-320 -1344q-32 -139 -135 -197.5t-287 -58.5h-26zM106 1400l192 384h256l192 -384h-192l-128 256l-128 -256h-192z" />
    <glyph glyph-name="Ydieresis" unicode="&#x178;" horiz-adv-x="1018" 
d="M381 0v576l-384 1216h256l256 -896l256 896h256l-384 -1216v-576h-256zM573 1912v256h256v-256h-256zM189 1912v256h256v-256h-256z" />
    <glyph glyph-name="Zacute" unicode="&#x179;" horiz-adv-x="951" 
d="M62 0v192l576 1408h-512v192h768v-192l-576 -1408h576v-192h-832zM414 1912l128 384h256l-256 -384h-128z" />
    <glyph glyph-name="zacute" unicode="&#x17a;" horiz-adv-x="782" 
d="M71 0v192l448 896h-384v192h640v-192l-448 -896h448v-192h-704zM329 1400l128 384h256l-256 -384h-128z" />
    <glyph glyph-name="Zdotaccent" unicode="&#x17b;" horiz-adv-x="951" 
d="M350 1912v256h256v-256h-256zM62 0v192l576 1408h-512v192h768v-192l-576 -1408h576v-192h-832z" />
    <glyph glyph-name="zdotaccent" unicode="&#x17c;" horiz-adv-x="782" 
d="M265 1400v256h256v-256h-256zM71 0v192l448 896h-384v192h640v-192l-448 -896h448v-192h-704z" />
    <glyph glyph-name="Zcaron" unicode="&#x17d;" horiz-adv-x="951" 
d="M62 0v192l576 1408h-512v192h768v-192l-576 -1408h576v-192h-832zM350 1912l-192 384h192l128 -256l128 256h192l-192 -384h-256z" />
    <glyph glyph-name="zcaron" unicode="&#x17e;" horiz-adv-x="782" 
d="M71 0v192l448 896h-384v192h640v-192l-448 -896h448v-192h-704zM265 1400l-192 384h192l128 -256l128 256h192l-192 -384h-256z" />
    <glyph glyph-name="florin" unicode="&#x192;" horiz-adv-x="704" 
d="M158 -256q-62 0 -158 12v190q60 -10 86 -10q64 0 85 40.5t21 119.5v992h-136v192h136v64q0 78 6.5 133.5t25 105.5t50.5 80t83.5 47.5t124.5 17.5q62 0 158 -12v-190q-10 1 -41 5.5t-45 4.5q-64 0 -85 -40.5t-21 -119.5v-96h184v-192h-184v-960q0 -79 -6.5 -134.5
t-24.5 -105.5t-50 -80t-84 -47t-125 -17z" />
    <glyph glyph-name="uni01C4" unicode="&#x1c4;" horiz-adv-x="2084" 
d="M1195 0v192l576 1408h-512v192h768v-192l-576 -1408h576v-192h-832zM1483 1912l-192 384h192l128 -256l128 256h192l-192 -384h-256zM128 0v1792h397q281 0 396.5 -115t115.5 -397v-704q0 -295 -117.5 -435.5t-396.5 -140.5h-395zM384 192h141q63 0 108 11.5t73 42t44 58
t22.5 85.5t7.5 95.5t1 116.5v39v576q0 49 -0.5 78t-3 68.5t-7.5 62.5t-14 51.5t-22.5 44.5t-33 33.5t-45 26t-59.5 14t-76 5.5h-136v-1408z" />
    <glyph glyph-name="uni01C5" unicode="&#x1c5;" horiz-adv-x="1915" 
d="M1204 0v192l448 896h-384v192h640v-192l-448 -896h448v-192h-704zM1398 1400l-192 384h192l128 -256l128 256h192l-192 -384h-256zM128 0v1792h397q281 0 396.5 -115t115.5 -397v-704q0 -295 -117.5 -435.5t-396.5 -140.5h-395zM384 192h141q63 0 108 11.5t73 42t44 58
t22.5 85.5t7.5 95.5t1 116.5v39v576q0 49 -0.5 78t-3 68.5t-7.5 62.5t-14 51.5t-22.5 44.5t-33 33.5t-45 26t-59.5 14t-76 5.5h-136v-1408z" />
    <glyph glyph-name="uni01C6" unicode="&#x1c6;" horiz-adv-x="1832" 
d="M1121 0v192l448 896h-384v192h640v-192l-448 -896h448v-192h-704zM1315 1400l-192 384h192l128 -256l128 256h192l-192 -384h-256zM480 192q93 0 192 40v805q-86 51 -192 51q-38 0 -64 -18.5t-39 -54t-19 -73t-7 -88.5q-4 -224 0 -355q1 -64 7 -114t19.5 -96.5
t39.5 -71.5t63 -25zM416 -18q-85 0 -148.5 48t-98 130t-51.5 170.5t-21 190.5q-2 47 0 230q2 66 6 119.5t13.5 111.5t24 102.5t38.5 86t56 68.5t77 43t100 16q43 0 80.5 -11.5t71.5 -36t54.5 -43.5t53.5 -54v638h256v-1791h-256v116q-58 -60 -118 -97t-138 -37z" />
    <glyph glyph-name="uni01C7" unicode="&#x1c7;" horiz-adv-x="1463" 
d="M823 0v192q83 0 129.5 9t76.5 38.5t40 77t10 131.5v1344h256v-1344q0 -122 -16 -201.5t-58.5 -137.5t-118 -83.5t-191.5 -25.5h-128zM128 0v1792h256v-1600h448v-192h-704z" />
    <glyph glyph-name="uni01C8" unicode="&#x1c8;" horiz-adv-x="1330" 
d="M973 1472v256h256v-256h-256zM909 -320q-84 0 -128 17v182q35 -7 64 -7q128 0 128 149v1259h256v-1287q0 -148 -85.5 -230.5t-234.5 -82.5zM128 0v1792h256v-1600h448v-192h-704z" />
    <glyph glyph-name="uni01C9" unicode="&#x1c9;" horiz-adv-x="992" 
d="M635 1472v256h256v-256h-256zM571 -320q-84 0 -128 17v182q35 -7 64 -7q128 0 128 149v1259h256v-1287q0 -148 -85.5 -230.5t-234.5 -82.5zM118 0v1792h256v-1792h-256z" />
    <glyph glyph-name="uni01CA" unicode="&#x1ca;" horiz-adv-x="1792" 
d="M1152 0v192q83 0 129.5 9t76.5 38.5t40 77t10 131.5v1344h256v-1344q0 -122 -16 -201.5t-58.5 -137.5t-118 -83.5t-191.5 -25.5h-128zM128 0v1792h192l448 -1108v1108h256v-1792h-182l-458 1192v-1192h-256z" />
    <glyph glyph-name="uni01CB" unicode="&#x1cb;" horiz-adv-x="1659" 
d="M1302 1472v256h256v-256h-256zM1238 -320q-84 0 -128 17v182q35 -7 64 -7q128 0 128 149v1259h256v-1287q0 -148 -85.5 -230.5t-234.5 -82.5zM128 0v1792h192l448 -1108v1108h256v-1792h-182l-458 1192v-1192h-256z" />
    <glyph glyph-name="uni01CC" unicode="&#x1cc;" horiz-adv-x="1499" 
d="M1142 1472v256h256v-256h-256zM1078 -320q-84 0 -128 17v182q35 -7 64 -7q128 0 128 149v1259h256v-1287q0 -148 -85.5 -230.5t-234.5 -82.5zM117 0v1280h256v-138q57 52 93 79.5t99.5 52t135.5 24.5q82 0 133 -60t51 -147v-1091h-256v960q0 67 -19 97.5t-77 30.5
q-33 0 -65.5 -13.5t-48.5 -25t-46 -36.5v-1013h-256z" />
    <glyph glyph-name="uni01F1" unicode="&#x1f1;" horiz-adv-x="2084" 
d="M1195 0v192l576 1408h-512v192h768v-192l-576 -1408h576v-192h-832zM128 0v1792h397q281 0 396.5 -115t115.5 -397v-704q0 -295 -117.5 -435.5t-396.5 -140.5h-395zM384 192h141q63 0 108 11.5t73 42t44 58t22.5 85.5t7.5 95.5t1 116.5v39v576q0 49 -0.5 78t-3 68.5
t-7.5 62.5t-14 51.5t-22.5 44.5t-33 33.5t-45 26t-59.5 14t-76 5.5h-136v-1408z" />
    <glyph glyph-name="uni01F2" unicode="&#x1f2;" horiz-adv-x="1951" 
d="M1204 0v192l448 896h-384v192h640v-192l-448 -896h448v-192h-704zM128 0v1792h397q281 0 396.5 -115t115.5 -397v-704q0 -295 -117.5 -435.5t-396.5 -140.5h-395zM384 192h141q63 0 108 11.5t73 42t44 58t22.5 85.5t7.5 95.5t1 116.5v39v576q0 49 -0.5 78t-3 68.5
t-7.5 62.5t-14 51.5t-22.5 44.5t-33 33.5t-45 26t-59.5 14t-76 5.5h-136v-1408z" />
    <glyph glyph-name="uni01F3" unicode="&#x1f3;" horiz-adv-x="1868" 
d="M1121 0v192l448 896h-384v192h640v-192l-448 -896h448v-192h-704zM480 192q93 0 192 40v805q-86 51 -192 51q-38 0 -64 -18.5t-39 -54t-19 -73t-7 -88.5q-4 -224 0 -355q1 -64 7 -114t19.5 -96.5t39.5 -71.5t63 -25zM416 -18q-85 0 -148.5 48t-98 130t-51.5 170.5
t-21 190.5q-2 47 0 230q2 66 6 119.5t13.5 111.5t24 102.5t38.5 86t56 68.5t77 43t100 16q43 0 80.5 -11.5t71.5 -36t54.5 -43.5t53.5 -54v638h256v-1791h-256v116q-58 -60 -118 -97t-138 -37z" />
    <glyph glyph-name="uni01F4" unicode="&#x1f4;" horiz-adv-x="1199" 
d="M408 1920l128 384h256l-256 -384h-128zM608 -18q-123 0 -213.5 35t-147.5 95t-91 153t-47 196t-13 237v454q0 658 522 658q125 0 217 -37.5t149 -109.5t86 -168.5t34 -223.5q1 -18 1 -55h-256v54q-1 63 -6.5 108.5t-20 89.5t-39.5 71.5t-66.5 44t-98.5 16.5
q-78 0 -131.5 -28.5t-82 -83t-40.5 -120t-12 -152.5v-576q0 -64 4 -115.5t13.5 -105t28 -92.5t46 -70.5t69 -48t95.5 -16.5q64 0 111 25t74.5 64.5t43.5 100.5t21.5 121t5.5 137v64h-256v190h512v-894h-192l-64 192q-75 -210 -256 -210z" />
    <glyph glyph-name="uni01F5" unicode="&#x1f5;" horiz-adv-x="968" 
d="M292 1408l128 384h256l-256 -384h-128zM458 560q160 0 160 272q0 55 -7 101.5t-24 91t-50 70t-79 25.5q-47 0 -80 -25.5t-49.5 -70t-23.5 -91t-7 -101.5q0 -272 160 -272zM522 -194q27 0 48.5 1t49.5 4t48.5 9.5t39 16.5t28.5 26.5t10 37.5q0 107 -205 131l-211 25
q-39 -28 -66.5 -81t-27.5 -111q0 -16 11 -27.5t32.5 -17.5t44 -10t53.5 -5t53 -1t51.5 1t40.5 1zM522 -383q-48 0 -78 0.5t-82 2.5t-87 7.5t-80 14t-74.5 22.5t-56.5 33t-40.5 46.5t-13.5 61.5q0 100 53.5 171t138.5 113q-52 14 -90 42.5t-38 69.5q0 17 4 36t9 34.5t16 35.5
t17.5 31.5t21.5 32t20.5 28t21.5 27t18 22.5q-128 152 -128 384q0 133 42 237t130.5 166.5t211.5 62.5q71 0 124 -20t86.5 -50.5t65.5 -80.5q76 141 216 150h6h7.5h6.5v-209h-16q-43 0 -65 -1t-49 -8.5t-43 -23.5q18 -39 31.5 -103.5t13.5 -119.5q0 -134 -40.5 -237
t-129 -165t-214.5 -62l-129 15q-2 -5 -10 -17.5t-12.5 -20.5t-8.5 -20.5t-4 -23.5q0 -26 25 -44t69 -26.5t84.5 -12.5t90.5 -6.5t69 -5.5q57 -8 101.5 -18.5t91 -30.5t76.5 -48t49.5 -72t19.5 -101q0 -70 -24.5 -125t-65.5 -91t-99 -59.5t-122 -33.5t-137 -10z" />
    <glyph glyph-name="uni0200" unicode="&#x200;" horiz-adv-x="1056" 
d="M611 1932l-166 384h206l88 -384h-128zM317 1932l-256 384h256l128 -384h-128zM400 640h256l-128 768zM16 0l384 1792h256l384 -1792h-256l-96 448h-320l-96 -448h-256z" />
    <glyph glyph-name="uni0201" unicode="&#x201;" horiz-adv-x="955" 
d="M551 1420l-166 384h206l88 -384h-128zM257 1420l-256 384h256l128 -384h-128zM468 192q27 0 52.5 16t38.5 31t32 40q3 5 5 7v354q-16 -11 -53 -34t-59 -37.5t-53 -40t-48 -49t-30 -57.5t-13 -71q0 -159 128 -159zM340 -18q-107 0 -181.5 92.5t-74.5 208.5q0 93 31.5 169
t66.5 121.5t117 94t124 66.5t146 59q18 7 27 11v92q0 97 -27 150.5t-101 53.5q-66 0 -94.5 -45.5t-32.5 -125.5q-1 -11 -1 -33h-256q2 184 103 293t281 109q179 0 281.5 -110.5t102.5 -291.5v-576q0 -200 33 -320h-255l-34 192q-20 -40 -32.5 -62t-36.5 -54.5t-48 -50
t-60 -30.5t-79 -13z" />
    <glyph glyph-name="uni0202" unicode="&#x202;" horiz-adv-x="1056" 
d="M259 1912q0 200 69.5 292t250.5 92q179 0 249.5 -93t70.5 -291h-192q0 102 -24.5 147t-103.5 45t-103.5 -45.5t-24.5 -146.5h-192zM400 640h256l-128 768zM16 0l384 1792h256l384 -1792h-256l-96 448h-320l-96 -448h-256z" />
    <glyph glyph-name="uni0203" unicode="&#x203;" horiz-adv-x="955" 
d="M176 1400q0 200 69.5 292t250.5 92q179 0 249.5 -93t70.5 -291h-192q0 102 -24.5 147t-103.5 45t-103.5 -45.5t-24.5 -146.5h-192zM468 192q27 0 52.5 16t38.5 31t32 40q3 5 5 7v354q-16 -11 -53 -34t-59 -37.5t-53 -40t-48 -49t-30 -57.5t-13 -71q0 -159 128 -159z
M340 -18q-107 0 -181.5 92.5t-74.5 208.5q0 93 31.5 169t66.5 121.5t117 94t124 66.5t146 59q18 7 27 11v92q0 97 -27 150.5t-101 53.5q-66 0 -94.5 -45.5t-32.5 -125.5q-1 -11 -1 -33h-256q2 184 103 293t281 109q179 0 281.5 -110.5t102.5 -291.5v-576q0 -200 33 -320
h-255l-34 192q-20 -40 -32.5 -62t-36.5 -54.5t-48 -50t-60 -30.5t-79 -13z" />
    <glyph glyph-name="uni0204" unicode="&#x204;" horiz-adv-x="861" 
d="M563 1932l-166 384h206l88 -384h-128zM269 1932l-256 384h256l128 -384h-128zM128 0v1792h704v-192h-448v-576h320v-192h-320v-640h448v-192h-704z" />
    <glyph glyph-name="uni0205" unicode="&#x205;" horiz-adv-x="933" 
d="M561 1420l-166 384h206l88 -384h-128zM267 1420l-256 384h256l128 -384h-128zM479 -18q-93 0 -161.5 32t-109 83.5t-65.5 132t-34.5 161t-11.5 187.5q-3 84 0 168q3 100 13.5 177.5t36.5 150.5t67.5 120t109 75.5t157.5 28.5q82 0 144.5 -21.5t104 -65t69 -96.5
t41.5 -128.5t19.5 -148.5t5.5 -168v-30h-512v-64v-41q-2 -37 -0.5 -76.5t3.5 -77.5t11 -72.5t22 -60.5t36.5 -41t55.5 -15q40 0 66 15.5t38.5 46.5t17.5 62t6 78v54h254v-51q-9 -205 -101 -310t-283 -105zM353 768h254v77q-1 51 -6 89t-17.5 76t-38.5 58t-64 20
q-39 0 -65.5 -21t-39 -60.5t-17.5 -77.5t-6 -91v-70z" />
    <glyph glyph-name="uni0206" unicode="&#x206;" horiz-adv-x="861" 
d="M160 1912q0 200 69.5 292t250.5 92q179 0 249.5 -93t70.5 -291h-192q0 102 -24.5 147t-103.5 45t-103.5 -45.5t-24.5 -146.5h-192zM128 0v1792h704v-192h-448v-576h320v-192h-320v-640h448v-192h-704z" />
    <glyph glyph-name="uni0207" unicode="&#x207;" horiz-adv-x="910" 
d="M160 1400q0 200 69.5 292t250.5 92q179 0 249.5 -93t70.5 -291h-192q0 102 -24.5 147t-103.5 45t-103.5 -45.5t-24.5 -146.5h-192zM479 -18q-93 0 -161.5 32t-109 83.5t-65.5 132t-34.5 161t-11.5 187.5q-3 84 0 168q3 100 13.5 177.5t36.5 150.5t67.5 120t109 75.5
t157.5 28.5q82 0 144.5 -21.5t104 -65t69 -96.5t41.5 -128.5t19.5 -148.5t5.5 -168v-30h-512v-64v-41q-2 -37 -0.5 -76.5t3.5 -77.5t11 -72.5t22 -60.5t36.5 -41t55.5 -15q40 0 66 15.5t38.5 46.5t17.5 62t6 78v54h254v-51q-9 -205 -101 -310t-283 -105zM353 768h254v77
q-1 51 -6 89t-17.5 76t-38.5 58t-64 20q-39 0 -65.5 -21t-39 -60.5t-17.5 -77.5t-6 -91v-70z" />
    <glyph glyph-name="uni0208" unicode="&#x208;" horiz-adv-x="542" 
d="M351 1932l-166 384h206l88 -384h-128zM57 1932l-256 384h256l128 -384h-128zM140 0v1792h256v-1792h-256z" />
    <glyph glyph-name="uni0209" unicode="&#x209;" 
d="M339 1420l-166 384h206l88 -384h-128zM45 1420l-256 384h256l128 -384h-128zM128 0v1280h256v-1280h-256z" />
    <glyph glyph-name="uni020A" unicode="&#x20a;" horiz-adv-x="542" 
d="M-52 1912q0 200 69.5 292t250.5 92q179 0 249.5 -93t70.5 -291h-192q0 102 -24.5 147t-103.5 45t-103.5 -45.5t-24.5 -146.5h-192zM140 0v1792h256v-1792h-256z" />
    <glyph glyph-name="uni020B" unicode="&#x20b;" 
d="M-64 1400q0 200 69.5 292t250.5 92q179 0 249.5 -93t70.5 -291h-192q0 102 -24.5 147t-103.5 45t-103.5 -45.5t-24.5 -146.5h-192zM128 0v1280h256v-1280h-256z" />
    <glyph glyph-name="uni020C" unicode="&#x20c;" horiz-adv-x="1180" 
d="M673 1932l-166 384h206l88 -384h-128zM379 1932l-256 384h256l128 -384h-128zM590 -18q-135 0 -231.5 41t-153.5 120t-83 185.5t-26 247.5v650q0 141 26 246t83 182.5t153.5 116.5t231.5 39q262 0 378 -150t116 -434v-650q0 -139 -26.5 -245.5t-83.5 -186t-153.5 -121
t-230.5 -41.5zM590 192q135 0 186.5 81t51.5 239v778q0 156 -51 233t-187 77t-187 -77t-51 -233v-778q0 -158 51.5 -239t186.5 -81z" />
    <glyph glyph-name="uni020D" unicode="&#x20d;" horiz-adv-x="954" 
d="M560 1420l-166 384h206l88 -384h-128zM266 1420l-256 384h256l128 -384h-128zM477 -18q-206 0 -295 120t-89 346v384q0 226 89 346t295 120t295 -120t89 -346v-384q0 -226 -89 -346t-295 -120zM477 192q27 0 47.5 8t34 19.5t22.5 34t14 39.5t7 49t2.5 50.5t0.5 55.5v384
q0 37 -0.5 55.5t-2.5 50.5t-7 49t-14 39.5t-22.5 34t-34 19.5t-47.5 8t-47.5 -8t-34 -19.5t-22.5 -34t-14 -39.5t-7 -49t-2.5 -50.5t-0.5 -55.5v-384q0 -37 0.5 -55.5t2.5 -50.5t7 -49t14 -39.5t22.5 -34t34 -19.5t47.5 -8z" />
    <glyph glyph-name="uni020E" unicode="&#x20e;" horiz-adv-x="1180" 
d="M288 1912q0 200 69.5 292t250.5 92q179 0 249.5 -93t70.5 -291h-192q0 102 -24.5 147t-103.5 45t-103.5 -45.5t-24.5 -146.5h-192zM590 -18q-135 0 -231.5 41t-153.5 120t-83 185.5t-26 247.5v650q0 141 26 246t83 182.5t153.5 116.5t231.5 39q262 0 378 -150t116 -434
v-650q0 -139 -26.5 -245.5t-83.5 -186t-153.5 -121t-230.5 -41.5zM590 192q135 0 186.5 81t51.5 239v778q0 156 -51 233t-187 77t-187 -77t-51 -233v-778q0 -158 51.5 -239t186.5 -81z" />
    <glyph glyph-name="uni020F" unicode="&#x20f;" horiz-adv-x="954" 
d="M160 1400q0 200 69.5 292t250.5 92q179 0 249.5 -93t70.5 -291h-192q0 102 -24.5 147t-103.5 45t-103.5 -45.5t-24.5 -146.5h-192zM477 -18q-206 0 -295 120t-89 346v384q0 226 89 346t295 120t295 -120t89 -346v-384q0 -226 -89 -346t-295 -120zM477 192q27 0 47.5 8
t34 19.5t22.5 34t14 39.5t7 49t2.5 50.5t0.5 55.5v384q0 37 -0.5 55.5t-2.5 50.5t-7 49t-14 39.5t-22.5 34t-34 19.5t-47.5 8t-47.5 -8t-34 -19.5t-22.5 -34t-14 -39.5t-7 -49t-2.5 -50.5t-0.5 -55.5v-384q0 -37 0.5 -55.5t2.5 -50.5t7 -49t14 -39.5t22.5 -34t34 -19.5
t47.5 -8z" />
    <glyph glyph-name="uni0210" unicode="&#x210;" horiz-adv-x="1108" 
d="M371 1932l-166 384h206l88 -384h-128zM77 1932l-256 384h256l128 -384h-128zM384 1024h64q160 0 240 67.5t80 220.5t-80 220.5t-240 67.5h-64v-576zM128 0v1792h320q286 0 431 -111t145 -369q0 -160 -57 -268t-167 -148l288 -896h-254l-258 832h-192v-832h-256z" />
    <glyph glyph-name="uni0211" unicode="&#x211;" horiz-adv-x="693" 
d="M488 1420l-166 384h206l88 -384h-128zM194 1420l-256 384h256l128 -384h-128zM117 0v1280h256v-171q39 76 113.5 132.5t165.5 56.5q3 0 41 -4v-283q-71 28 -142 28q-80 0 -129 -48t-49 -127v-864h-256z" />
    <glyph glyph-name="uni0212" unicode="&#x212;" horiz-adv-x="1108" 
d="M384 1024h64q160 0 240 67.5t80 220.5t-80 220.5t-240 67.5h-64v-576zM128 0v1792h320q286 0 431 -111t145 -369q0 -160 -57 -268t-167 -148l288 -896h-254l-258 832h-192v-832h-256zM288 1912q0 200 69.5 292t250.5 92q179 0 249.5 -93t70.5 -291h-192q0 102 -24.5 147
t-103.5 45t-103.5 -45.5t-24.5 -146.5h-192z" />
    <glyph glyph-name="uni0213" unicode="&#x213;" horiz-adv-x="680" 
d="M117 0v1280h256v-171q39 76 113.5 132.5t165.5 56.5q3 0 41 -4v-283q-71 28 -142 28q-80 0 -129 -48t-49 -127v-864h-256zM85 1400q0 200 69.5 292t250.5 92q179 0 249.5 -93t70.5 -291h-192q0 102 -24.5 147t-103.5 45t-103.5 -45.5t-24.5 -146.5h-192z" />
    <glyph glyph-name="uni0214" unicode="&#x214;" horiz-adv-x="1252" 
d="M709 1932l-166 384h206l88 -384h-128zM415 1932l-256 384h256l128 -384h-128zM626 -19q-117 0 -206 31t-146.5 86.5t-93.5 139.5t-51 181.5t-15 220.5v1152h256v-1152q0 -83 3.5 -139t18.5 -119.5t41.5 -101.5t75 -63t117.5 -25t117.5 25t75 63t41.5 101.5t18.5 119.5
t3.5 139v1152h256v-1152q0 -123 -15 -220.5t-51 -181.5t-93.5 -139.5t-146.5 -86.5t-206 -31z" />
    <glyph glyph-name="uni0215" unicode="&#x215;" horiz-adv-x="987" 
d="M581 1420l-166 384h206l88 -384h-128zM287 1420l-256 384h256l128 -384h-128zM300 -18q-84 0 -135 59.5t-51 147.5v1091h256v-1013q0 -40 24.5 -65t63.5 -25q21 0 41 5t39.5 17.5t30.5 20t31.5 25.5t25.5 22v1013h256v-1280h-256v138q-38 -33 -55.5 -48t-53.5 -40.5
t-63.5 -37t-68.5 -21t-85 -9.5z" />
    <glyph glyph-name="uni0216" unicode="&#x216;" horiz-adv-x="1252" 
d="M626 -19q-117 0 -206 31t-146.5 86.5t-93.5 139.5t-51 181.5t-15 220.5v1152h256v-1152q0 -83 3.5 -139t18.5 -119.5t41.5 -101.5t75 -63t117.5 -25t117.5 25t75 63t41.5 101.5t18.5 119.5t3.5 139v1152h256v-1152q0 -123 -15 -220.5t-51 -181.5t-93.5 -139.5
t-146.5 -86.5t-206 -31zM306 1912q0 200 69.5 292t250.5 92q179 0 249.5 -93t70.5 -291h-192q0 102 -24.5 147t-103.5 45t-103.5 -45.5t-24.5 -146.5h-192z" />
    <glyph glyph-name="uni0217" unicode="&#x217;" horiz-adv-x="987" 
d="M300 -18q-84 0 -135 59.5t-51 147.5v1091h256v-1013q0 -40 24.5 -65t63.5 -25q21 0 41 5t39.5 17.5t30.5 20t31.5 25.5t25.5 22v1013h256v-1280h-256v138q-38 -33 -55.5 -48t-53.5 -40.5t-63.5 -37t-68.5 -21t-85 -9.5zM178 1400q0 200 69.5 292t250.5 92
q179 0 249.5 -93t70.5 -291h-192q0 102 -24.5 147t-103.5 45t-103.5 -45.5t-24.5 -146.5h-192z" />
    <glyph glyph-name="uni0218" unicode="&#x218;" horiz-adv-x="1102" 
d="M531 -652l-64 128q69 0 98.5 30t29.5 98h-128v256h256q0 -145 -3 -242q-2 -54 -6 -91t-16 -73.5t-32 -58t-53.5 -34.5t-81.5 -13zM595 -18q-242 0 -369.5 142t-142.5 388l256 64q19 -384 256 -384q192 0 192 192q0 57 -15.5 105.5t-47.5 89t-58 65t-71 60.5l-320 256
q-88 69 -140.5 175.5t-52.5 242.5q0 198 123 315t326 117q218 0 346.5 -106.5t158.5 -301.5q3 -21 7 -58l-256 -64q-1 17 -5 51q-17 122 -76.5 195.5t-174.5 73.5q-92 0 -142 -51.5t-50 -143.5q0 -151 128 -253l320 -256q256 -207 256 -495q0 -197 -121.5 -308t-326.5 -111z
" />
    <glyph glyph-name="uni0219" unicode="&#x219;" horiz-adv-x="876" 
d="M389 -652l-64 128q69 0 98.5 30t29.5 98h-128v256h256q0 -145 -3 -242q-2 -54 -6 -91t-16 -73.5t-32 -58t-53.5 -34.5t-81.5 -13zM453 -18q-158 0 -253.5 94t-130.5 244l192 64q69 -192 192 -192q61 0 94.5 33.5t33.5 94.5q0 89 -64 148l-256 192q-43 29 -72 54.5
t-59 62.5t-45.5 83t-15.5 100q0 164 104.5 251t279.5 87q83 0 150 -26.5t112.5 -74.5t75 -106.5t46.5 -130.5l-192 -64q-14 38 -28 65.5t-37.5 59.5t-55.5 49.5t-71 17.5q-61 0 -94.5 -33.5t-33.5 -94.5q0 -60 64 -108l256 -192q43 -34 73.5 -65.5t59.5 -73t44 -92.5
t15 -109q0 -164 -104.5 -251t-279.5 -87z" />
    <glyph glyph-name="uni021A" unicode="&#x21a;" horiz-adv-x="894" 
d="M383 -634l-64 128q69 0 98.5 30t29.5 98h-128v256h256q0 -145 -3 -242q-2 -54 -6 -91t-16 -73.5t-32 -58t-53.5 -34.5t-81.5 -13zM319 0v1564h-320v228h896v-228h-320v-1564h-256z" />
    <glyph glyph-name="uni021B" unicode="&#x21b;" horiz-adv-x="700" 
d="M408 -652l-64 128q69 0 98.5 30t29.5 98h-128v256h256q0 -145 -3 -242q-2 -54 -6 -91t-16 -73.5t-32 -58t-53.5 -34.5t-81.5 -13zM472 -18q-151 0 -219.5 77t-70.5 233v796h-128v192h128v448h256v-448h192v-192h-192v-747q0 -77 21 -113t85 -36q28 0 86 10v-208
q-96 -12 -158 -12z" />
    <glyph glyph-name="uni0237" unicode="&#x237;" horiz-adv-x="576" 
d="M128 -320q-84 0 -128 17v182q35 -7 64 -7q128 0 128 149v1259h256v-1287q0 -148 -85.5 -230.5t-234.5 -82.5z" />
    <glyph glyph-name="circumflex" unicode="&#x2c6;" horiz-adv-x="768" 
d="M64 1408l192 384h256l192 -384h-192l-128 256l-128 -256h-192z" />
    <glyph glyph-name="caron" unicode="&#x2c7;" horiz-adv-x="768" 
d="M256 1408l-192 384h192l128 -256l128 256h192l-192 -384h-256z" />
    <glyph glyph-name="breve" unicode="&#x2d8;" horiz-adv-x="768" 
d="M384 1408q-179 0 -249.5 93t-70.5 291h192q0 -102 24.5 -147t103.5 -45t103.5 45.5t24.5 146.5h192q0 -200 -69.5 -292t-250.5 -92z" />
    <glyph glyph-name="dotaccent" unicode="&#x2d9;" horiz-adv-x="384" 
d="M64 1446v256h256v-256h-256z" />
    <glyph glyph-name="ring" unicode="&#x2da;" horiz-adv-x="640" 
d="M320 1408q-117 0 -186.5 70t-69.5 186t69.5 186t186.5 70t186.5 -70t69.5 -186t-69.5 -186t-186.5 -70zM320 1536q60 0 94 34.5t34 93.5t-34 93.5t-94 34.5t-94 -34t-34 -94t34 -94t94 -34z" />
    <glyph glyph-name="ogonek" unicode="&#x2db;" horiz-adv-x="537" 
d="M357 -513q-47 0 -76.5 0.5t-69 2.5t-64 5.5t-54.5 10.5t-48.5 16.5t-37.5 24t-29.5 33t-17 43.5t-6.5 56q0 108 81 205.5t175 124.5h128q-6 -8 -53 -65t-69 -88t-46 -82t-24 -91q0 -74 144 -74q19 0 58.5 3t53.5 3v-128h-45z" />
    <glyph glyph-name="tilde" unicode="&#x2dc;" horiz-adv-x="960" 
d="M613 1452q-48 0 -98.5 22t-97.5 43.5t-88 21.5q-48 0 -48 -67h-154q0 116 57.5 194.5t162.5 78.5q58 0 145 -43t136 -43q51 0 51 69h154q0 -117 -57.5 -196.5t-162.5 -79.5z" />
    <glyph glyph-name="hungarumlaut" unicode="&#x2dd;" horiz-adv-x="640" 
d="M512 1408l128 384h256l-256 -384h-128zM218 1408l88 384h206l-166 -384h-128z" />
    <glyph glyph-name="uni030F" unicode="&#x30f;" horiz-adv-x="640" 
d="M558 1408l-166 384h206l88 -384h-128zM264 1408l-256 384h256l128 -384h-128z" />
    <glyph glyph-name="uni0311" unicode="&#x311;" horiz-adv-x="768" 
d="M64 1408q0 200 69.5 292t250.5 92q179 0 249.5 -93t70.5 -291h-192q0 102 -24.5 147t-103.5 45t-103.5 -45.5t-24.5 -146.5h-192z" />
    <glyph glyph-name="uni0326" unicode="&#x326;" horiz-adv-x="330" 
d="M101 -591l-64 128q69 0 98.5 30t29.5 98h-128v256h256q0 -145 -3 -242q-2 -54 -6 -91t-16 -73.5t-32 -58t-53.5 -34.5t-81.5 -13z" />
    <glyph glyph-name="uni1E02" unicode="&#x1e02;" horiz-adv-x="1146" 
d="M480 1932v256h256v-256h-256zM384 1024h128q320 0 320 320q0 53 -13 93.5t-31 67.5t-54.5 45.5t-66.5 28.5t-85.5 14.5t-92.5 5.5t-105 1v-576zM384 192h128q166 0 243 76.5t77 243.5t-77 243.5t-243 76.5h-128v-640zM128 0v1792h384q124 0 222 -26t171.5 -79t113 -140
t39.5 -203q0 -168 -71 -255.5t-219 -128.5q160 -53 240 -155.5t80 -292.5q0 -237 -137.5 -374.5t-374.5 -137.5h-448z" />
    <glyph glyph-name="uni1E03" unicode="&#x1e03;" horiz-adv-x="1042" 
d="M405 1913v256h256v-256h-256zM565 192q41 0 68.5 30t40 85.5t17 110.5t4.5 128q0 54 -0.5 143t-0.5 134t-2 78.5t-10 70.5t-21.5 61t-37.5 39.5t-58 15.5q-106 0 -192 -51v-805q99 -40 192 -40zM629 -18q-78 0 -138 37t-118 97v-116h-256v1791h256v-638q36 38 54 55
t52.5 43t71.5 36.5t82 10.5q65 0 116 -23.5t84 -56.5t56 -95t34.5 -112t17.5 -135t7 -137.5t1 -144.5v-17q0 -84 -8.5 -162t-31 -159t-57 -140t-92 -96.5t-131.5 -37.5z" />
    <glyph glyph-name="uni1E0A" unicode="&#x1e0a;" horiz-adv-x="1133" 
d="M454 1932v256h256v-256h-256zM128 0v1792h397q281 0 396.5 -115t115.5 -397v-704q0 -295 -117.5 -435.5t-396.5 -140.5h-395zM384 192h141q63 0 108 11.5t73 42t44 58t22.5 85.5t7.5 95.5t1 116.5v39v576q0 49 -0.5 78t-3 68.5t-7.5 62.5t-14 51.5t-22.5 44.5t-33 33.5
t-45 26t-59.5 14t-76 5.5h-136v-1408z" />
    <glyph glyph-name="uni1E0B" unicode="&#x1e0b;" horiz-adv-x="1050" 
d="M381 1913v256h256v-256h-256zM480 192q93 0 192 40v805q-86 51 -192 51q-38 0 -64 -18.5t-39 -54t-19 -73t-7 -88.5q-4 -224 0 -355q1 -64 7 -114t19.5 -96.5t39.5 -71.5t63 -25zM416 -18q-85 0 -148.5 48t-98 130t-51.5 170.5t-21 190.5q-2 47 0 230q2 66 6 119.5
t13.5 111.5t24 102.5t38.5 86t56 68.5t77 43t100 16q43 0 80.5 -11.5t71.5 -36t54.5 -43.5t53.5 -54v638h256v-1791h-256v116q-58 -60 -118 -97t-138 -37z" />
    <glyph glyph-name="uni1E1E" unicode="&#x1e1e;" horiz-adv-x="821" 
d="M352 1932v256h256v-256h-256zM128 0v1792h704v-192h-448v-576h320v-192h-320v-832h-256z" />
    <glyph glyph-name="uni1E1F" unicode="&#x1e1f;" horiz-adv-x="634" 
d="M216 1850v256h256v-256h-256zM184 0v1088h-128v192h128v49q0 81 6 137.5t24.5 109t50 84t84 50t125.5 18.5q62 0 158 -12v-190q-10 1 -41 5.5t-45 4.5q-64 0 -85 -40.5t-21 -119.5v-96h192v-192h-192v-1088h-256z" />
    <glyph glyph-name="uni1E40" unicode="&#x1e40;" horiz-adv-x="1472" 
d="M608 1932v256h256v-256h-256zM128 0v1792h354l254 -1372l254 1372h354v-1792h-256v1414l-256 -1414h-192l-256 1414v-1414h-256z" />
    <glyph glyph-name="uni1E41" unicode="&#x1e41;" horiz-adv-x="1504" 
d="M629 1420v256h256v-256h-256zM117 0v1280h256v-145q137 163 319 163q92 0 135 -40.5t58 -128.5q63 83 136 126t184 43q32 0 57.5 -6.5t44.5 -15.5t33.5 -27.5t24 -34t16 -44.5t9.5 -48t5 -56t2 -58v-63v-14v-931h-256v934v16q0 33 -1 51t-6.5 41.5t-19.5 34.5t-37 11
q-39 0 -78 -15.5t-60.5 -30t-53.5 -40.5v-1002h-256v929v18v42t-3.5 36.5t-9.5 33.5t-19 20t-32 9q-94 0 -192 -81v-1007h-256z" />
    <glyph glyph-name="uni1E56" unicode="&#x1e56;" horiz-adv-x="1041" 
d="M448 1932v256h256v-256h-256zM384 1024h64q87 0 142.5 10t98 37.5t61 78.5t18.5 130q0 96 -14 155.5t-51.5 97.5t-97 52.5t-157.5 14.5h-64v-576zM128 0v1792h448q448 0 448 -512q0 -219 -115.5 -333.5t-332.5 -114.5h-192v-832h-256z" />
    <glyph glyph-name="uni1E57" unicode="&#x1e57;" horiz-adv-x="1042" 
d="M405 1420v256h256v-256h-256zM565 192q41 0 68.5 30t40 85.5t17 110t4.5 127.5l-2 169q0 45 -0.5 72.5t-3.5 73t-8.5 74.5t-16.5 64t-26.5 55t-40 34t-55.5 14q-15 0 -28.5 -2t-28 -6.5t-24 -8t-24.5 -11.5t-21.5 -11.5t-22.5 -13.5t-20 -12v-792q88 -52 192 -52z
M117 -384v1664h256v-128q31 33 43 45t41.5 37t51 35t55 19.5t69.5 9.5q65 0 116 -23.5t84 -56.5t56 -94.5t34.5 -111.5t17.5 -135t7 -137.5t1 -144.5v-19q0 -84 -8.5 -162t-31 -158.5t-57 -139.5t-92 -96.5t-131.5 -37.5q-130 0 -256 133v-499h-256z" />
    <glyph glyph-name="uni1E60" unicode="&#x1e60;" horiz-adv-x="1102" 
d="M434 1932v256h256v-256h-256zM595 -18q-242 0 -369.5 142t-142.5 388l256 64q19 -384 256 -384q192 0 192 192q0 57 -15.5 105.5t-47.5 89t-58 65t-71 60.5l-320 256q-88 69 -140.5 175.5t-52.5 242.5q0 198 123 315t326 117q218 0 346.5 -106.5t158.5 -301.5
q3 -21 7 -58l-256 -64q-1 17 -5 51q-17 122 -76.5 195.5t-174.5 73.5q-92 0 -142 -51.5t-50 -143.5q0 -151 128 -253l320 -256q256 -207 256 -495q0 -197 -121.5 -308t-326.5 -111z" />
    <glyph glyph-name="uni1E61" unicode="&#x1e61;" horiz-adv-x="876" 
d="M325 1420v256h256v-256h-256zM453 -18q-158 0 -253.5 94t-130.5 244l192 64q69 -192 192 -192q61 0 94.5 33.5t33.5 94.5q0 89 -64 148l-256 192q-43 29 -72 54.5t-59 62.5t-45.5 83t-15.5 100q0 164 104.5 251t279.5 87q83 0 150 -26.5t112.5 -74.5t75 -106.5
t46.5 -130.5l-192 -64q-14 38 -28 65.5t-37.5 59.5t-55.5 49.5t-71 17.5q-61 0 -94.5 -33.5t-33.5 -94.5q0 -60 64 -108l256 -192q43 -34 73.5 -65.5t59.5 -73t44 -92.5t15 -109q0 -164 -104.5 -251t-279.5 -87z" />
    <glyph glyph-name="uni1E6A" unicode="&#x1e6a;" horiz-adv-x="894" 
d="M319 1932v256h256v-256h-256zM319 0v1564h-320v228h896v-228h-320v-1564h-256z" />
    <glyph glyph-name="uni1E6B" unicode="&#x1e6b;" horiz-adv-x="700" 
d="M214 1850v256h256v-256h-256zM472 -18q-151 0 -219.5 77t-70.5 233v796h-128v192h128v448h256v-448h192v-192h-192v-747q0 -77 21 -113t85 -36q28 0 86 10v-208q-96 -12 -158 -12z" />
    <glyph glyph-name="Wgrave" unicode="&#x1e80;" horiz-adv-x="1558" 
d="M331 0l-320 1792h256l128 -832l65 -512l63 512l128 832h256l128 -832l63 -512l65 512l128 832h256l-320 -1792h-256l-128 832l-64 512l-64 -512l-128 -832h-256zM715 1912l-256 384h256l128 -384h-128z" />
    <glyph glyph-name="wgrave" unicode="&#x1e81;" horiz-adv-x="1269" 
d="M257 0l-237 1280h227l142 -972l134 972h234l136 -962l140 962h228l-248 -1280h-236l-136 882l-138 -882h-246zM570 1400l-256 384h256l128 -384h-128z" />
    <glyph glyph-name="Wacute" unicode="&#x1e82;" horiz-adv-x="1558" 
d="M331 0l-320 1792h256l128 -832l65 -512l63 512l128 832h256l128 -832l63 -512l65 512l128 832h256l-320 -1792h-256l-128 832l-64 512l-64 -512l-128 -832h-256zM715 1912l128 384h256l-256 -384h-128z" />
    <glyph glyph-name="wacute" unicode="&#x1e83;" horiz-adv-x="1269" 
d="M257 0l-237 1280h227l142 -972l134 972h234l136 -962l140 962h228l-248 -1280h-236l-136 882l-138 -882h-246zM570 1400l128 384h256l-256 -384h-128z" />
    <glyph glyph-name="Wdieresis" unicode="&#x1e84;" horiz-adv-x="1558" 
d="M331 0l-320 1792h256l128 -832l65 -512l63 512l128 832h256l128 -832l63 -512l65 512l128 832h256l-320 -1792h-256l-128 832l-64 512l-64 -512l-128 -832h-256zM843 1912v256h256v-256h-256zM459 1912v256h256v-256h-256z" />
    <glyph glyph-name="wdieresis" unicode="&#x1e85;" horiz-adv-x="1269" 
d="M257 0l-237 1280h227l142 -972l134 972h234l136 -962l140 962h228l-248 -1280h-236l-136 882l-138 -882h-246zM698 1400v256h256v-256h-256zM314 1400v256h256v-256h-256z" />
    <glyph glyph-name="Ygrave" unicode="&#x1ef2;" horiz-adv-x="1018" 
d="M381 0v576l-384 1216h256l256 -896l256 896h256l-384 -1216v-576h-256zM445 1912l-256 384h256l128 -384h-128z" />
    <glyph glyph-name="ygrave" unicode="&#x1ef3;" horiz-adv-x="842" 
d="M84 -320v192q76 0 121.5 10t68.5 35.5t29.5 56t6.5 84.5l-290 1222h256q149 -823 161 -896q21 135 47.5 284.5t60 330t51.5 281.5h256l-320 -1344q-32 -139 -135 -197.5t-287 -58.5h-26zM362 1400l-256 384h256l128 -384h-128z" />
    <glyph glyph-name="endash" unicode="&#x2013;" horiz-adv-x="384" 
d="M0 448v192h384v-192h-384z" />
    <glyph glyph-name="emdash" unicode="&#x2014;" horiz-adv-x="384" 
d="M0 448v192h384v-192h-384z" />
    <glyph glyph-name="quoteleft" unicode="&#x2018;" 
d="M128 1280q0 32 -1.5 95.5t-1.5 93.5q0 59 3.5 101.5t15.5 87t33 72t57 45t86 17.5l64 -128q-69 0 -98.5 -30t-29.5 -98h128v-256h-256z" />
    <glyph glyph-name="quoteright" unicode="&#x2019;" 
d="M192 1280l-64 128q69 0 98.5 30t29.5 98h-128v256h256q0 -144 -3 -242q-2 -54 -6 -91t-16 -73.5t-32 -58t-53.5 -34.5t-81.5 -13z" />
    <glyph glyph-name="quotesinglbase" unicode="&#x201a;" horiz-adv-x="384" 
d="M126 -321l-64 384h256l-64 -384h-128z" />
    <glyph glyph-name="quotedblleft" unicode="&#x201c;" horiz-adv-x="896" 
d="M512 1280q0 32 -1.5 95.5t-1.5 93.5q0 59 3.5 101.5t15.5 87t33 72t57 45t86 17.5l64 -128q-69 0 -98.5 -30t-29.5 -98h128v-256h-256zM128 1280q0 32 -1.5 95.5t-1.5 93.5q0 59 3.5 101.5t15.5 87t33 72t57 45t86 17.5l64 -128q-69 0 -98.5 -30t-29.5 -98h128v-256h-256
z" />
    <glyph glyph-name="quotedblright" unicode="&#x201d;" horiz-adv-x="896" 
d="M576 1280l-64 128q69 0 98.5 30t29.5 98h-128v256h256q0 -144 -3 -242q-2 -54 -6 -91t-16 -73.5t-32 -58t-53.5 -34.5t-81.5 -13zM192 1280l-64 128q69 0 98.5 30t29.5 98h-128v256h256q0 -144 -3 -242q-2 -54 -6 -91t-16 -73.5t-32 -58t-53.5 -34.5t-81.5 -13z" />
    <glyph glyph-name="quotedblbase" unicode="&#x201e;" horiz-adv-x="704" 
d="M449 -320l-64 384h256l-64 -384h-128zM126 -320l-64 384h256l-64 -384h-128z" />
    <glyph glyph-name="dagger" unicode="&#x2020;" horiz-adv-x="850" 
d="M300 0v990h-200v200h200v346h250v-346h201v-200h-201v-990h-250z" />
    <glyph glyph-name="daggerdbl" unicode="&#x2021;" horiz-adv-x="850" 
d="M300 0v500h-200v200h200v350h-200v200h200v286h250v-286h201v-200h-201v-350h201v-200h-201v-500h-250z" />
    <glyph glyph-name="bullet" unicode="&#x2022;" horiz-adv-x="960" 
d="M486 595q-123 0 -194 83.5t-71 212.5q0 130 70.5 213t194.5 83q123 0 194 -83.5t71 -212.5q0 -130 -70.5 -213t-194.5 -83z" />
    <glyph glyph-name="guilsinglleft" unicode="&#x2039;" horiz-adv-x="582" 
d="M512 64l-448 512v128l448 512v-320l-256 -255l256 -257v-320z" />
    <glyph glyph-name="guilsinglright" unicode="&#x203a;" horiz-adv-x="577" 
d="M64 64v320l256 257l-256 255v320l448 -512v-128z" />
    <glyph glyph-name="fraction" unicode="&#x2044;" horiz-adv-x="537" 
d="M18 383l283 1518h219l-282 -1518h-220z" />
    <glyph glyph-name="uni2074" unicode="&#x2074;" horiz-adv-x="768" 
d="M256 960h128v256zM384 576v256h-320v128l340 576h172v-576h128v-128h-128v-256h-192z" />
    <glyph glyph-name="Euro" unicode="&#x20ac;" horiz-adv-x="971" 
d="M494 -27q-95 0 -168 26t-120 71.5t-77.5 114t-44 146.5t-16.5 177h-68v166h68v153h-68v166h70q3 99 16 177t42.5 148.5t75.5 117t117.5 73.5t165.5 27q114 0 195.5 -37t128.5 -107.5t69 -162t23 -211.5h-250q0 291 -161 291q-25 0 -45.5 -4t-36 -13.5t-28 -19t-21.5 -27
t-15.5 -31t-10.5 -38.5t-6.5 -41t-4 -45.5t-2 -46.5t-0.5 -50h196v-166h-196v-153h196v-166h-194q2 -48 4.5 -78t9 -69.5t18 -63.5t30 -47.5t47 -34t66.5 -10.5q43 0 74 21t47.5 52t26.5 79t12.5 89t2.5 95h247q0 -102 -11.5 -184t-41 -155t-76 -122.5t-119 -78
t-167.5 -28.5z" />
    <glyph glyph-name="trademark" unicode="&#x2122;" horiz-adv-x="2204" 
d="M315 686v678h-163v154h497v-154h-164v-678h-170zM741 686v832h242l104 -453l107 453h242v-832h-160v555l-137 -555h-103l-137 555v-555h-158z" />
    <glyph glyph-name="product" unicode="&#x220f;" horiz-adv-x="1216" 
d="M128 0v1792h960v-1792h-256v1600h-448v-1600h-256z" />
    <glyph glyph-name="minus" unicode="&#x2212;" horiz-adv-x="768" 
d="M0 548v151h750v-151h-750z" />
    <glyph glyph-name="uni2215" unicode="&#x2215;" horiz-adv-x="537" 
d="M18 383l283 1518h219l-282 -1518h-220z" />
    <glyph glyph-name="integral" unicode="&#x222b;" horiz-adv-x="704" 
d="M158 -256q-62 0 -158 12v190q60 -10 86 -10q64 0 85 40.5t21 119.5v1248q0 78 6.5 133.5t25 105.5t50.5 80t83.5 47.5t124.5 17.5q62 0 158 -12v-190q-10 1 -41 5.5t-45 4.5q-64 0 -85 -40.5t-21 -119.5v-1248q0 -79 -6.5 -134.5t-24.5 -105.5t-50 -80t-84 -47t-125 -17z
" />
    <glyph glyph-name="uniFB01" unicode="&#xfb01;" horiz-adv-x="1186" 
d="M802 1472v256h256v-256h-256zM174 0v1088h-128v192h128v49q0 81 6 137.5t24.5 109t50 84t84 50t125.5 18.5q62 0 158 -12v-190q-10 1 -41 5.5t-45 4.5q-64 0 -85 -40.5t-21 -119.5v-96h628v-1280h-256v1088h-372v-1088h-256z" />
    <glyph glyph-name="uniFB02" unicode="&#xfb02;" horiz-adv-x="1161" 
d="M174 0v1088h-128v192h128v49q0 81 6 137.5t24.5 109t50 84t84 50t125.5 18.5q109 0 206 -6.5t161.5 -14t210.5 -26.5v-1681h-256v1522q-156 14 -250 14q-64 0 -85 -40.5t-21 -119.5v-96h192v-192h-192v-1088h-256z" />
    <glyph glyph-name="glyph414" horiz-adv-x="1220" 
d="M174 0v1088h-128v192h128v49q0 81 6 137.5t24.5 109t50 84t84 50t125.5 18.5q62 0 158 -12v-190q-10 1 -41 5.5t-45 4.5q-64 0 -85 -40.5t-21 -119.5v-96h344v49q0 81 6 137.5t24.5 109t50 84t84 50t125.5 18.5q62 0 158 -12v-190q-10 1 -41 5.5t-45 4.5q-64 0 -85 -40.5
t-21 -119.5v-96h192v-192h-192v-1088h-256v1088h-344v-1088h-256z" />
    <glyph glyph-name="glyph415" horiz-adv-x="1362" 
d="M221 277l168 542l-459 338l572 11l178 542l188 -542h572l-461 -349l170 -542l-469 327z" />
    <glyph glyph-name="glyph416" horiz-adv-x="1316" 
d="M1130 -18q-151 0 -219.5 77t-70.5 233v796h-128v192h128v448h256v-448h192v-192h-192v-747q0 -77 21 -113t85 -36q28 0 86 10v-208q-96 -12 -158 -12zM472 -18q-151 0 -219.5 77t-70.5 233v796h-128v192h128v448h256v-448h192v-192h-192v-747q0 -77 21 -113t85 -36
q28 0 86 10v-208q-96 -12 -158 -12z" />
    <glyph glyph-name="glyph417" horiz-adv-x="1718" 
d="M1334 1472v256h256v-256h-256zM174 0v1088h-128v192h128v49q0 81 6 137.5t24.5 109t50 84t84 50t125.5 18.5q62 0 158 -12v-190q-10 1 -41 5.5t-45 4.5q-64 0 -85 -40.5t-21 -119.5v-96h306v49q0 81 6 137.5t24.5 109t50 84t84 50t125.5 18.5q62 0 158 -12v-190
q-10 1 -41 5.5t-45 4.5q-64 0 -85 -40.5t-21 -119.5v-96h598v-1280h-256v1088h-342v-1088h-256v1088h-306v-1088h-256z" />
    <glyph glyph-name="glyph418" horiz-adv-x="1677" 
d="M174 0v1088h-128v192h128v49q0 81 6 137.5t24.5 109t50 84t84 50t125.5 18.5q62 0 158 -12v-190q-10 1 -41 5.5t-45 4.5q-64 0 -85 -40.5t-21 -119.5v-96h282v49q0 81 6 137.5t24.5 109t50 84t84 50t125.5 18.5q105 0 198 -6t155.5 -14t202.5 -27v-1681h-256v1522
q-142 14 -228 14q-64 0 -85 -40.5t-21 -119.5v-96h192v-192h-192v-1088h-256v1088h-282v-1088h-256z" />
    </font>
</defs>
</svg>
