<?xml version="1.0" standalone="no"?>
<!DOCTYPE svg PUBLIC "-//W3C//DTD SVG 1.1//EN" "http://www.w3.org/Graphics/SVG/1.1/DTD/svg11.dtd" >
<svg xmlns="http://www.w3.org/2000/svg" xmlns:xlink="http://www.w3.org/1999/xlink" version="1.1">
<metadata>
Created by FontForge 20170731 at Wed Nov 30 09:13:59 2011
 By Aleksey,,,
Font data copyright Google 2011
</metadata>
<defs>
<font id="Roboto-BlackItalic" horiz-adv-x="1151" >
  <font-face 
    font-family="Roboto Bk"
    font-weight="400"
    font-style="italic"
    font-stretch="normal"
    units-per-em="2048"
    panose-1="0 0 0 0 0 0 0 0 0 0"
    ascent="1536"
    descent="-512"
    x-height="1082"
    cap-height="1456"
    bbox="-922 -555 2559 2179"
    underline-thickness="100"
    underline-position="-300"
    unicode-range="U+0009-FFFD"
  />
<missing-glyph horiz-adv-x="748" 
d="M68 0v1365h544v-1365h-544zM136 68h408v1229h-408v-1229z" />
    <glyph glyph-name="fi" unicode="fi" horiz-adv-x="1302" 
d="M93 0l127 848h-157l35 234h157l8 52q33 224 181.5 335.5t396.5 111.5q81 0 164.5 -15.5t178.5 -42.5l-85 -266q-83 22 -139 33t-141 11q-89 0 -148 -44t-70 -123l-8 -52h212l-35 -234h-212l-127 -848h-338zM1111 0h-339l162 1082h339z" />
    <glyph glyph-name=".notdef" horiz-adv-x="748" 
d="M68 0v1365h544v-1365h-544zM136 68h408v1229h-408v-1229z" />
    <glyph glyph-name=".null" horiz-adv-x="0" 
 />
    <glyph glyph-name="nonmarkingreturn" unicode="&#xd;" horiz-adv-x="510" 
 />
    <glyph glyph-name="uni0002" horiz-adv-x="0" 
 />
    <glyph glyph-name="uni0002" horiz-adv-x="0" 
 />
    <glyph glyph-name="uni0009" unicode="&#x9;" horiz-adv-x="0" 
 />
    <glyph glyph-name="space" unicode=" " horiz-adv-x="510" 
 />
    <glyph glyph-name="exclam" unicode="!" horiz-adv-x="565" 
d="M451 516h-339l141 940h339zM374 0h-339l42 283h339z" />
    <glyph glyph-name="quotedbl" unicode="&#x22;" horiz-adv-x="881" 
d="M485 1181l-137 -249h-144l33 235l41 289h246zM841 1181l-137 -249h-143l35 244l39 280h245z" />
    <glyph glyph-name="numbersign" unicode="#" horiz-adv-x="1190" 
d="M601 410h-162l-128 -410h-199l129 410h-222l27 183h252l83 264h-220l27 183h251l131 416h198l-131 -416h162l131 416h199l-131 -416h231l-27 -183h-262l-83 -264h229l-27 -183h-259l-129 -410h-199zM497 593h161l83 264h-161z" />
    <glyph glyph-name="dollar" unicode="$" horiz-adv-x="1227" 
d="M771 386q11 82 -21 122t-135 86q-228 84 -325.5 184t-69.5 290q24 178 154 284t332 122l30 211h158l-30 -215q178 -26 271.5 -143t69.5 -301h-337q14 104 -22.5 150t-116.5 46q-78 0 -120.5 -43.5t-51.5 -112.5q-10 -70 20.5 -107.5t135.5 -91.5q221 -74 321 -182
t74 -297q-26 -183 -150.5 -285.5t-321.5 -119.5l-28 -201h-159l28 201q-194 18 -310.5 130.5t-81.5 328.5l2 5h330q-17 -120 31 -166.5t144 -46.5q79 0 124 42t55 110z" />
    <glyph glyph-name="percent" unicode="%" horiz-adv-x="1521" 
d="M187 1176q20 134 116.5 217.5t252.5 83.5q150 0 224 -86.5t55 -214.5l-11 -77q-21 -134 -116 -216.5t-252 -82.5q-150 0 -225 86t-55 213zM392 1099q-8 -51 15 -84t76 -33q49 0 82.5 34t41.5 83l11 77q7 52 -15 85.5t-75 33.5q-49 0 -83.5 -35t-41.5 -84zM756 357
q19 133 116.5 216.5t253.5 83.5q150 0 223.5 -86t55.5 -214l-12 -77q-21 -135 -115.5 -217.5t-251.5 -82.5q-150 0 -226 86t-56 214zM961 280q-8 -49 19 -83.5t73 -34.5q60 0 88 32t36 86l12 77q7 51 -16.5 84.5t-74.5 33.5q-50 0 -84 -35t-41 -83zM398 109l-145 79
l882 1138l145 -79z" />
    <glyph glyph-name="ampersand" unicode="&#x26;" horiz-adv-x="1380" 
d="M344 776q-48 87 -67 160t-6 148q29 196 153 294.5t318 98.5q152 0 239 -103t66 -247q-17 -112 -64 -187t-131 -135l-111 -70l193 -269q44 57 73.5 123t40.5 139h260q-23 -153 -74.5 -272.5t-139.5 -211.5l176 -244h-376l-62 84q-94 -54 -184.5 -79.5t-194.5 -25.5
q-210 0 -326 115.5t-88 296.5q17 120 84 198.5t202 175.5zM515 239q42 0 86.5 9.5t89.5 28.5l-212 291q-46 -37 -68.5 -73.5t-29.5 -80.5q-12 -80 27.5 -127.5t106.5 -47.5zM563 1088q-6 -38 5.5 -76t39.5 -83l49 29q62 36 86 70.5t30 74.5q7 48 -13 81t-69 33
q-47 0 -83.5 -38t-44.5 -91z" />
    <glyph glyph-name="quotesingle" unicode="'" horiz-adv-x="440" 
d="M453 1164l-142 -283h-189l38 270l43 305h291z" />
    <glyph glyph-name="parenleft" unicode="(" horiz-adv-x="727" 
d="M128 592q56 405 239 667t398 341l6 -1l39 -159q-141 -94 -254 -304t-159 -542l-4 -32q-49 -347 4.5 -548.5t170.5 -297.5l-84 -159h-5q-189 77 -299.5 347t-55.5 660z" />
    <glyph glyph-name="parenright" unicode=")" horiz-adv-x="726" 
d="M634 564q-55 -389 -247.5 -659.5t-412.5 -348.5l-6 1l-39 159q139 95 252.5 304.5t160.5 541.5l4 32q48 346 -5.5 548t-169.5 298l84 159h6q194 -76 311.5 -355t65.5 -652z" />
    <glyph glyph-name="asterisk" unicode="*" horiz-adv-x="843" 
d="M273 649l-213 82l82 175l232 -72l45 248h182l-23 -258l240 73l29 -177l-243 -85l101 -205l-166 -109l-122 204l-180 -195l-135 105z" />
    <glyph glyph-name="plus" unicode="+" horiz-adv-x="1094" 
d="M746 826h341l-43 -289h-342l-58 -391h-315l58 391h-341l43 289h342l57 380h315z" />
    <glyph glyph-name="comma" unicode="," horiz-adv-x="590" 
d="M386 -8l-211 -318h-233l119 327l40 263h326z" />
    <glyph glyph-name="hyphen" unicode="-" horiz-adv-x="875" 
d="M719 497h-589l39 261h589z" />
    <glyph glyph-name="period" unicode="." horiz-adv-x="619" 
d="M393 0h-337l43 284h337z" />
    <glyph glyph-name="slash" unicode="/" horiz-adv-x="811" 
d="M213 -125h-341l734 1581h341z" />
    <glyph glyph-name="zero" unicode="0" horiz-adv-x="1186" 
d="M1100 535q-41 -272 -199.5 -414t-389.5 -142q-221 0 -342.5 148.5t-82.5 407.5l58 386q40 271 198.5 413.5t391.5 142.5q220 0 341 -149t83 -407zM825 944q20 138 -14.5 205.5t-115.5 67.5q-78 0 -134.5 -71t-75.5 -202l-65 -430q-22 -141 12.5 -208t117.5 -67
q77 0 133.5 70t76.5 205z" />
    <glyph glyph-name="one" unicode="1" horiz-adv-x="1186" 
d="M759 0h-338l175 1167h-293l39 258l639 52z" />
    <glyph glyph-name="two" unicode="2" horiz-adv-x="1186" 
d="M1038 0h-1012l31 220l517 492q104 102 157 181.5t62 139.5q11 88 -20 136t-115 48q-75 0 -129.5 -65t-68.5 -164h-330l-2 6q25 210 180.5 346.5t386.5 136.5q230 0 347.5 -119t89.5 -322q-21 -144 -103 -243.5t-311 -315.5l-208 -211l3 -6h561z" />
    <glyph glyph-name="three" unicode="3" horiz-adv-x="1186" 
d="M1183 1061q-16 -104 -87.5 -186.5t-182.5 -128.5q109 -44 161 -130.5t34 -207.5q-32 -208 -199.5 -318.5t-409.5 -110.5q-199 0 -338.5 108t-103.5 311l2 6h330q-12 -74 30 -119.5t119 -45.5q88 0 155.5 51t78.5 125q16 110 -31 156.5t-150 46.5h-160l22 149l15 102h160
q88 0 146 49.5t71 135.5q10 70 -32.5 116.5t-127.5 46.5q-62 0 -113.5 -38t-60.5 -98h-327l-2 6q22 181 178.5 285.5t363.5 104.5q229 0 358.5 -109.5t100.5 -306.5z" />
    <glyph glyph-name="four" unicode="4" horiz-adv-x="1186" 
d="M990 569h147l-39 -262h-147l-46 -307h-338l46 307h-579l11 208l739 938l1 3h338zM348 574l2 -5h302l68 452l-6 2l-48 -75z" />
    <glyph glyph-name="five" unicode="5" horiz-adv-x="1186" 
d="M137 640l206 816h853l-39 -262h-579l-82 -303q45 29 111 47t142 20q204 4 293.5 -124.5t54.5 -364.5q-33 -218 -174 -354t-405 -136q-201 0 -341.5 110.5t-108.5 288.5l2 5l335 21q-13 -80 28.5 -122.5t123.5 -42.5q90 0 137.5 58t64.5 170q18 124 -14.5 191t-125.5 67
q-65 0 -112.5 -29.5t-69.5 -72.5z" />
    <glyph glyph-name="six" unicode="6" horiz-adv-x="1186" 
d="M825 1477q81 0 146.5 -15t140.5 -46l-93 -246q-67 22 -116.5 32t-115.5 10q-120 0 -211 -89.5t-116 -261.5l-2 -10q64 54 147.5 82.5t185.5 28.5q179 0 265 -137.5t54 -352.5q-34 -223 -195.5 -358t-388.5 -135q-231 0 -359.5 158.5t-87.5 428.5l44 293q44 299 237 458.5
t465 159.5zM640 704q-70 0 -124.5 -20t-90.5 -56l-9 -62q-25 -165 14.5 -246t134.5 -81q73 0 132.5 68t74.5 165q17 114 -19.5 173t-112.5 59z" />
    <glyph glyph-name="seven" unicode="7" horiz-adv-x="1186" 
d="M1210 1196q-271 -264 -390 -486.5t-163 -518.5l-29 -191h-338l29 191q45 303 184.5 539t382.5 466h-729l39 260h1053z" />
    <glyph glyph-name="eight" unicode="8" horiz-adv-x="1186" 
d="M1160 1075q-17 -110 -81.5 -192t-165.5 -129q107 -52 162 -141t39 -203q-32 -212 -192.5 -321.5t-391.5 -109.5q-227 0 -367 115t-109 316q17 121 100.5 211t213.5 139q-90 50 -134.5 131t-28.5 184q30 200 179 301t369 101q202 0 318.5 -105t88.5 -297zM778 428
q13 91 -30.5 144t-122.5 53q-83 0 -150 -55.5t-80 -141.5q-14 -90 35.5 -139.5t138.5 -49.5q76 0 136 51.5t73 137.5zM821 1057q11 79 -17 119.5t-90 40.5q-67 0 -114.5 -42t-57.5 -118q-13 -82 20.5 -127t103.5 -45q57 0 100 47t55 125z" />
    <glyph glyph-name="nine" unicode="9" horiz-adv-x="1186" 
d="M504 239q88 0 160 73t91 200l11 79q-57 -58 -126.5 -87t-143.5 -29q-191 0 -287.5 135t-63.5 357q33 224 196 367t390 143q213 0 336 -155t83 -421l-55 -366q-40 -262 -215.5 -409t-414.5 -147q-71 0 -151 17t-148 46l94 241q60 -23 116 -33.5t128 -10.5zM607 718
q56 0 105 22.5t86 61.5l24 161q19 129 -18 191.5t-113 62.5t-135.5 -75.5t-73.5 -174.5q-18 -116 13.5 -182.5t111.5 -66.5z" />
    <glyph glyph-name="colon" unicode=":" horiz-adv-x="613" 
d="M393 0h-337l43 284h337zM524 876h-337l43 284h337z" />
    <glyph glyph-name="semicolon" unicode=";" horiz-adv-x="579" 
d="M525 876h-337l43 284h337zM437 -8l-211 -318h-233l119 327l40 263h326z" />
    <glyph glyph-name="less" unicode="&#x3c;" horiz-adv-x="1044" 
d="M379 544v-6l525 -181l-46 -307l-830 360l14 98l25 168l938 360l-45 -306z" />
    <glyph glyph-name="equal" unicode="=" horiz-adv-x="1195" 
d="M1084 732h-926l39 260h926zM1018 293h-926l39 260h926z" />
    <glyph glyph-name="greater" unicode="&#x3e;" horiz-adv-x="1050" 
d="M659 540v6l-519 182l46 306l825 -360l-25 -169h-1l-14 -97l-933 -360l46 306z" />
    <glyph glyph-name="question" unicode="?" horiz-adv-x="1043" 
d="M290 416q22 139 82 209t203 161q73 42 120.5 104t60.5 143q12 86 -24.5 135t-120.5 49q-65 0 -117.5 -41.5t-66.5 -121.5h-329l-1 6q29 208 180 312.5t373 104.5q229 0 351.5 -121t92.5 -323q-20 -130 -108.5 -232t-214.5 -163q-71 -42 -101 -90.5t-42 -131.5h-338z
M565 0h-336l41 270h336z" />
    <glyph glyph-name="at" unicode="@" horiz-adv-x="1809" 
d="M1727 520q-42 -220 -189 -380.5t-391 -160.5q-79 0 -131 46t-65 129q-54 -86 -123.5 -128.5t-153.5 -42.5q-143 0 -206.5 119.5t-14.5 313.5q64 251 207 402t315 151q116 0 189.5 -27t150.5 -79l-4 -4h6l-136 -566q-18 -87 -6.5 -119.5t39.5 -32.5q107 0 193.5 108.5
t118.5 270.5q66 339 -54 528.5t-431 189.5q-291 0 -505.5 -206t-281.5 -554q-68 -343 63.5 -542t433.5 -199q80 0 175.5 19t164.5 46l13 -166q-73 -42 -180 -65.5t-206 -23.5q-388 0 -575.5 251.5t-107.5 679.5q81 429 359.5 680.5t676.5 251.5q376 0 554.5 -240.5
t101.5 -649.5zM701 416q-26 -120 -9 -181.5t77 -61.5q52 0 99.5 30t92.5 110l109 453q-21 5 -41.5 8.5t-42.5 3.5q-100 0 -170 -91.5t-115 -270.5z" />
    <glyph glyph-name="A" unicode="A" horiz-adv-x="1307" 
d="M840 283h-432l-127 -283h-356l693 1456h181v-1l1 1h181l258 -1456h-356zM524 543h277l-67 451l-6 1z" />
    <glyph glyph-name="B" unicode="B" horiz-adv-x="1306" 
d="M36 0l218 1456h477q261 0 402 -101.5t112 -298.5q-16 -107 -75 -187t-166 -120q124 -28 172.5 -115.5t32.5 -202.5q-34 -220 -190.5 -325.5t-427.5 -105.5h-555zM467 625l-54 -365h217q104 0 166.5 43.5t75.5 129.5q13 97 -26.5 143t-148.5 49h-11h-219zM501 849h133
q117 0 186 43t82 126q14 96 -37 137t-173 41h-139z" />
    <glyph glyph-name="C" unicode="C" horiz-adv-x="1307" 
d="M1227 491l2 -6q-35 -259 -196 -382.5t-430 -123.5q-260 0 -404 167t-104 430l46 304q41 276 221.5 436.5t442.5 160.5q267 0 403.5 -130t96.5 -374l-3 -6h-330q20 139 -27 194.5t-179 55.5q-109 0 -187 -92.5t-100 -242.5l-46 -306q-24 -158 29.5 -247.5t179.5 -89.5
q111 0 174 59t83 193h328z" />
    <glyph glyph-name="D" unicode="D" horiz-adv-x="1338" 
d="M787 1456q247 0 399.5 -169t114.5 -428l-39 -262q-42 -273 -237.5 -435t-455.5 -162h-533l218 1456h533zM553 1196l-140 -936h195q110 0 201 95t114 242l39 264q22 153 -38 244t-176 91h-195z" />
    <glyph glyph-name="E" unicode="E" horiz-adv-x="1143" 
d="M980 623h-513l-54 -363h615l-39 -260h-953l218 1456h954l-39 -260h-616l-47 -313h513z" />
    <glyph glyph-name="F" unicode="F" horiz-adv-x="1143" 
d="M995 586h-534l-87 -586h-338l218 1456h973l-39 -260h-635l-53 -350h534z" />
    <glyph glyph-name="G" unicode="G" horiz-adv-x="1353" 
d="M1216 201q-89 -92 -236.5 -157t-365.5 -65q-260 0 -410 167.5t-110 429.5l46 304q41 274 228.5 435.5t449.5 161.5q268 0 397 -126t92 -339l-2 -6h-318q16 111 -32.5 161t-164.5 50q-114 0 -202.5 -94t-110.5 -241l-46 -306q-24 -157 34 -247t188 -90q89 0 147.5 15
t91.5 40l39 260h-258l34 224h596z" />
    <glyph glyph-name="H" unicode="H" horiz-adv-x="1446" 
d="M1250 0h-337l87 586h-539l-87 -586h-338l218 1456h338l-92 -610h539l92 610h337z" />
    <glyph glyph-name="I" unicode="I" horiz-adv-x="611" 
d="M394 0h-337l218 1456h337z" />
    <glyph glyph-name="J" unicode="J" horiz-adv-x="1144" 
d="M830 1456h338l-148 -989q-35 -231 -189.5 -359.5t-371.5 -128.5q-237 0 -366.5 119.5t-91.5 341.5l2 6h331q-17 -112 29.5 -159.5t134.5 -47.5q63 0 115.5 61t68.5 167z" />
    <glyph glyph-name="K" unicode="K" horiz-adv-x="1269" 
d="M558 578h-96l-86 -578h-338l218 1456h338l-87 -576h91l346 576h446l-527 -721l328 -735h-390z" />
    <glyph glyph-name="L" unicode="L" horiz-adv-x="1144" 
d="M413 260h625l-39 -260h-963l218 1456h338z" />
    <glyph glyph-name="M" unicode="M" horiz-adv-x="1783" 
d="M870 438l6 -1l482 1019h447l-218 -1456h-338l140 937l-6 1l-461 -938h-227l-177 924h-6l-138 -924h-338l218 1456h443z" />
    <glyph glyph-name="N" unicode="N" horiz-adv-x="1446" 
d="M1250 0h-337l-397 916l-6 -1l-136 -915h-338l218 1456h338l396 -915l6 1l137 914h337z" />
    <glyph glyph-name="O" unicode="O" horiz-adv-x="1416" 
d="M1336 597q-43 -280 -237 -449t-472 -169q-266 0 -417.5 176.5t-110.5 441.5l39 262q41 278 236.5 448t475.5 170q264 0 414 -176.5t111 -441.5zM1038 861q24 162 -34 259t-193 97q-132 0 -222.5 -100.5t-113.5 -255.5l-39 -264q-25 -164 33.5 -261t196.5 -97
q128 0 218.5 101t114.5 257z" />
    <glyph glyph-name="P" unicode="P" horiz-adv-x="1306" 
d="M448 499l-74 -499h-338l218 1456h556q249 0 386 -133.5t106 -345.5q-34 -223 -203.5 -350.5t-431.5 -127.5h-219zM487 759h219q106 0 175 61.5t83 154.5q14 100 -34 160.5t-159 60.5h-218z" />
    <glyph glyph-name="Q" unicode="Q" horiz-adv-x="1447" 
d="M1336 597q-18 -110 -60 -205.5t-106 -171.5l182 -218l-242 -167l-176 207q-70 -31 -147.5 -47t-159.5 -16q-266 0 -417.5 176.5t-110.5 441.5l39 262q41 278 236.5 448t475.5 170q264 0 414 -176.5t111 -441.5zM1038 861q24 162 -34 259t-193 97q-132 0 -222.5 -100.5
t-113.5 -255.5l-39 -264q-25 -164 33.5 -261t196.5 -97q128 0 218.5 101t114.5 257z" />
    <glyph glyph-name="R" unicode="R" horiz-adv-x="1306" 
d="M457 558l-83 -558h-338l218 1456h507q244 0 379 -118t105 -319q-19 -118 -90 -198t-196 -129q124 -39 171.5 -128.5t29.5 -217.5l-14 -92q-9 -59 -2.5 -131t43.5 -103l-3 -20h-349q-35 31 -36 108t10 148l14 88q16 108 -30 161t-154 53h-182zM496 818h172q98 0 160.5 47
t76.5 133q13 92 -34 145t-149 53h-169z" />
    <glyph glyph-name="S" unicode="S" horiz-adv-x="1267" 
d="M867 363q13 89 -38 132.5t-198 98.5q-259 85 -388 202t-102 295q27 179 188.5 282.5t389.5 103.5q248 0 389 -119t105 -327l-2 -6h-329q12 86 -44.5 139t-157.5 53q-74 0 -133 -36t-67 -88q-12 -81 45 -121t242 -105q236 -77 351 -195t87 -307q-29 -187 -187.5 -286.5
t-392.5 -99.5q-240 0 -406.5 109t-126.5 337l2 6h328q-17 -107 58.5 -149.5t183.5 -42.5q74 0 134.5 35.5t68.5 88.5z" />
    <glyph glyph-name="T" unicode="T" horiz-adv-x="1150" 
d="M1228 1196h-385l-179 -1196h-338l179 1196h-378l39 260h1101z" />
    <glyph glyph-name="U" unicode="U" horiz-adv-x="1417" 
d="M1447 1456l-141 -944q-40 -260 -224.5 -396.5t-454.5 -136.5q-259 0 -410 143t-113 390l141 944h339l-141 -944q-22 -140 37.5 -206.5t185.5 -66.5q119 0 199.5 69t101.5 204l141 944h339z" />
    <glyph glyph-name="V" unicode="V" horiz-adv-x="1307" 
d="M617 395l2 -53l6 -1l18 50l448 1065h354l-690 -1456h-365l-252 1456h353z" />
    <glyph glyph-name="W" unicode="W" horiz-adv-x="1825" 
d="M1283 513l6 -1l318 944h342l-552 -1456h-318l-110 899l-6 1l-378 -900h-318l-117 1456h343l34 -945l6 -1l389 946h255z" />
    <glyph glyph-name="X" unicode="X" horiz-adv-x="1307" 
d="M711 972l6 -1l309 485h390l-525 -722l339 -734h-410l-173 501l-323 -501h-390l538 734l-309 722h387z" />
    <glyph glyph-name="Y" unicode="Y" horiz-adv-x="1307" 
d="M692 819l6 -1l386 638h366l-636 -944l-76 -512h-337l79 528l-347 928h366z" />
    <glyph glyph-name="Z" unicode="Z" horiz-adv-x="1160" 
d="M445 260h631l-39 -260h-1022l-21 152l713 1044h-534l39 260h972l-21 -146z" />
    <glyph glyph-name="bracketleft" unicode="[" horiz-adv-x="577" 
d="M693 1460h-118l-219 -1564h118l-34 -245h-456l288 2055h456z" />
    <glyph glyph-name="backslash" unicode="\" horiz-adv-x="871" 
d="M122 1456h338l371 -1581h-339z" />
    <glyph glyph-name="bracketright" unicode="]" horiz-adv-x="577" 
d="M178 1706h456l-288 -2055h-456l34 245h119l219 1564h-119z" />
    <glyph glyph-name="asciicircum" unicode="^" horiz-adv-x="916" 
d="M318 729h-253l408 727h249l191 -727h-254l-103 413l-1 17l-6 1l-7 -18z" />
    <glyph glyph-name="underscore" unicode="_" horiz-adv-x="904" 
d="M785 -251h-903l38 251h903z" />
    <glyph glyph-name="grave" unicode="`" horiz-adv-x="695" 
d="M720 1252h-297l-246 260l3 6h370z" />
    <glyph glyph-name="a" unicode="a" horiz-adv-x="1086" 
d="M641 1q-13 34 -20.5 77t-7.5 90q-57 -86 -129 -137.5t-176 -51.5q-164 0 -248 88.5t-62 237.5q25 167 157 251.5t381 84.5h139l12 77q10 72 -17 107.5t-96 35.5q-57 0 -91 -28t-42 -85l-328 1l-1 6q17 154 160.5 250.5t359.5 96.5q194 0 307 -101t85 -285l-61 -408
q-14 -89 -10 -160.5t22 -147.5zM436 220q59 0 112.5 29.5t78.5 69.5l21 142h-136q-77 0 -121 -39.5t-53 -98.5q-7 -48 20.5 -75.5t77.5 -27.5z" />
    <glyph glyph-name="b" unicode="b" 
d="M1096 518q-39 -256 -165 -397.5t-336 -141.5q-86 0 -146 39.5t-97 114.5l-41 -133h-295l234 1560h338l-88 -583q54 60 118.5 92.5t142.5 32.5q201 0 288 -154.5t50 -408.5zM762 539q22 149 -2 226t-123 77q-54 0 -96.5 -21.5t-73.5 -61.5l-67 -452q18 -34 55.5 -51
t93.5 -17q96 0 142 71t68 208z" />
    <glyph glyph-name="c" unicode="c" horiz-adv-x="1048" 
d="M515 239q66 0 107 38t52 108h307l2 -6q-24 -184 -165.5 -292t-341.5 -108q-237 0 -353 154.5t-79 395.5l4 23q37 253 191.5 401.5t402.5 148.5q199 0 308.5 -116t76.5 -313l-2 -5h-309q12 80 -15.5 127t-97.5 47q-94 0 -146.5 -80t-71.5 -210l-4 -23q-21 -141 6 -215.5
t128 -74.5z" />
    <glyph glyph-name="d" unicode="d" 
d="M52 539q39 262 171 412.5t335 150.5q73 0 129 -36.5t94 -104.5l90 599h338l-234 -1560h-296l-3 131q-59 -73 -131.5 -112.5t-156.5 -39.5q-192 0 -284 150t-55 389zM387 518q-21 -136 6.5 -207.5t119.5 -71.5q51 0 95 20.5t76 59.5l66 434q-19 43 -56 66t-89 23
q-86 0 -140.5 -84.5t-74.5 -218.5z" />
    <glyph glyph-name="e" unicode="e" horiz-adv-x="1070" 
d="M493 -21q-236 0 -358 150.5t-88 375.5l5 38q38 257 191.5 408.5t404.5 150.5q210 0 315 -132.5t72 -357.5l-27 -177h-621l-2 -6q-5 -87 42 -138.5t151 -51.5q93 0 163 16.5t156 50.5l50 -206q-77 -51 -200.5 -86t-253.5 -35zM609 842q-78 0 -124.5 -51.5t-67.5 -138.5
l2 -6h291l4 26q13 87 -10.5 128.5t-94.5 41.5z" />
    <glyph glyph-name="f" unicode="f" horiz-adv-x="734" 
d="M89 0l127 848h-156l35 234h156l17 112q29 194 154.5 290.5t332.5 96.5q37 0 77.5 -6t86.5 -15l-62 -249q-27 5 -48 7.5t-51 2.5q-62 0 -102.5 -33.5t-48.5 -93.5l-17 -112h214l-35 -234h-214l-127 -848h-339z" />
    <glyph glyph-name="g" unicode="g" 
d="M51 539q39 262 171 412.5t335 150.5q83 0 141.5 -42t95.5 -119l44 141h298l-160 -1070q-34 -222 -196 -335.5t-422 -113.5q-81 0 -172 23t-167 62l96 250q68 -32 132 -47.5t150 -15.5q104 0 165 43.5t75 135.5l12 83q-55 -58 -120 -88t-142 -30q-192 0 -284 150t-55 389z
M385 518q-21 -136 6.5 -207.5t120.5 -71.5q54 0 96.5 18t72.5 54l68 451q-19 39 -55 59.5t-90 20.5q-86 0 -141 -84.5t-75 -218.5z" />
    <glyph glyph-name="h" unicode="h" 
d="M487 955q60 71 135.5 109t161.5 38q162 0 243.5 -118.5t44.5 -361.5l-93 -622h-338l94 624q18 129 -6.5 173.5t-90.5 44.5q-56 0 -100 -17.5t-78 -49.5l-116 -775h-338l234 1560h338z" />
    <glyph glyph-name="i" unicode="i" horiz-adv-x="561" 
d="M370 0h-339l162 1082h339zM570 1333h-339l34 227h339z" />
    <glyph glyph-name="j" unicode="j" horiz-adv-x="548" 
d="M536 1082l-164 -1097q-32 -210 -155.5 -316t-318.5 -106q-42 0 -79 4t-77 13l52 255q28 -6 48 -9t51 -3q55 0 91.5 41.5t48.5 120.5l164 1097h339zM568 1334h-339l34 226h339z" />
    <glyph glyph-name="k" unicode="k" horiz-adv-x="1119" 
d="M479 430h-61l-64 -430h-338l234 1560h338l-132 -875h49l287 397h380l2 -5l-400 -483l298 -594h-385z" />
    <glyph glyph-name="l" unicode="l" horiz-adv-x="561" 
d="M370 0h-339l234 1560h339z" />
    <glyph glyph-name="m" unicode="m" horiz-adv-x="1764" 
d="M487 944q62 76 145.5 117t184.5 41q96 0 163 -43.5t92 -132.5q62 85 148 130.5t193 45.5q152 0 228.5 -114.5t41.5 -348.5l-96 -639h-339l96 639q18 121 -7.5 162t-92.5 41q-48 0 -88.5 -18.5t-71.5 -50.5l-6 -51l-108 -722h-338l96 639q18 121 -7.5 162t-93.5 41
q-44 0 -84 -18t-73 -50l-116 -774h-338l162 1082h318z" />
    <glyph glyph-name="n" unicode="n" 
d="M480 935q65 80 149.5 123.5t180.5 43.5q153 0 229 -109t42 -342l-98 -651h-338l98 652q16 107 -10.5 148.5t-90.5 41.5q-53 0 -99 -20t-81 -55l-115 -767h-337l162 1082h317z" />
    <glyph glyph-name="o" unicode="o" 
d="M54 551q37 253 196 402t409 149q238 0 357.5 -155t84.5 -396l-3 -21q-39 -254 -197.5 -402.5t-407.5 -148.5q-239 0 -359 154.5t-83 396.5zM389 530q-22 -140 9 -215.5t134 -75.5q95 0 151.5 79t77.5 212l3 21q20 136 -11 213.5t-133 77.5q-96 0 -153 -81t-75 -210z" />
    <glyph glyph-name="p" unicode="p" 
d="M1096 518q-39 -253 -169 -396t-332 -143q-77 0 -133 31.5t-93 92.5l-77 -519h-338l224 1498h319l-7 -118q55 66 122.5 102t148.5 36q193 0 284 -156.5t54 -406.5zM762 539q20 141 -7.5 222t-115.5 81q-55 0 -98 -22t-74 -64l-67 -448q19 -35 56.5 -52t94.5 -17
q86 0 136.5 74.5t71.5 204.5z" />
    <glyph glyph-name="q" unicode="q" 
d="M52 539q39 262 171 412.5t335 150.5q82 0 141 -41.5t96 -118.5l48 140h295l-224 -1498h-338l77 516q-56 -59 -121.5 -90t-143.5 -31q-192 0 -284 150t-55 389zM387 518q-21 -136 6.5 -207.5t119.5 -71.5q55 0 98 18.5t74 55.5l67 447q-19 40 -55.5 61t-91.5 21
q-86 0 -140.5 -84.5t-74.5 -218.5z" />
    <glyph glyph-name="r" unicode="r" horiz-adv-x="722" 
d="M733 794l-110 1q-56 0 -97 -22.5t-66 -62.5l-106 -710h-338l162 1082h318l-11 -148l5 -3q42 82 104 126.5t138 44.5q22 0 40.5 -3t37.5 -9z" />
    <glyph glyph-name="s" unicode="s" horiz-adv-x="1048" 
d="M628 304q5 41 -35.5 72t-158.5 56q-184 37 -269 114.5t-66 213.5q20 148 153 245t340 97q208 0 326 -97.5t92 -248.5l-2 -6h-329q9 66 -18.5 98t-100.5 32q-52 0 -93 -29t-46 -74q-7 -44 30.5 -73.5t160.5 -53.5q193 -39 277 -116.5t65 -219.5q-22 -152 -162.5 -243.5
t-356.5 -91.5q-211 0 -328 113t-92 249l2 6h306q-9 -77 30.5 -111t121.5 -34q66 0 106 27t47 75z" />
    <glyph glyph-name="t" unicode="t" horiz-adv-x="723" 
d="M607 1351l-41 -269h171l-35 -234h-171l-74 -496q-10 -61 9.5 -85t60.5 -24q25 0 42 2t41 8l-15 -250q-52 -13 -94 -18.5t-98 -5.5q-161 0 -237 90t-47 281l74 498h-151l35 234h151l41 269h338z" />
    <glyph glyph-name="u" unicode="u" 
d="M693 157q-62 -87 -145 -132.5t-184 -45.5q-162 0 -243 119t-44 364l93 620h337l-93 -622q-20 -132 5.5 -176.5t94.5 -44.5q53 0 97 16t77 47l117 780h338l-162 -1082h-272z" />
    <glyph glyph-name="v" unicode="v" horiz-adv-x="1053" 
d="M488 446l3 -115l6 -1l39 116l238 636h355l-514 -1082h-343l-190 1082h356z" />
    <glyph glyph-name="w" unicode="w" horiz-adv-x="1485" 
d="M1016 477h6l198 605h322l-416 -1082h-286l-92 554l-6 1l-261 -555h-285l-93 1082h322l17 -608l6 -1l268 609h213z" />
    <glyph glyph-name="x" unicode="x" horiz-adv-x="1053" 
d="M558 764l6 -1l185 319h379l-394 -535l243 -547h-379l-95 329h-6l-193 -329h-379l407 547l-235 535h377z" />
    <glyph glyph-name="y" unicode="y" horiz-adv-x="1053" 
d="M507 477v-5l6 -2l270 612h360l-617 -1243q-67 -120 -158.5 -198t-263.5 -78q-42 0 -71 6t-85 20l78 241q12 -3 19.5 -4.5t18.5 -1.5q76 0 118.5 24t67.5 70l37 70l-210 1094h359z" />
    <glyph glyph-name="z" unicode="z" horiz-adv-x="1053" 
d="M456 265l2 -5h485l-39 -260h-919l28 188l571 629l-2 5h-453l39 260h888l-27 -182z" />
    <glyph glyph-name="braceleft" unicode="{" horiz-adv-x="665" 
d="M437 -360q-188 55 -254 175t-41 291l28 203q13 96 -19 146t-115 50l8 61l23 166q79 0 127.5 52t62.5 145l28 203q24 177 122.5 293.5t303.5 171.5l38 -176q-77 -29 -116.5 -103t-55.5 -186l-28 -203q-16 -109 -73 -189t-158 -124q85 -47 121 -127.5t23 -179.5l-28 -203
q-17 -116 2 -187.5t88 -101.5z" />
    <glyph glyph-name="bar" unicode="|" horiz-adv-x="523" 
d="M268 -270h-246l258 1726h246z" />
    <glyph glyph-name="braceright" unicode="}" horiz-adv-x="665" 
d="M-60 -183q76 29 116 103t56 186l28 203q14 108 71.5 188t159.5 125q-86 46 -122 126t-22 181l28 203q16 115 -3 187t-87 102l88 176q186 -55 252 -174.5t42 -290.5l-28 -203q-14 -97 18 -147t116 -50l-9 -61h1l-23 -166q-80 0 -128.5 -52.5t-61.5 -143.5l-28 -203
q-25 -177 -123.5 -294t-301.5 -172z" />
    <glyph glyph-name="asciitilde" unicode="~" horiz-adv-x="1295" 
d="M1230 769q-26 -181 -129.5 -291.5t-242.5 -110.5q-80 0 -148.5 31t-132.5 99q-41 43 -71 61t-71 18q-42 0 -80.5 -50.5t-47.5 -120.5l-227 30q25 182 127 291.5t242 109.5q78 0 150.5 -33t134.5 -96q38 -43 68.5 -61t69.5 -18q42 0 81 50.5t49 121.5z" />
    <glyph glyph-name="nonbreakingspace" unicode="&#xa0;" horiz-adv-x="510" 
 />
    <glyph glyph-name="exclamdown" unicode="&#xa1;" horiz-adv-x="615" 
d="M344 -374h-339l141 940h339zM520 799h-339l42 283h339z" />
    <glyph glyph-name="cent" unicode="&#xa2;" horiz-adv-x="1210" 
d="M515 239q66 0 107 38t52 108h308l3 -6q-20 -146 -115.5 -245.5t-239.5 -135.5l-36 -243h-200l34 226q-214 17 -316 168.5t-68 379.5l4 23q35 240 177 387t371 161l33 218h200l-36 -237q131 -41 196.5 -148t42.5 -265h-316q12 80 -15.5 127t-97.5 47q-94 0 -146.5 -80
t-71.5 -210l-4 -23q-21 -141 6 -215.5t128 -74.5z" />
    <glyph glyph-name="sterling" unicode="&#xa3;" horiz-adv-x="1227" 
d="M617 575l-5 -51q-12 -76 -55.5 -143.5t-114.5 -120.5h689l-39 -260h-1006l39 260h10q49 12 83 86.5t47 156.5l8 72h-164l39 261h154l21 185q32 221 173.5 338.5t353.5 117.5q214 0 323 -116t77 -303l-3 -6h-330q13 89 -18 127t-89 38q-55 0 -95.5 -51.5t-53.5 -144.5
l-19 -185h325l-39 -261h-311z" />
    <glyph glyph-name="currency" unicode="&#xa4;" horiz-adv-x="1397" 
d="M1000 105q-85 -61 -183 -93t-200 -32q-98 0 -184.5 33t-154.5 96l-152 -135l-119 144l158 140q-38 76 -51.5 165t1.5 185q15 105 56.5 198t104.5 170l-119 144l163 144l118 -142q82 54 176 83t191 29q93 0 177 -31.5t151 -88.5l170 151l120 -145l-173 -153
q40 -78 54.5 -169t0.5 -190q-16 -100 -54 -188.5t-94 -163.5l116 -138l-164 -145zM301 608q-29 -191 71 -313t274 -122q164 0 305 126.5t169 308.5q28 190 -72 312t-272 122q-166 0 -307 -126.5t-168 -307.5z" />
    <glyph glyph-name="yen" unicode="&#xa5;" horiz-adv-x="1258" 
d="M680 878l6 -1l330 579h366l-473 -714h213l-27 -184h-296l-15 -106h295l-28 -183h-295l-40 -269h-337l40 269h-323l28 183h323l15 106h-322l27 184h249l-260 714h367z" />
    <glyph glyph-name="brokenbar" unicode="&#xa6;" horiz-adv-x="524" 
d="M-2 -270l120 795h292l-119 -795h-293zM436 698h-292l113 758h292z" />
    <glyph glyph-name="section" unicode="&#xa7;" horiz-adv-x="1301" 
d="M1191 500q-14 -93 -63 -160.5t-129 -110.5q59 -52 82 -122.5t9 -167.5q-29 -187 -185 -284.5t-403 -97.5q-230 0 -376 98.5t-109 313.5l2 6h329q-14 -91 40.5 -124t152.5 -33q90 0 146 32.5t65 87.5q8 59 -40.5 93t-196.5 78q-237 64 -342 157t-80 262q14 91 63.5 159.5
t131.5 112.5q-61 51 -85 121.5t-9 168.5q26 182 186 284.5t406 102.5q240 0 368 -111.5t94 -308.5l-2 -6h-329q10 76 -33 121t-137 45q-95 0 -151 -35.5t-63 -89.5q-10 -66 34 -97.5t199 -74.5q239 -62 344.5 -156.5t80.5 -263.5zM615 652q-27 7 -53 15.5t-57 19.5
q-29 -21 -46.5 -52t-22.5 -67q-12 -73 30.5 -107.5t199.5 -84.5q32 -10 59 -18t52 -16q31 21 50.5 51.5t25.5 68.5q9 64 -40.5 103t-197.5 87z" />
    <glyph glyph-name="dieresis" unicode="&#xa8;" horiz-adv-x="1123" 
d="M1053 1252h-290l29 204h290zM538 1252h-290l29 204h290z" />
    <glyph glyph-name="copyright" unicode="&#xa9;" horiz-adv-x="1608" 
d="M1116 596l2 -6q-19 -156 -117.5 -232t-257.5 -76q-154 0 -235.5 107.5t-55.5 279.5l18 119q26 179 135.5 283t271.5 104q152 0 231 -80.5t53 -228.5l-2 -5h-149q14 97 -24 138t-129 41t-153.5 -69.5t-78.5 -181.5l-18 -120q-18 -119 22 -185.5t135 -66.5q87 0 139 42
t66 137h147zM236 729q-41 -274 103 -449.5t392 -175.5q235 0 437.5 182t242.5 443q41 273 -102.5 447.5t-390.5 174.5q-237 0 -440 -181t-242 -441zM114 729q49 327 285.5 537t536.5 210q283 0 464 -218t134 -529q-49 -328 -286.5 -539t-535.5 -211q-284 0 -464.5 218.5
t-133.5 531.5z" />
    <glyph glyph-name="ordfeminine" unicode="&#xaa;" horiz-adv-x="904" 
d="M626 706q-5 21 -6.5 44.5t-0.5 49.5q-40 -47 -100.5 -77.5t-137.5 -30.5q-114 0 -172.5 62t-42.5 166q17 114 109.5 172.5t256.5 58.5h136l8 51q9 64 -15 95.5t-82 31.5q-63 0 -104.5 -26t-47.5 -73l-162 13l-1 6q9 102 102.5 165t235.5 63q129 0 199 -72t50 -204
l-47 -314q-8 -52 -8.5 -95.5t7.5 -85.5h-177zM445 836q48 0 107.5 29.5t82.5 64.5l16 104h-136q-71 0 -119 -32.5t-54 -77.5q-7 -44 18 -66t85 -22z" />
    <glyph glyph-name="guillemotleft" unicode="&#xab;" horiz-adv-x="1054" 
d="M341 515l172 -399h-206l-214 390l1 6l1 7l1 6l331 390h206zM676 515l172 -399h-206l-214 390l1 6l1 7l1 6l331 390h206z" />
    <glyph glyph-name="logicalnot" unicode="&#xac;" horiz-adv-x="1124" 
d="M975 634l-39 -260h-200l39 260h-635l26 171h835z" />
    <glyph glyph-name="uni00AD" unicode="&#xad;" horiz-adv-x="875" 
d="M719 497h-589l39 261h589z" />
    <glyph glyph-name="registered" unicode="&#xae;" horiz-adv-x="1608" 
d="M114 729q49 327 285.5 537t536.5 210q283 0 464 -218t134 -529q-49 -328 -286.5 -539t-535.5 -211q-284 0 -464.5 218.5t-133.5 531.5zM236 729q-41 -274 103 -449.5t392 -175.5q235 0 437.5 182t242.5 443q41 273 -102.5 447.5t-390.5 174.5q-237 0 -440 -181t-242 -441
zM669 653l-51 -337h-151l128 850h281q145 0 224 -69.5t61 -194.5q-9 -59 -43 -101.5t-91 -70.5q49 -32 66 -87t7 -128l-8 -56q-7 -43 -8 -74.5t6 -52.5l-3 -16h-155q-5 21 -1.5 59t10.5 85l8 54q11 74 -17 106.5t-105 32.5h-158zM689 787h128q72 0 129 30.5t65 85.5
q11 75 -22.5 102.5t-132.5 27.5h-130z" />
    <glyph glyph-name="macron" unicode="&#xaf;" horiz-adv-x="1065" 
d="M1000 1285h-734l24 173h734z" />
    <glyph glyph-name="macron" unicode="&#x2c9;" horiz-adv-x="1065" 
d="M1000 1285h-734l24 173h734z" />
    <glyph glyph-name="degree" unicode="&#xb0;" horiz-adv-x="813" 
d="M225 1197q17 120 111.5 200.5t211.5 80.5q108 0 179 -83.5t54 -197.5q-19 -120 -111 -198.5t-206 -78.5q-112 0 -184.5 81.5t-54.5 195.5zM380 1197q-9 -55 22.5 -89.5t84.5 -34.5q49 0 90 35t50 89q8 56 -21.5 92t-80.5 36q-50 0 -93.5 -37.5t-51.5 -90.5z" />
    <glyph glyph-name="plusminus" unicode="&#xb1;" horiz-adv-x="1103" 
d="M752 994h312l-38 -271h-312l-51 -368h-293l51 368h-311l38 271h311l48 339h293zM854 -66h-834l39 264h834z" />
    <glyph glyph-name="twosuperior" unicode="&#xb2;" horiz-adv-x="856" 
d="M766 667h-637l25 167l350 247q64 46 84 77.5t27 72.5q4 36 -13.5 59t-63.5 23q-47 0 -77 -29t-36 -75h-218l-2 6q12 113 113 188.5t253 75.5q142 0 215.5 -66.5t56.5 -182.5q-14 -87 -79.5 -150t-213.5 -167l-97 -73l1 -6h337z" />
    <glyph glyph-name="threesuperior" unicode="&#xb3;" horiz-adv-x="846" 
d="M390 1139h101q58 0 90.5 23.5t39.5 66.5q5 36 -15 59.5t-70 23.5q-47 0 -76.5 -21t-33.5 -48h-218l-1 6q10 109 108 169t238 60q149 0 233 -60t68 -169q-9 -57 -50.5 -102.5t-106.5 -70.5q65 -24 96 -71.5t22 -113.5q-18 -117 -115 -176.5t-255 -59.5q-149 0 -238 65.5
t-65 179.5l2 6h220q-7 -43 18.5 -63.5t84.5 -20.5q47 0 81 21.5t41 63.5q6 46 -24 72t-94 26h-101l14 94z" />
    <glyph glyph-name="acute" unicode="&#xb4;" horiz-adv-x="762" 
d="M451 1518h370l2 -6l-318 -260h-291l-2 5z" />
    <glyph glyph-name="mu" unicode="&#xb5;" horiz-adv-x="1313" 
d="M552 1082l-93 -620q-20 -132 12 -175.5t118 -43.5q65 0 113.5 24.5t82.5 71.5l111 743h337l-162 -1082h-317l3 49q-48 -35 -103.5 -52.5t-117.5 -17.5q-41 0 -77.5 9.5t-66.5 26.5l-64 -431h-338l224 1498h338z" />
    <glyph glyph-name="paragraph" unicode="&#xb6;" horiz-adv-x="1113" 
d="M555 0l78 520h-83q-224 0 -338.5 131t-83.5 337q32 214 179.5 341t382.5 127h422l-218 -1456h-339z" />
    <glyph glyph-name="periodcentered" unicode="&#xb7;" horiz-adv-x="657" 
d="M497 539h-338l42 284h338z" />
    <glyph glyph-name="cedilla" unicode="&#xb8;" horiz-adv-x="569" 
d="M295 10l-20 -61q62 -11 99 -52.5t25 -120.5q-18 -118 -123.5 -183t-287.5 -65l21 186q39 0 66 19t34 58q5 39 -22 54t-101 19l53 146h256z" />
    <glyph glyph-name="onesuperior" unicode="&#xb9;" horiz-adv-x="579" 
d="M445 665h-228l93 619h-127l25 170l359 23z" />
    <glyph glyph-name="ordmasculine" unicode="&#xba;" horiz-adv-x="938" 
d="M208 1142q23 153 130.5 244t266.5 91q152 0 235 -94.5t61 -240.5l-17 -117q-24 -155 -130 -244.5t-265 -89.5q-153 0 -236.5 93.5t-61.5 240.5zM366 1025q-14 -88 22.5 -138t122.5 -50q79 0 132 52t66 136l17 117q13 86 -23.5 136.5t-120.5 50.5q-80 0 -133.5 -53
t-65.5 -134z" />
    <glyph glyph-name="guillemotright" unicode="&#xbb;" horiz-adv-x="1054" 
d="M333 551l-172 399h207l213 -390l-2 -13l-1 -6l-330 -390h-207zM679 551l-172 399h207l213 -390l-2 -13l-1 -6l-330 -390h-207z" />
    <glyph glyph-name="onequarter" unicode="&#xbc;" horiz-adv-x="1441" 
d="M534 664h-228l93 619h-127l25 170l359 23zM389 117l-145 79l882 1138l145 -79zM1369 302h89l-25 -168h-89l-20 -134h-230l20 134h-407l5 137l501 527l1 3h230zM952 308l3 -6h184l34 233l-5 2l-16 -19z" />
    <glyph glyph-name="onehalf" unicode="&#xbd;" horiz-adv-x="1473" 
d="M402 117l-145 79l882 1138l145 -79zM534 664h-228l93 619h-127l25 170l359 23zM1477 0h-637l25 167l350 247q63 46 83.5 78t27.5 72q4 36 -13.5 59t-63.5 23q-47 0 -77 -29t-36 -75h-218l-2 6q12 113 113 188.5t253 75.5q142 0 215 -66.5t56 -182.5q-13 -87 -78.5 -150
t-213.5 -167l-97 -73l1 -6h337z" />
    <glyph glyph-name="threequarters" unicode="&#xbe;" horiz-adv-x="1683" 
d="M572 117l-145 79l882 1138l145 -79zM1558 302h89l-25 -168h-89l-20 -134h-230l20 134h-407l5 137l501 527l1 3h230zM1141 308l3 -6h184l34 233l-5 2l-16 -19zM406 1140h101q58 0 90.5 23.5t39.5 66.5q5 36 -15 59.5t-70 23.5q-47 0 -76 -21t-33 -48h-218l-1 6
q10 109 107.5 169t237.5 60q149 0 233 -60t68 -169q-9 -57 -50.5 -102.5t-106.5 -70.5q65 -24 96 -71.5t22 -113.5q-18 -117 -115 -176.5t-255 -59.5q-149 0 -237.5 65.5t-65.5 179.5l2 6h220q-7 -43 18.5 -63.5t84.5 -20.5q47 0 81 21.5t41 63.5q6 46 -24 72t-94 26h-101
l14 94z" />
    <glyph glyph-name="questiondown" unicode="&#xbf;" horiz-adv-x="1047" 
d="M786 666q-23 -140 -82.5 -210t-202.5 -160q-74 -43 -121.5 -105t-59.5 -142q-13 -86 24.5 -135t122.5 -49q63 0 115 41.5t67 121.5h329l1 -6q-29 -208 -180 -312.5t-371 -104.5q-231 0 -353 121t-93 323q19 129 108 231t216 164q69 41 99 89.5t43 132.5h338zM511 1082
h336l-40 -270h-336z" />
    <glyph glyph-name="Agrave" unicode="&#xc0;" horiz-adv-x="1307" 
d="M840 283h-432l-127 -283h-356l693 1456h181v-1l1 1h181l258 -1456h-356zM524 543h277l-67 451l-6 1zM976 1599h-297l-246 260l3 6h370z" />
    <glyph glyph-name="Aacute" unicode="&#xc1;" horiz-adv-x="1307" 
d="M840 283h-432l-127 -283h-356l693 1456h181v-1l1 1h181l258 -1456h-356zM524 543h277l-67 451l-6 1zM885 1867h370l2 -6l-318 -260h-291l-2 5z" />
    <glyph glyph-name="Acircumflex" unicode="&#xc2;" horiz-adv-x="1307" 
d="M840 283h-432l-127 -283h-356l693 1456h181v-1l1 1h181l258 -1456h-356zM524 543h277l-67 451l-6 1zM1218 1609l-3 -22h-265l-118 126l-155 -126h-260l4 26l336 240h193z" />
    <glyph glyph-name="Atilde" unicode="&#xc3;" horiz-adv-x="1307" 
d="M840 283h-432l-127 -283h-356l693 1456h181v-1l1 1h181l258 -1456h-356zM524 543h277l-67 451l-6 1zM1232 1861q-14 -99 -82.5 -166t-159.5 -67q-66 0 -157 42t-143 42q-32 0 -59.5 -32.5t-32.5 -77.5l-171 50q13 97 82 165t160 68q53 0 149.5 -41.5t149.5 -41.5
q30 0 58.5 32.5t34.5 77.5z" />
    <glyph glyph-name="Adieresis" unicode="&#xc4;" horiz-adv-x="1307" 
d="M840 283h-432l-127 -283h-356l693 1456h181v-1l1 1h181l258 -1456h-356zM524 543h277l-67 451l-6 1zM1210 1601h-290l29 204h290zM695 1601h-290l29 204h290z" />
    <glyph glyph-name="Aring" unicode="&#xc5;" horiz-adv-x="1307" 
d="M840 283h-432l-127 -283h-356l693 1456h181v-1l1 1h181l258 -1456h-356zM524 543h277l-67 451l-6 1zM647 1751q11 76 73.5 124.5t146.5 48.5q78 0 126.5 -50.5t38.5 -122.5q-12 -77 -73.5 -123.5t-143.5 -46.5q-80 0 -130 48.5t-38 121.5zM770 1751q-6 -32 11 -51t49 -19
q28 0 49.5 19.5t27.5 50.5q4 33 -11 52.5t-45 19.5t-53.5 -20.5t-27.5 -51.5z" />
    <glyph glyph-name="AE" unicode="&#xc6;" horiz-adv-x="1916" 
d="M1767 0h-897l35 329h-382l-202 -329h-390l953 1456h1040l-39 -264h-550l-34 -316h455l-39 -264h-444l-38 -348h572zM934 599l52 473l-6 2l-292 -475h246z" />
    <glyph glyph-name="Ccedilla" unicode="&#xc7;" horiz-adv-x="1307" 
d="M1227 491l2 -6q-35 -259 -196 -382.5t-430 -123.5q-260 0 -404 167t-104 430l46 304q41 276 221.5 436.5t442.5 160.5q267 0 403.5 -130t96.5 -374l-3 -6h-330q20 139 -27 194.5t-179 55.5q-109 0 -187 -92.5t-100 -242.5l-46 -306q-24 -158 29.5 -247.5t179.5 -89.5
q111 0 174 59t83 193h328zM715 10l-20 -61q62 -11 99 -52.5t25 -120.5q-18 -118 -123.5 -183t-287.5 -65l21 186q39 0 66 19t34 58q5 39 -22 54t-101 19l53 146h256z" />
    <glyph glyph-name="Egrave" unicode="&#xc8;" horiz-adv-x="1143" 
d="M980 623h-513l-54 -363h615l-39 -260h-953l218 1456h954l-39 -260h-616l-47 -313h513zM914 1599h-297l-246 260l3 6h370z" />
    <glyph glyph-name="Eacute" unicode="&#xc9;" horiz-adv-x="1143" 
d="M980 623h-513l-54 -363h615l-39 -260h-953l218 1456h954l-39 -260h-616l-47 -313h513zM823 1867h370l2 -6l-318 -260h-291l-2 5z" />
    <glyph glyph-name="Ecircumflex" unicode="&#xca;" horiz-adv-x="1143" 
d="M980 623h-513l-54 -363h615l-39 -260h-953l218 1456h954l-39 -260h-616l-47 -313h513zM1156 1609l-3 -22h-265l-118 126l-155 -126h-260l4 26l336 240h193z" />
    <glyph glyph-name="Edieresis" unicode="&#xcb;" horiz-adv-x="1143" 
d="M980 623h-513l-54 -363h615l-39 -260h-953l218 1456h954l-39 -260h-616l-47 -313h513zM1148 1601h-290l29 204h290zM633 1601h-290l29 204h290z" />
    <glyph glyph-name="Igrave" unicode="&#xcc;" horiz-adv-x="611" 
d="M394 0h-337l218 1456h337zM627 1599h-297l-246 260l3 6h370z" />
    <glyph glyph-name="Iacute" unicode="&#xcd;" horiz-adv-x="611" 
d="M394 0h-337l218 1456h337zM535 1867h370l2 -6l-318 -260h-291l-2 5z" />
    <glyph glyph-name="Icircumflex" unicode="&#xce;" horiz-adv-x="611" 
d="M394 0h-337l218 1456h337zM869 1609l-3 -22h-265l-118 126l-155 -126h-260l4 26l336 240h193z" />
    <glyph glyph-name="Idieresis" unicode="&#xcf;" horiz-adv-x="611" 
d="M394 0h-337l218 1456h337zM861 1601h-290l29 204h290zM346 1601h-290l29 204h290z" />
    <glyph glyph-name="Eth" unicode="&#xd0;" horiz-adv-x="1338" 
d="M787 1456q247 0 399.5 -169t114.5 -428l-39 -262q-42 -273 -237.5 -435t-455.5 -162h-533l97 647h-120l29 191h119l93 618h533zM699 647h-228l-58 -387h195q110 0 201 95t114 242l39 264q22 153 -38 244t-176 91h-195l-54 -358h229z" />
    <glyph glyph-name="Ntilde" unicode="&#xd1;" horiz-adv-x="1446" 
d="M1250 0h-337l-397 916l-6 -1l-136 -915h-338l218 1456h338l396 -915l6 1l137 914h337zM1300 1861q-14 -99 -82.5 -166t-159.5 -67q-66 0 -157 42t-143 42q-32 0 -59.5 -32.5t-32.5 -77.5l-171 50q13 97 82 165t160 68q53 0 149.5 -41.5t149.5 -41.5q30 0 58.5 32.5
t34.5 77.5z" />
    <glyph glyph-name="Ograve" unicode="&#xd2;" horiz-adv-x="1416" 
d="M1336 597q-43 -280 -237 -449t-472 -169q-266 0 -417.5 176.5t-110.5 441.5l39 262q41 278 236.5 448t475.5 170q264 0 414 -176.5t111 -441.5zM1038 861q24 162 -34 259t-193 97q-132 0 -222.5 -100.5t-113.5 -255.5l-39 -264q-25 -164 33.5 -261t196.5 -97
q128 0 218.5 101t114.5 257zM1032 1620h-297l-246 260l3 6h370z" />
    <glyph glyph-name="Oacute" unicode="&#xd3;" horiz-adv-x="1416" 
d="M1336 597q-43 -280 -237 -449t-472 -169q-266 0 -417.5 176.5t-110.5 441.5l39 262q41 278 236.5 448t475.5 170q264 0 414 -176.5t111 -441.5zM1038 861q24 162 -34 259t-193 97q-132 0 -222.5 -100.5t-113.5 -255.5l-39 -264q-25 -164 33.5 -261t196.5 -97
q128 0 218.5 101t114.5 257zM942 1888h370l2 -6l-318 -260h-291l-2 5z" />
    <glyph glyph-name="Ocircumflex" unicode="&#xd4;" horiz-adv-x="1416" 
d="M1336 597q-43 -280 -237 -449t-472 -169q-266 0 -417.5 176.5t-110.5 441.5l39 262q41 278 236.5 448t475.5 170q264 0 414 -176.5t111 -441.5zM1038 861q24 162 -34 259t-193 97q-132 0 -222.5 -100.5t-113.5 -255.5l-39 -264q-25 -164 33.5 -261t196.5 -97
q128 0 218.5 101t114.5 257zM1274 1630l-3 -22h-265l-118 126l-155 -126h-260l4 26l336 240h193z" />
    <glyph glyph-name="Otilde" unicode="&#xd5;" horiz-adv-x="1416" 
d="M1336 597q-43 -280 -237 -449t-472 -169q-266 0 -417.5 176.5t-110.5 441.5l39 262q41 278 236.5 448t475.5 170q264 0 414 -176.5t111 -441.5zM1038 861q24 162 -34 259t-193 97q-132 0 -222.5 -100.5t-113.5 -255.5l-39 -264q-25 -164 33.5 -261t196.5 -97
q128 0 218.5 101t114.5 257zM1288 1882q-14 -99 -82.5 -166t-159.5 -67q-66 0 -157 42t-143 42q-32 0 -59.5 -32.5t-32.5 -77.5l-171 50q13 97 82 165t160 68q53 0 149.5 -41.5t149.5 -41.5q30 0 58.5 32.5t34.5 77.5z" />
    <glyph glyph-name="Odieresis" unicode="&#xd6;" horiz-adv-x="1416" 
d="M1336 597q-43 -280 -237 -449t-472 -169q-266 0 -417.5 176.5t-110.5 441.5l39 262q41 278 236.5 448t475.5 170q264 0 414 -176.5t111 -441.5zM1038 861q24 162 -34 259t-193 97q-132 0 -222.5 -100.5t-113.5 -255.5l-39 -264q-25 -164 33.5 -261t196.5 -97
q128 0 218.5 101t114.5 257zM1267 1622h-290l29 204h290zM752 1622h-290l29 204h290z" />
    <glyph glyph-name="multiply" unicode="&#xd7;" horiz-adv-x="1083" 
d="M30 381l346 305l-254 306l220 183l248 -299l338 299l166 -183l-346 -306l254 -305l-220 -183l-249 299l-337 -299z" />
    <glyph glyph-name="Oslash" unicode="&#xd8;" horiz-adv-x="1416" 
d="M1336 597q-43 -280 -237 -449t-472 -169q-76 0 -144.5 15.5t-126.5 46.5l-99 -136h-140l145 199q-100 83 -143.5 211.5t-19.5 281.5l39 262q41 278 236.5 448t475.5 170q98 0 183.5 -27t153.5 -77l105 145h140l-163 -223q69 -84 97 -196t9 -240zM436 597
q-11 -69 -6.5 -126t23.5 -95l6 -2l544 748q-30 45 -78 70t-114 25q-132 0 -222.5 -100.5t-113.5 -255.5zM1038 861q5 33 6 63t-1 51l-5 2l-511 -701q27 -19 61.5 -28t77.5 -9q128 0 218.5 101t114.5 257z" />
    <glyph glyph-name="Ugrave" unicode="&#xd9;" horiz-adv-x="1417" 
d="M1447 1456l-141 -944q-40 -260 -224.5 -396.5t-454.5 -136.5q-259 0 -410 143t-113 390l141 944h339l-141 -944q-22 -140 37.5 -206.5t185.5 -66.5q119 0 199.5 69t101.5 204l141 944h339zM1029 1599h-297l-246 260l3 6h370z" />
    <glyph glyph-name="Uacute" unicode="&#xda;" horiz-adv-x="1417" 
d="M1447 1456l-141 -944q-40 -260 -224.5 -396.5t-454.5 -136.5q-259 0 -410 143t-113 390l141 944h339l-141 -944q-22 -140 37.5 -206.5t185.5 -66.5q119 0 199.5 69t101.5 204l141 944h339zM938 1867h370l2 -6l-318 -260h-291l-2 5z" />
    <glyph glyph-name="Ucircumflex" unicode="&#xdb;" horiz-adv-x="1417" 
d="M1447 1456l-141 -944q-40 -260 -224.5 -396.5t-454.5 -136.5q-259 0 -410 143t-113 390l141 944h339l-141 -944q-22 -140 37.5 -206.5t185.5 -66.5q119 0 199.5 69t101.5 204l141 944h339zM1271 1609l-3 -22h-265l-118 126l-155 -126h-260l4 26l336 240h193z" />
    <glyph glyph-name="Udieresis" unicode="&#xdc;" horiz-adv-x="1417" 
d="M1447 1456l-141 -944q-40 -260 -224.5 -396.5t-454.5 -136.5q-259 0 -410 143t-113 390l141 944h339l-141 -944q-22 -140 37.5 -206.5t185.5 -66.5q119 0 199.5 69t101.5 204l141 944h339zM1263 1601h-290l29 204h290zM748 1601h-290l29 204h290z" />
    <glyph glyph-name="Yacute" unicode="&#xdd;" horiz-adv-x="1307" 
d="M692 819l6 -1l386 638h366l-636 -944l-76 -512h-337l79 528l-347 928h366zM892 1867h370l2 -6l-318 -260h-291l-2 5z" />
    <glyph glyph-name="Thorn" unicode="&#xde;" horiz-adv-x="1266" 
d="M593 1456l-39 -258h199q255 0 388.5 -128t103.5 -332q-32 -214 -197 -337t-433 -123h-199l-41 -278h-339l218 1456h339zM515 938l-60 -400h199q108 0 173 57t78 141q13 90 -32.5 146t-158.5 56h-198h-1z" />
    <glyph glyph-name="germandbls" unicode="&#xdf;" horiz-adv-x="1330" 
d="M392 0h-338l167 1112q35 235 185 352t396 117q184 0 299.5 -101.5t88.5 -278.5q-17 -108 -77.5 -196t-71.5 -163q-7 -47 110 -186t97 -279q-32 -207 -164.5 -302.5t-372.5 -95.5q-77 0 -151.5 12.5t-109.5 35.5l97 256q33 -19 85 -31.5t120 -12.5q59 0 104 33.5t54 91.5
q10 70 -109.5 197.5t-98.5 265.5q15 102 76 194t72 166q8 55 -28.5 95t-91.5 40q-59 0 -108.5 -59.5t-63.5 -156.5z" />
    <glyph glyph-name="agrave" unicode="&#xe0;" horiz-adv-x="1086" 
d="M641 1q-13 34 -20.5 77t-7.5 90q-57 -86 -129 -137.5t-176 -51.5q-164 0 -248 88.5t-62 237.5q25 167 157 251.5t381 84.5h139l12 77q10 72 -17 107.5t-96 35.5q-57 0 -91 -28t-42 -85l-328 1l-1 6q17 154 160.5 250.5t359.5 96.5q194 0 307 -101t85 -285l-61 -408
q-14 -89 -10 -160.5t22 -147.5zM436 220q59 0 112.5 29.5t78.5 69.5l21 142h-136q-77 0 -121 -39.5t-53 -98.5q-7 -48 20.5 -75.5t77.5 -27.5zM814 1277h-297l-246 260l3 6h370z" />
    <glyph glyph-name="aacute" unicode="&#xe1;" horiz-adv-x="1086" 
d="M641 1q-13 34 -20.5 77t-7.5 90q-57 -86 -129 -137.5t-176 -51.5q-164 0 -248 88.5t-62 237.5q25 167 157 251.5t381 84.5h139l12 77q10 72 -17 107.5t-96 35.5q-57 0 -91 -28t-42 -85l-328 1l-1 6q17 154 160.5 250.5t359.5 96.5q194 0 307 -101t85 -285l-61 -408
q-14 -89 -10 -160.5t22 -147.5zM436 220q59 0 112.5 29.5t78.5 69.5l21 142h-136q-77 0 -121 -39.5t-53 -98.5q-7 -48 20.5 -75.5t77.5 -27.5zM723 1545h370l2 -6l-318 -260h-291l-2 5z" />
    <glyph glyph-name="acircumflex" unicode="&#xe2;" horiz-adv-x="1086" 
d="M641 1q-13 34 -20.5 77t-7.5 90q-57 -86 -129 -137.5t-176 -51.5q-164 0 -248 88.5t-62 237.5q25 167 157 251.5t381 84.5h139l12 77q10 72 -17 107.5t-96 35.5q-57 0 -91 -28t-42 -85l-328 1l-1 6q17 154 160.5 250.5t359.5 96.5q194 0 307 -101t85 -285l-61 -408
q-14 -89 -10 -160.5t22 -147.5zM436 220q59 0 112.5 29.5t78.5 69.5l21 142h-136q-77 0 -121 -39.5t-53 -98.5q-7 -48 20.5 -75.5t77.5 -27.5zM1056 1287l-3 -22h-265l-118 126l-155 -126h-260l4 26l336 240h193z" />
    <glyph glyph-name="atilde" unicode="&#xe3;" horiz-adv-x="1086" 
d="M641 1q-13 34 -20.5 77t-7.5 90q-57 -86 -129 -137.5t-176 -51.5q-164 0 -248 88.5t-62 237.5q25 167 157 251.5t381 84.5h139l12 77q10 72 -17 107.5t-96 35.5q-57 0 -91 -28t-42 -85l-328 1l-1 6q17 154 160.5 250.5t359.5 96.5q194 0 307 -101t85 -285l-61 -408
q-14 -89 -10 -160.5t22 -147.5zM436 220q59 0 112.5 29.5t78.5 69.5l21 142h-136q-77 0 -121 -39.5t-53 -98.5q-7 -48 20.5 -75.5t77.5 -27.5zM1070 1539q-14 -99 -82.5 -166t-159.5 -67q-66 0 -157 42t-143 42q-32 0 -59.5 -32.5t-32.5 -77.5l-171 50q13 97 82 165t160 68
q53 0 149.5 -41.5t149.5 -41.5q30 0 58.5 32.5t34.5 77.5z" />
    <glyph glyph-name="adieresis" unicode="&#xe4;" horiz-adv-x="1086" 
d="M641 1q-13 34 -20.5 77t-7.5 90q-57 -86 -129 -137.5t-176 -51.5q-164 0 -248 88.5t-62 237.5q25 167 157 251.5t381 84.5h139l12 77q10 72 -17 107.5t-96 35.5q-57 0 -91 -28t-42 -85l-328 1l-1 6q17 154 160.5 250.5t359.5 96.5q194 0 307 -101t85 -285l-61 -408
q-14 -89 -10 -160.5t22 -147.5zM436 220q59 0 112.5 29.5t78.5 69.5l21 142h-136q-77 0 -121 -39.5t-53 -98.5q-7 -48 20.5 -75.5t77.5 -27.5zM1049 1279h-290l29 204h290zM534 1279h-290l29 204h290z" />
    <glyph glyph-name="aring" unicode="&#xe5;" horiz-adv-x="1086" 
d="M641 1q-13 34 -20.5 77t-7.5 90q-57 -86 -129 -137.5t-176 -51.5q-164 0 -248 88.5t-62 237.5q25 167 157 251.5t381 84.5h139l12 77q10 72 -17 107.5t-96 35.5q-57 0 -91 -28t-42 -85l-328 1l-1 6q17 154 160.5 250.5t359.5 96.5q194 0 307 -101t85 -285l-61 -408
q-14 -89 -10 -160.5t22 -147.5zM436 220q59 0 112.5 29.5t78.5 69.5l21 142h-136q-77 0 -121 -39.5t-53 -98.5q-7 -48 20.5 -75.5t77.5 -27.5zM485 1429q11 76 73.5 124.5t146.5 48.5q78 0 126.5 -50.5t38.5 -122.5q-12 -77 -73.5 -123.5t-143.5 -46.5q-80 0 -130 48.5
t-38 121.5zM608 1429q-6 -32 11 -51t49 -19q28 0 49.5 19.5t27.5 50.5q4 33 -11 52.5t-45 19.5t-53.5 -20.5t-27.5 -51.5z" />
    <glyph glyph-name="ae" unicode="&#xe6;" horiz-adv-x="1763" 
d="M1192 -21q-121 0 -213.5 38.5t-151.5 110.5q-70 -66 -173.5 -107.5t-235.5 -41.5q-195 0 -296 93.5t-76 251.5q24 165 167.5 248t401.5 83h157l7 46q10 68 -19 104.5t-93 36.5q-67 0 -112.5 -29.5t-51.5 -72.5l-325 18l-2 6q17 152 163 245t371 93q93 0 170.5 -23
t132.5 -66q68 44 152.5 66.5t183.5 22.5q203 0 310.5 -133.5t74.5 -356.5l-27 -177h-621l-2 -6q-9 -91 36.5 -140.5t156.5 -49.5q84 0 150 16.5t145 50.5l50 -206q-74 -51 -192 -86t-238 -35zM517 211q47 0 104.5 24t95.5 58l24 158h-154q-84 0 -140.5 -39t-63.5 -92
q-8 -54 25 -81.5t109 -27.5zM1310 842q-82 0 -128.5 -50.5t-64.5 -139.5l2 -6h291l4 26q12 83 -15 126.5t-89 43.5z" />
    <glyph glyph-name="ccedilla" unicode="&#xe7;" horiz-adv-x="1048" 
d="M515 239q66 0 107 38t52 108h307l2 -6q-24 -184 -165.5 -292t-341.5 -108q-237 0 -353 154.5t-79 395.5l4 23q37 253 191.5 401.5t402.5 148.5q199 0 308.5 -116t76.5 -313l-2 -5h-309q12 80 -15.5 127t-97.5 47q-94 0 -146.5 -80t-71.5 -210l-4 -23q-21 -141 6 -215.5
t128 -74.5zM611 10l-20 -61q62 -11 99 -52.5t25 -120.5q-18 -118 -123.5 -183t-287.5 -65l21 186q39 0 66 19t34 58q5 39 -22 54t-101 19l53 146h256z" />
    <glyph glyph-name="egrave" unicode="&#xe8;" horiz-adv-x="1070" 
d="M493 -21q-236 0 -358 150.5t-88 375.5l5 38q38 257 191.5 408.5t404.5 150.5q210 0 315 -132.5t72 -357.5l-27 -177h-621l-2 -6q-5 -87 42 -138.5t151 -51.5q93 0 163 16.5t156 50.5l50 -206q-77 -51 -200.5 -86t-253.5 -35zM609 842q-78 0 -124.5 -51.5t-67.5 -138.5
l2 -6h291l4 26q13 87 -10.5 128.5t-94.5 41.5zM812 1278h-297l-246 260l3 6h370z" />
    <glyph glyph-name="eacute" unicode="&#xe9;" horiz-adv-x="1070" 
d="M493 -21q-236 0 -358 150.5t-88 375.5l5 38q38 257 191.5 408.5t404.5 150.5q210 0 315 -132.5t72 -357.5l-27 -177h-621l-2 -6q-5 -87 42 -138.5t151 -51.5q93 0 163 16.5t156 50.5l50 -206q-77 -51 -200.5 -86t-253.5 -35zM609 842q-78 0 -124.5 -51.5t-67.5 -138.5
l2 -6h291l4 26q13 87 -10.5 128.5t-94.5 41.5zM721 1546h370l2 -6l-318 -260h-291l-2 5z" />
    <glyph glyph-name="ecircumflex" unicode="&#xea;" horiz-adv-x="1070" 
d="M493 -21q-236 0 -358 150.5t-88 375.5l5 38q38 257 191.5 408.5t404.5 150.5q210 0 315 -132.5t72 -357.5l-27 -177h-621l-2 -6q-5 -87 42 -138.5t151 -51.5q93 0 163 16.5t156 50.5l50 -206q-77 -51 -200.5 -86t-253.5 -35zM609 842q-78 0 -124.5 -51.5t-67.5 -138.5
l2 -6h291l4 26q13 87 -10.5 128.5t-94.5 41.5zM1054 1288l-3 -22h-265l-118 126l-155 -126h-260l4 26l336 240h193z" />
    <glyph glyph-name="edieresis" unicode="&#xeb;" horiz-adv-x="1070" 
d="M493 -21q-236 0 -358 150.5t-88 375.5l5 38q38 257 191.5 408.5t404.5 150.5q210 0 315 -132.5t72 -357.5l-27 -177h-621l-2 -6q-5 -87 42 -138.5t151 -51.5q93 0 163 16.5t156 50.5l50 -206q-77 -51 -200.5 -86t-253.5 -35zM609 842q-78 0 -124.5 -51.5t-67.5 -138.5
l2 -6h291l4 26q13 87 -10.5 128.5t-94.5 41.5zM1047 1280h-290l29 204h290zM532 1280h-290l29 204h290z" />
    <glyph glyph-name="igrave" unicode="&#xec;" horiz-adv-x="584" 
d="M382 0h-339l162 1082h339zM564 1256h-297l-246 260l3 6h370z" />
    <glyph glyph-name="iacute" unicode="&#xed;" horiz-adv-x="584" 
d="M382 0h-339l162 1082h339zM472 1524h370l2 -6l-318 -260h-291l-2 5z" />
    <glyph glyph-name="icircumflex" unicode="&#xee;" horiz-adv-x="584" 
d="M382 0h-339l162 1082h339zM806 1267l-3 -22h-265l-118 126l-155 -126h-260l4 26l336 240h193z" />
    <glyph glyph-name="idieresis" unicode="&#xef;" horiz-adv-x="584" 
d="M382 0h-339l162 1082h339zM798 1258h-290l29 204h290zM283 1258h-290l29 204h290z" />
    <glyph glyph-name="eth" unicode="&#xf0;" horiz-adv-x="1226" 
d="M1058 1286q90 -106 127 -245.5t13 -304.5l-27 -183q-40 -263 -225 -418.5t-433 -155.5q-238 0 -377 141.5t-109 347.5q35 234 185 363.5t393 129.5q76 0 142 -23t113 -64l4 5q-3 77 -31.5 140.5t-77.5 113.5l-245 -123l-61 118l176 89v6q-26 13 -59.5 25.5t-70.5 24.5
l144 244q90 -19 169.5 -53t145.5 -82l203 102l59 -118zM556 239q104 0 180 88.5t97 225.5l14 96q-28 31 -81 51t-128 20q-113 0 -184.5 -67t-89.5 -185q-16 -105 36 -167t156 -62z" />
    <glyph glyph-name="ntilde" unicode="&#xf1;" 
d="M480 935q65 80 149.5 123.5t180.5 43.5q153 0 229 -109t42 -342l-98 -651h-338l98 652q16 107 -10.5 148.5t-90.5 41.5q-53 0 -99 -20t-81 -55l-115 -767h-337l162 1082h317zM1105 1539q-14 -99 -82.5 -166t-159.5 -67q-66 0 -157 42t-143 42q-32 0 -59.5 -32.5
t-32.5 -77.5l-171 50q13 97 82 165t160 68q53 0 149.5 -41.5t149.5 -41.5q30 0 58.5 32.5t34.5 77.5z" />
    <glyph glyph-name="ograve" unicode="&#xf2;" 
d="M54 551q37 253 196 402t409 149q238 0 357.5 -155t84.5 -396l-3 -21q-39 -254 -197.5 -402.5t-407.5 -148.5q-239 0 -359 154.5t-83 396.5zM389 530q-22 -140 9 -215.5t134 -75.5q95 0 151.5 79t77.5 212l3 21q20 136 -11 213.5t-133 77.5q-96 0 -153 -81t-75 -210z
M848 1277h-297l-246 260l3 6h370z" />
    <glyph glyph-name="oacute" unicode="&#xf3;" 
d="M54 551q37 253 196 402t409 149q238 0 357.5 -155t84.5 -396l-3 -21q-39 -254 -197.5 -402.5t-407.5 -148.5q-239 0 -359 154.5t-83 396.5zM389 530q-22 -140 9 -215.5t134 -75.5q95 0 151.5 79t77.5 212l3 21q20 136 -11 213.5t-133 77.5q-96 0 -153 -81t-75 -210z
M757 1545h370l2 -6l-318 -260h-291l-2 5z" />
    <glyph glyph-name="ocircumflex" unicode="&#xf4;" 
d="M54 551q37 253 196 402t409 149q238 0 357.5 -155t84.5 -396l-3 -21q-39 -254 -197.5 -402.5t-407.5 -148.5q-239 0 -359 154.5t-83 396.5zM389 530q-22 -140 9 -215.5t134 -75.5q95 0 151.5 79t77.5 212l3 21q20 136 -11 213.5t-133 77.5q-96 0 -153 -81t-75 -210z
M1090 1287l-3 -22h-265l-118 126l-155 -126h-260l4 26l336 240h193z" />
    <glyph glyph-name="otilde" unicode="&#xf5;" 
d="M54 551q37 253 196 402t409 149q238 0 357.5 -155t84.5 -396l-3 -21q-39 -254 -197.5 -402.5t-407.5 -148.5q-239 0 -359 154.5t-83 396.5zM389 530q-22 -140 9 -215.5t134 -75.5q95 0 151.5 79t77.5 212l3 21q20 136 -11 213.5t-133 77.5q-96 0 -153 -81t-75 -210z
M1104 1539q-14 -99 -82.5 -166t-159.5 -67q-66 0 -157 42t-143 42q-32 0 -59.5 -32.5t-32.5 -77.5l-171 50q13 97 82 165t160 68q53 0 149.5 -41.5t149.5 -41.5q30 0 58.5 32.5t34.5 77.5z" />
    <glyph glyph-name="odieresis" unicode="&#xf6;" 
d="M54 551q37 253 196 402t409 149q238 0 357.5 -155t84.5 -396l-3 -21q-39 -254 -197.5 -402.5t-407.5 -148.5q-239 0 -359 154.5t-83 396.5zM389 530q-22 -140 9 -215.5t134 -75.5q95 0 151.5 79t77.5 212l3 21q20 136 -11 213.5t-133 77.5q-96 0 -153 -81t-75 -210z
M1082 1279h-290l29 204h290zM567 1279h-290l29 204h290z" />
    <glyph glyph-name="divide" unicode="&#xf7;" horiz-adv-x="1166" 
d="M1107 563h-1044l37 244h1044zM816 961h-339l37 245h339zM696 158h-339l37 246h339z" />
    <glyph glyph-name="oslash" unicode="&#xf8;" horiz-adv-x="1152" 
d="M54 551q37 253 196 402t409 149q46 0 89 -7t83 -20l92 144h177l-138 -216q87 -74 123 -191.5t16 -260.5l-3 -21q-39 -254 -197.5 -402.5t-407.5 -148.5q-46 0 -87.5 6.5t-79.5 17.5l-94 -148h-177l139 218q-91 72 -128.5 191t-14.5 266zM389 530q-8 -50 -9.5 -87.5
t3.5 -60.5l6 -1l289 453q-14 3 -28 5.5t-30 2.5q-96 0 -153 -81t-75 -210zM764 551q6 42 7.5 78t-1.5 59l-6 2l-284 -445q11 -3 24 -4.5t28 -1.5q95 0 151.5 79t77.5 212z" />
    <glyph glyph-name="ugrave" unicode="&#xf9;" 
d="M693 157q-62 -87 -145 -132.5t-184 -45.5q-162 0 -243 119t-44 364l93 620h337l-93 -622q-20 -132 5.5 -176.5t94.5 -44.5q53 0 97 16t77 47l117 780h338l-162 -1082h-272zM844 1256h-297l-246 260l3 6h370z" />
    <glyph glyph-name="uacute" unicode="&#xfa;" 
d="M693 157q-62 -87 -145 -132.5t-184 -45.5q-162 0 -243 119t-44 364l93 620h337l-93 -622q-20 -132 5.5 -176.5t94.5 -44.5q53 0 97 16t77 47l117 780h338l-162 -1082h-272zM753 1524h370l2 -6l-318 -260h-291l-2 5z" />
    <glyph glyph-name="ucircumflex" unicode="&#xfb;" 
d="M693 157q-62 -87 -145 -132.5t-184 -45.5q-162 0 -243 119t-44 364l93 620h337l-93 -622q-20 -132 5.5 -176.5t94.5 -44.5q53 0 97 16t77 47l117 780h338l-162 -1082h-272zM1086 1267l-3 -22h-265l-118 126l-155 -126h-260l4 26l336 240h193z" />
    <glyph glyph-name="udieresis" unicode="&#xfc;" 
d="M693 157q-62 -87 -145 -132.5t-184 -45.5q-162 0 -243 119t-44 364l93 620h337l-93 -622q-20 -132 5.5 -176.5t94.5 -44.5q53 0 97 16t77 47l117 780h338l-162 -1082h-272zM1078 1258h-290l29 204h290zM563 1258h-290l29 204h290z" />
    <glyph glyph-name="yacute" unicode="&#xfd;" horiz-adv-x="1053" 
d="M507 477v-5l6 -2l270 612h360l-617 -1243q-67 -120 -158.5 -198t-263.5 -78q-42 0 -71 6t-85 20l78 241q12 -3 19.5 -4.5t18.5 -1.5q76 0 118.5 24t67.5 70l37 70l-210 1094h359zM706 1524h370l2 -6l-318 -260h-291l-2 5z" />
    <glyph glyph-name="thorn" unicode="&#xfe;" horiz-adv-x="1149" 
d="M1106 518q-39 -253 -169 -396t-332 -143q-77 0 -133 32t-93 92l-15 -103l-62 -416h-338l62 416h-1l234 1560h339l-88 -584q54 61 118.5 93.5t142.5 32.5q193 0 284 -156.5t54 -406.5zM772 539q20 141 -7.5 222t-115.5 81q-55 0 -98 -22t-74 -64l-67 -448q18 -35 56 -52
t95 -17q86 0 136.5 74.5t71.5 204.5z" />
    <glyph glyph-name="ydieresis" unicode="&#xff;" horiz-adv-x="1053" 
d="M507 477v-5l6 -2l270 612h360l-617 -1243q-67 -120 -158.5 -198t-263.5 -78q-42 0 -71 6t-85 20l78 241q12 -3 19.5 -4.5t18.5 -1.5q76 0 118.5 24t67.5 70l37 70l-210 1094h359zM1032 1258h-290l29 204h290zM517 1258h-290l29 204h290z" />
    <glyph glyph-name="Amacron" unicode="&#x100;" horiz-adv-x="1307" 
d="M840 283h-432l-127 -283h-356l693 1456h181v-1l1 1h181l258 -1456h-356zM524 543h277l-67 451l-6 1zM1174 1601h-734l24 173h734z" />
    <glyph glyph-name="amacron" unicode="&#x101;" horiz-adv-x="1086" 
d="M641 1q-13 34 -20.5 77t-7.5 90q-57 -86 -129 -137.5t-176 -51.5q-164 0 -248 88.5t-62 237.5q25 167 157 251.5t381 84.5h139l12 77q10 72 -17 107.5t-96 35.5q-57 0 -91 -28t-42 -85l-328 1l-1 6q17 154 160.5 250.5t359.5 96.5q194 0 307 -101t85 -285l-61 -408
q-14 -89 -10 -160.5t22 -147.5zM436 220q59 0 112.5 29.5t78.5 69.5l21 142h-136q-77 0 -121 -39.5t-53 -98.5q-7 -48 20.5 -75.5t77.5 -27.5zM1012 1280h-734l24 173h734z" />
    <glyph glyph-name="Abreve" unicode="&#x102;" horiz-adv-x="1307" 
d="M840 283h-432l-127 -283h-356l693 1456h181v-1l1 1h181l258 -1456h-356zM524 543h277l-67 451l-6 1zM1213 1908l2 -6q-15 -138 -125 -219.5t-280 -81.5q-163 0 -254 84.5t-67 216.5l2 6h244q-7 -49 17.5 -78t85.5 -29q57 0 91 30.5t41 76.5h243z" />
    <glyph glyph-name="abreve" unicode="&#x103;" horiz-adv-x="1086" 
d="M641 1q-13 34 -20.5 77t-7.5 90q-57 -86 -129 -137.5t-176 -51.5q-164 0 -248 88.5t-62 237.5q25 167 157 251.5t381 84.5h139l12 77q10 72 -17 107.5t-96 35.5q-57 0 -91 -28t-42 -85l-328 1l-1 6q17 154 160.5 250.5t359.5 96.5q194 0 307 -101t85 -285l-61 -408
q-14 -89 -10 -160.5t22 -147.5zM436 220q59 0 112.5 29.5t78.5 69.5l21 142h-136q-77 0 -121 -39.5t-53 -98.5q-7 -48 20.5 -75.5t77.5 -27.5zM1051 1586l2 -6q-15 -138 -125 -219.5t-280 -81.5q-163 0 -254 84.5t-67 216.5l2 6h244q-7 -49 17.5 -78t85.5 -29q57 0 91 30.5
t41 76.5h243z" />
    <glyph glyph-name="Aogonek" unicode="&#x104;" horiz-adv-x="1307" 
d="M840 283h-432l-127 -283h-356l693 1456h181v-1l1 1h181l258 -1456h-356zM524 543h277l-67 451l-6 1zM1124 0q-51 -52 -74.5 -84.5t-30.5 -79.5q-3 -19 8.5 -39t63.5 -20q27 0 49.5 5.5t43.5 12.5l11 -168q-38 -19 -85 -31.5t-108 -12.5q-111 0 -178 57t-52 157
q11 78 59.5 143.5t139.5 119.5z" />
    <glyph glyph-name="aogonek" unicode="&#x105;" horiz-adv-x="1086" 
d="M641 1q-13 34 -20.5 77t-7.5 90q-57 -86 -129 -137.5t-176 -51.5q-164 0 -248 88.5t-62 237.5q25 167 157 251.5t381 84.5h139l12 77q10 72 -17 107.5t-96 35.5q-57 0 -91 -28t-42 -85l-328 1l-1 6q17 154 160.5 250.5t359.5 96.5q194 0 307 -101t85 -285l-61 -408
q-14 -89 -10 -160.5t22 -147.5zM436 220q59 0 112.5 29.5t78.5 69.5l21 142h-136q-77 0 -121 -39.5t-53 -98.5q-7 -48 20.5 -75.5t77.5 -27.5zM859 0q-51 -52 -74.5 -84.5t-30.5 -79.5q-3 -19 8.5 -39t63.5 -20q27 0 49.5 5.5t43.5 12.5l11 -168q-38 -19 -85 -31.5
t-108 -12.5q-111 0 -178 57t-52 157q11 78 59.5 143.5t139.5 119.5z" />
    <glyph glyph-name="Cacute" unicode="&#x106;" horiz-adv-x="1307" 
d="M1227 491l2 -6q-35 -259 -196 -382.5t-430 -123.5q-260 0 -404 167t-104 430l46 304q41 276 221.5 436.5t442.5 160.5q267 0 403.5 -130t96.5 -374l-3 -6h-330q20 139 -27 194.5t-179 55.5q-109 0 -187 -92.5t-100 -242.5l-46 -306q-24 -158 29.5 -247.5t179.5 -89.5
q111 0 174 59t83 193h328zM914 1888h370l2 -6l-318 -260h-291l-2 5z" />
    <glyph glyph-name="cacute" unicode="&#x107;" horiz-adv-x="1048" 
d="M515 239q66 0 107 38t52 108h307l2 -6q-24 -184 -165.5 -292t-341.5 -108q-237 0 -353 154.5t-79 395.5l4 23q37 253 191.5 401.5t402.5 148.5q199 0 308.5 -116t76.5 -313l-2 -5h-309q12 80 -15.5 127t-97.5 47q-94 0 -146.5 -80t-71.5 -210l-4 -23q-21 -141 6 -215.5
t128 -74.5zM709 1545h370l2 -6l-318 -260h-291l-2 5z" />
    <glyph glyph-name="Ccircumflex" unicode="&#x108;" horiz-adv-x="1307" 
d="M1227 491l2 -6q-35 -259 -196 -382.5t-430 -123.5q-260 0 -404 167t-104 430l46 304q41 276 221.5 436.5t442.5 160.5q267 0 403.5 -130t96.5 -374l-3 -6h-330q20 139 -27 194.5t-179 55.5q-109 0 -187 -92.5t-100 -242.5l-46 -306q-24 -158 29.5 -247.5t179.5 -89.5
q111 0 174 59t83 193h328zM1246 1630l-3 -22h-265l-118 126l-155 -126h-260l4 26l336 240h193z" />
    <glyph glyph-name="ccircumflex" unicode="&#x109;" horiz-adv-x="1048" 
d="M515 239q66 0 107 38t52 108h307l2 -6q-24 -184 -165.5 -292t-341.5 -108q-237 0 -353 154.5t-79 395.5l4 23q37 253 191.5 401.5t402.5 148.5q199 0 308.5 -116t76.5 -313l-2 -5h-309q12 80 -15.5 127t-97.5 47q-94 0 -146.5 -80t-71.5 -210l-4 -23q-21 -141 6 -215.5
t128 -74.5zM1042 1287l-3 -22h-265l-118 126l-155 -126h-260l4 26l336 240h193z" />
    <glyph glyph-name="uni010A" unicode="&#x10a;" horiz-adv-x="1307" 
d="M1227 491l2 -6q-35 -259 -196 -382.5t-430 -123.5q-260 0 -404 167t-104 430l46 304q41 276 221.5 436.5t442.5 160.5q267 0 403.5 -130t96.5 -374l-3 -6h-330q20 139 -27 194.5t-179 55.5q-109 0 -187 -92.5t-100 -242.5l-46 -306q-24 -158 29.5 -247.5t179.5 -89.5
q111 0 174 59t83 193h328zM1034 1623h-381l39 260h381z" />
    <glyph glyph-name="uni010B" unicode="&#x10b;" horiz-adv-x="1048" 
d="M515 239q66 0 107 38t52 108h307l2 -6q-24 -184 -165.5 -292t-341.5 -108q-237 0 -353 154.5t-79 395.5l4 23q37 253 191.5 401.5t402.5 148.5q199 0 308.5 -116t76.5 -313l-2 -5h-309q12 80 -15.5 127t-97.5 47q-94 0 -146.5 -80t-71.5 -210l-4 -23q-21 -141 6 -215.5
t128 -74.5zM830 1280h-381l39 260h381z" />
    <glyph glyph-name="Ccaron" unicode="&#x10c;" horiz-adv-x="1307" 
d="M1227 491l2 -6q-35 -259 -196 -382.5t-430 -123.5q-260 0 -404 167t-104 430l46 304q41 276 221.5 436.5t442.5 160.5q267 0 403.5 -130t96.5 -374l-3 -6h-330q20 139 -27 194.5t-179 55.5q-109 0 -187 -92.5t-100 -242.5l-46 -306q-24 -158 29.5 -247.5t179.5 -89.5
q111 0 174 59t83 193h328zM868 1782l119 116h309l-2 -16l-331 -260h-239l-255 262l2 14h312z" />
    <glyph glyph-name="ccaron" unicode="&#x10d;" horiz-adv-x="1048" 
d="M515 239q66 0 107 38t52 108h307l2 -6q-24 -184 -165.5 -292t-341.5 -108q-237 0 -353 154.5t-79 395.5l4 23q37 253 191.5 401.5t402.5 148.5q199 0 308.5 -116t76.5 -313l-2 -5h-309q12 80 -15.5 127t-97.5 47q-94 0 -146.5 -80t-71.5 -210l-4 -23q-21 -141 6 -215.5
t128 -74.5zM663 1439l119 116h309l-2 -16l-331 -260h-239l-255 262l2 14h312z" />
    <glyph glyph-name="Dcaron" unicode="&#x10e;" horiz-adv-x="1338" 
d="M787 1456q247 0 399.5 -169t114.5 -428l-39 -262q-42 -273 -237.5 -435t-455.5 -162h-533l218 1456h533zM553 1196l-140 -936h195q110 0 201 95t114 242l39 264q22 153 -38 244t-176 91h-195zM764 1761l119 116h309l-2 -16l-331 -260h-239l-255 262l2 14h312z" />
    <glyph glyph-name="dcaron" unicode="&#x10f;" 
d="M52 539q39 262 171 412.5t335 150.5q73 0 129 -36.5t94 -104.5l90 599h338l-234 -1560h-296l-3 131q-59 -73 -131.5 -112.5t-156.5 -39.5q-192 0 -284 150t-55 389zM387 518q-21 -136 6.5 -207.5t119.5 -71.5q51 0 95 20.5t76 59.5l66 434q-19 43 -56 66t-89 23
q-86 0 -140.5 -84.5t-74.5 -218.5zM1526 1388l-168 -235h-134l98 245l24 161h206z" />
    <glyph glyph-name="Dcroat" unicode="&#x110;" horiz-adv-x="1338" 
d="M787 1456q247 0 399.5 -169t114.5 -428l-39 -262q-42 -273 -237.5 -435t-455.5 -162h-533l97 647h-120l29 191h119l93 618h533zM699 647h-228l-58 -387h195q110 0 201 95t114 242l39 264q22 153 -38 244t-176 91h-195l-54 -358h229z" />
    <glyph glyph-name="dcroat" unicode="&#x111;" 
d="M1274 1215h-117l-182 -1215h-296l-3 131q-59 -73 -131.5 -112.5t-156.5 -39.5q-192 0 -284 150t-55 389l3 21q39 262 171 412.5t335 150.5q73 0 129 -36.5t94 -104.5l38 254h-231l29 191h231l23 154h338l-23 -154h117zM387 518q-21 -136 6.5 -207.5t119.5 -71.5
q51 0 95 20.5t76 59.5l66 434q-19 43 -56 66t-89 23q-86 0 -140.5 -84.5t-74.5 -218.5z" />
    <glyph glyph-name="Emacron" unicode="&#x112;" horiz-adv-x="1143" 
d="M980 623h-513l-54 -363h615l-39 -260h-953l218 1456h954l-39 -260h-616l-47 -313h513zM1112 1601h-734l24 173h734z" />
    <glyph glyph-name="emacron" unicode="&#x113;" horiz-adv-x="1070" 
d="M493 -21q-236 0 -358 150.5t-88 375.5l5 38q38 257 191.5 408.5t404.5 150.5q210 0 315 -132.5t72 -357.5l-27 -177h-621l-2 -6q-5 -87 42 -138.5t151 -51.5q93 0 163 16.5t156 50.5l50 -206q-77 -51 -200.5 -86t-253.5 -35zM609 842q-78 0 -124.5 -51.5t-67.5 -138.5
l2 -6h291l4 26q13 87 -10.5 128.5t-94.5 41.5zM1010 1281h-734l24 173h734z" />
    <glyph glyph-name="Ebreve" unicode="&#x114;" horiz-adv-x="1143" 
d="M980 623h-513l-54 -363h615l-39 -260h-953l218 1456h954l-39 -260h-616l-47 -313h513zM1151 1908l2 -6q-15 -138 -125 -219.5t-280 -81.5q-163 0 -254 84.5t-67 216.5l2 6h244q-7 -49 17.5 -78t85.5 -29q57 0 91 30.5t41 76.5h243z" />
    <glyph glyph-name="ebreve" unicode="&#x115;" horiz-adv-x="1070" 
d="M493 -21q-236 0 -358 150.5t-88 375.5l5 38q38 257 191.5 408.5t404.5 150.5q210 0 315 -132.5t72 -357.5l-27 -177h-621l-2 -6q-5 -87 42 -138.5t151 -51.5q93 0 163 16.5t156 50.5l50 -206q-77 -51 -200.5 -86t-253.5 -35zM609 842q-78 0 -124.5 -51.5t-67.5 -138.5
l2 -6h291l4 26q13 87 -10.5 128.5t-94.5 41.5zM1049 1587l2 -6q-15 -138 -125 -219.5t-280 -81.5q-163 0 -254 84.5t-67 216.5l2 6h244q-7 -49 17.5 -78t85.5 -29q57 0 91 30.5t41 76.5h243z" />
    <glyph glyph-name="Edotaccent" unicode="&#x116;" horiz-adv-x="1143" 
d="M980 623h-513l-54 -363h615l-39 -260h-953l218 1456h954l-39 -260h-616l-47 -313h513zM944 1602h-381l39 260h381z" />
    <glyph glyph-name="edotaccent" unicode="&#x117;" horiz-adv-x="1070" 
d="M493 -21q-236 0 -358 150.5t-88 375.5l5 38q38 257 191.5 408.5t404.5 150.5q210 0 315 -132.5t72 -357.5l-27 -177h-621l-2 -6q-5 -87 42 -138.5t151 -51.5q93 0 163 16.5t156 50.5l50 -206q-77 -51 -200.5 -86t-253.5 -35zM609 842q-78 0 -124.5 -51.5t-67.5 -138.5
l2 -6h291l4 26q13 87 -10.5 128.5t-94.5 41.5zM842 1281h-381l39 260h381z" />
    <glyph glyph-name="Eogonek" unicode="&#x118;" horiz-adv-x="1143" 
d="M980 623h-513l-54 -363h615l-39 -260h-953l218 1456h954l-39 -260h-616l-47 -313h513zM589 0q-51 -52 -74.5 -84.5t-30.5 -79.5q-3 -19 8.5 -39t63.5 -20q27 0 49.5 5.5t43.5 12.5l11 -168q-38 -19 -85 -31.5t-108 -12.5q-111 0 -178 57t-52 157q11 78 59.5 143.5
t139.5 119.5z" />
    <glyph glyph-name="eogonek" unicode="&#x119;" horiz-adv-x="1070" 
d="M493 -21q-236 0 -358 150.5t-88 375.5l5 38q38 257 191.5 408.5t404.5 150.5q210 0 315 -132.5t72 -357.5l-27 -177h-621l-2 -6q-5 -87 42 -138.5t151 -51.5q93 0 163 16.5t156 50.5l50 -206q-77 -51 -200.5 -86t-253.5 -35zM609 842q-78 0 -124.5 -51.5t-67.5 -138.5
l2 -6h291l4 26q13 87 -10.5 128.5t-94.5 41.5zM795 33q-51 -52 -74.5 -84.5t-30.5 -79.5q-3 -19 8.5 -39t63.5 -20q27 0 49.5 5.5t43.5 12.5l11 -168q-38 -19 -85 -31.5t-108 -12.5q-111 0 -178 57t-52 157q11 78 59.5 143.5t139.5 119.5z" />
    <glyph glyph-name="Ecaron" unicode="&#x11a;" horiz-adv-x="1143" 
d="M980 623h-513l-54 -363h615l-39 -260h-953l218 1456h954l-39 -260h-616l-47 -313h513zM777 1761l119 116h309l-2 -16l-331 -260h-239l-255 262l2 14h312z" />
    <glyph glyph-name="ecaron" unicode="&#x11b;" horiz-adv-x="1070" 
d="M493 -21q-236 0 -358 150.5t-88 375.5l5 38q38 257 191.5 408.5t404.5 150.5q210 0 315 -132.5t72 -357.5l-27 -177h-621l-2 -6q-5 -87 42 -138.5t151 -51.5q93 0 163 16.5t156 50.5l50 -206q-77 -51 -200.5 -86t-253.5 -35zM609 842q-78 0 -124.5 -51.5t-67.5 -138.5
l2 -6h291l4 26q13 87 -10.5 128.5t-94.5 41.5zM675 1440l119 116h309l-2 -16l-331 -260h-239l-255 262l2 14h312z" />
    <glyph glyph-name="Gcircumflex" unicode="&#x11c;" horiz-adv-x="1353" 
d="M1216 201q-89 -92 -236.5 -157t-365.5 -65q-260 0 -410 167.5t-110 429.5l46 304q41 274 228.5 435.5t449.5 161.5q268 0 397 -126t92 -339l-2 -6h-318q16 111 -32.5 161t-164.5 50q-114 0 -202.5 -94t-110.5 -241l-46 -306q-24 -157 34 -247t188 -90q89 0 147.5 15
t91.5 40l39 260h-258l34 224h596zM1242 1630l-3 -22h-265l-118 126l-155 -126h-260l4 26l336 240h193z" />
    <glyph glyph-name="gcircumflex" unicode="&#x11d;" 
d="M51 539q39 262 171 412.5t335 150.5q83 0 141.5 -42t95.5 -119l44 141h298l-160 -1070q-34 -222 -196 -335.5t-422 -113.5q-81 0 -172 23t-167 62l96 250q68 -32 132 -47.5t150 -15.5q104 0 165 43.5t75 135.5l12 83q-55 -58 -120 -88t-142 -30q-192 0 -284 150t-55 389z
M385 518q-21 -136 6.5 -207.5t120.5 -71.5q54 0 96.5 18t72.5 54l68 451q-19 39 -55 59.5t-90 20.5q-86 0 -141 -84.5t-75 -218.5zM1067 1287l-3 -22h-265l-118 126l-155 -126h-260l4 26l336 240h193z" />
    <glyph glyph-name="Gbreve" unicode="&#x11e;" horiz-adv-x="1353" 
d="M1216 201q-89 -92 -236.5 -157t-365.5 -65q-260 0 -410 167.5t-110 429.5l46 304q41 274 228.5 435.5t449.5 161.5q268 0 397 -126t92 -339l-2 -6h-318q16 111 -32.5 161t-164.5 50q-114 0 -202.5 -94t-110.5 -241l-46 -306q-24 -157 34 -247t188 -90q89 0 147.5 15
t91.5 40l39 260h-258l34 224h596zM1237 1929l2 -6q-15 -138 -125 -219.5t-280 -81.5q-163 0 -254 84.5t-67 216.5l2 6h244q-7 -49 17.5 -78t85.5 -29q57 0 91 30.5t41 76.5h243z" />
    <glyph glyph-name="gbreve" unicode="&#x11f;" 
d="M51 539q39 262 171 412.5t335 150.5q83 0 141.5 -42t95.5 -119l44 141h298l-160 -1070q-34 -222 -196 -335.5t-422 -113.5q-81 0 -172 23t-167 62l96 250q68 -32 132 -47.5t150 -15.5q104 0 165 43.5t75 135.5l12 83q-55 -58 -120 -88t-142 -30q-192 0 -284 150t-55 389z
M385 518q-21 -136 6.5 -207.5t120.5 -71.5q54 0 96.5 18t72.5 54l68 451q-19 39 -55 59.5t-90 20.5q-86 0 -141 -84.5t-75 -218.5zM1062 1586l2 -6q-15 -138 -125 -219.5t-280 -81.5q-163 0 -254 84.5t-67 216.5l2 6h244q-7 -49 17.5 -78t85.5 -29q57 0 91 30.5t41 76.5h243
z" />
    <glyph glyph-name="uni0120" unicode="&#x120;" horiz-adv-x="1353" 
d="M1216 201q-89 -92 -236.5 -157t-365.5 -65q-260 0 -410 167.5t-110 429.5l46 304q41 274 228.5 435.5t449.5 161.5q268 0 397 -126t92 -339l-2 -6h-318q16 111 -32.5 161t-164.5 50q-114 0 -202.5 -94t-110.5 -241l-46 -306q-24 -157 34 -247t188 -90q89 0 147.5 15
t91.5 40l39 260h-258l34 224h596zM1030 1623h-381l39 260h381z" />
    <glyph glyph-name="uni0121" unicode="&#x121;" 
d="M51 539q39 262 171 412.5t335 150.5q83 0 141.5 -42t95.5 -119l44 141h298l-160 -1070q-34 -222 -196 -335.5t-422 -113.5q-81 0 -172 23t-167 62l96 250q68 -32 132 -47.5t150 -15.5q104 0 165 43.5t75 135.5l12 83q-55 -58 -120 -88t-142 -30q-192 0 -284 150t-55 389z
M385 518q-21 -136 6.5 -207.5t120.5 -71.5q54 0 96.5 18t72.5 54l68 451q-19 39 -55 59.5t-90 20.5q-86 0 -141 -84.5t-75 -218.5zM855 1280h-381l39 260h381z" />
    <glyph glyph-name="Gcommaaccent" unicode="&#x122;" horiz-adv-x="1353" 
d="M1216 201q-89 -92 -236.5 -157t-365.5 -65q-260 0 -410 167.5t-110 429.5l46 304q41 274 228.5 435.5t449.5 161.5q268 0 397 -126t92 -339l-2 -6h-318q16 111 -32.5 161t-164.5 50q-114 0 -202.5 -94t-110.5 -241l-46 -306q-24 -157 34 -247t188 -90q89 0 147.5 15
t91.5 40l39 260h-258l34 224h596zM677 -272l-168 -235h-134l98 245l24 161h206z" />
    <glyph glyph-name="gcommaaccent" unicode="&#x123;" 
d="M51 539q39 262 171 412.5t335 150.5q83 0 141.5 -42t95.5 -119l44 141h298l-160 -1070q-34 -222 -196 -335.5t-422 -113.5q-81 0 -172 23t-167 62l96 250q68 -32 132 -47.5t150 -15.5q104 0 165 43.5t75 135.5l12 83q-55 -58 -120 -88t-142 -30q-192 0 -284 150t-55 389z
M385 518q-21 -136 6.5 -207.5t120.5 -71.5q54 0 96.5 18t72.5 54l68 451q-19 39 -55 59.5t-90 20.5q-86 0 -141 -84.5t-75 -218.5zM556 1451l149 265h191l-85 -275l-27 -180h-257z" />
    <glyph glyph-name="Hcircumflex" unicode="&#x124;" horiz-adv-x="1446" 
d="M1250 0h-337l87 586h-539l-87 -586h-338l218 1456h338l-92 -610h539l92 610h337zM1287 1609l-3 -22h-265l-118 126l-155 -126h-260l4 26l336 240h193z" />
    <glyph glyph-name="hcircumflex" unicode="&#x125;" 
d="M487 955q60 71 135.5 109t161.5 38q162 0 243.5 -118.5t44.5 -361.5l-93 -622h-338l94 624q18 129 -6.5 173.5t-90.5 44.5q-56 0 -100 -17.5t-78 -49.5l-116 -775h-338l234 1560h338zM1086 1612l-3 -22h-265l-118 126l-155 -126h-260l4 26l336 240h193z" />
    <glyph glyph-name="Hbar" unicode="&#x126;" horiz-adv-x="1447" 
d="M1439 1213h107l-27 -183h-107l-154 -1030h-337l87 586h-539l-87 -586h-338l154 1030h-114l27 183h114l37 243h338l-37 -243h539l37 243h337zM508 846h539l28 184h-539z" />
    <glyph glyph-name="hbar" unicode="&#x127;" 
d="M782 1211h-256l-39 -256q60 71 135.5 109t161.5 38q162 0 243.5 -118.5t44.5 -361.5l-93 -622h-338l94 624q18 129 -6.5 173.5t-90.5 44.5q-56 0 -100 -17.5t-78 -49.5l-116 -775h-338l181 1211h-91l28 191h92l24 158h338l-24 -158h256z" />
    <glyph glyph-name="Itilde" unicode="&#x128;" horiz-adv-x="611" 
d="M394 0h-337l218 1456h337zM883 1861q-14 -99 -82.5 -166t-159.5 -67q-66 0 -157 42t-143 42q-32 0 -59.5 -32.5t-32.5 -77.5l-171 50q13 97 82 165t160 68q53 0 149.5 -41.5t149.5 -41.5q30 0 58.5 32.5t34.5 77.5z" />
    <glyph glyph-name="itilde" unicode="&#x129;" horiz-adv-x="584" 
d="M382 0h-339l162 1082h339zM820 1518q-14 -99 -82.5 -166t-159.5 -67q-66 0 -157 42t-143 42q-32 0 -59.5 -32.5t-32.5 -77.5l-171 50q13 97 82 165t160 68q53 0 149.5 -41.5t149.5 -41.5q30 0 58.5 32.5t34.5 77.5z" />
    <glyph glyph-name="Imacron" unicode="&#x12a;" horiz-adv-x="611" 
d="M394 0h-337l218 1456h337zM825 1601h-734l24 173h734z" />
    <glyph glyph-name="imacron" unicode="&#x12b;" horiz-adv-x="584" 
d="M382 0h-339l162 1082h339zM762 1259h-734l24 173h734z" />
    <glyph glyph-name="Ibreve" unicode="&#x12c;" horiz-adv-x="611" 
d="M394 0h-337l218 1456h337zM864 1908l2 -6q-15 -138 -125 -219.5t-280 -81.5q-163 0 -254 84.5t-67 216.5l2 6h244q-7 -49 17.5 -78t85.5 -29q57 0 91 30.5t41 76.5h243z" />
    <glyph glyph-name="ibreve" unicode="&#x12d;" horiz-adv-x="584" 
d="M382 0h-339l162 1082h339zM800 1565l2 -6q-15 -138 -125 -219.5t-280 -81.5q-163 0 -254 84.5t-67 216.5l2 6h244q-7 -49 17.5 -78t85.5 -29q57 0 91 30.5t41 76.5h243z" />
    <glyph glyph-name="Iogonek" unicode="&#x12e;" horiz-adv-x="611" 
d="M394 0h-337l218 1456h337zM279 0q-51 -52 -74.5 -84.5t-30.5 -79.5q-3 -19 8.5 -39t63.5 -20q27 0 49.5 5.5t43.5 12.5l11 -168q-38 -19 -85 -31.5t-108 -12.5q-111 0 -178 57t-52 157q11 78 59.5 143.5t139.5 119.5z" />
    <glyph glyph-name="iogonek" unicode="&#x12f;" horiz-adv-x="561" 
d="M370 0h-339l162 1082h339zM570 1333h-339l34 227h339zM255 0q-51 -52 -74.5 -84.5t-30.5 -79.5q-3 -19 8.5 -39t63.5 -20q27 0 49.5 5.5t43.5 12.5l11 -168q-38 -19 -85 -31.5t-108 -12.5q-111 0 -178 57t-52 157q11 78 59.5 143.5t139.5 119.5z" />
    <glyph glyph-name="Idotaccent" unicode="&#x130;" horiz-adv-x="611" 
d="M394 0h-337l218 1456h337zM656 1602h-381l39 260h381z" />
    <glyph glyph-name="dotlessi" unicode="&#x131;" horiz-adv-x="584" 
d="M382 0h-339l162 1082h339z" />
    <glyph glyph-name="IJ" unicode="&#x132;" horiz-adv-x="1755" 
d="M394 0h-337l218 1456h337zM1441 1456h338l-148 -989q-35 -231 -189.5 -359.5t-371.5 -128.5q-237 0 -366.5 119.5t-91.5 341.5l2 6h331q-17 -112 29.5 -159.5t134.5 -47.5q63 0 115.5 61t68.5 167z" />
    <glyph glyph-name="ij" unicode="&#x133;" horiz-adv-x="1109" 
d="M370 0h-339l162 1082h339zM570 1333h-339l34 227h339zM1097 1082l-164 -1097q-32 -210 -155.5 -316t-318.5 -106q-42 0 -79 4t-77 13l52 255q28 -6 48 -9t51 -3q55 0 91.5 41.5t48.5 120.5l164 1097h339zM1129 1334h-339l34 226h339z" />
    <glyph glyph-name="Jcircumflex" unicode="&#x134;" horiz-adv-x="1144" 
d="M830 1456h338l-148 -989q-35 -231 -189.5 -359.5t-371.5 -128.5q-237 0 -366.5 119.5t-91.5 341.5l2 6h331q-17 -112 29.5 -159.5t134.5 -47.5q63 0 115.5 61t68.5 167zM1401 1609l-3 -22h-265l-118 126l-155 -126h-260l4 26l336 240h193z" />
    <glyph glyph-name="jcircumflex" unicode="&#x135;" horiz-adv-x="604" 
d="M558 1082l-164 -1097q-32 -210 -155 -316t-318 -106q-42 0 -79 4t-77 13l53 255q27 -6 46.5 -9t49.5 -3q56 0 93.5 42t49.5 120l164 1097h337zM788 1267l-3 -22h-265l-118 126l-155 -126h-260l4 26l336 240h193z" />
    <glyph glyph-name="Kcommaaccent" unicode="&#x136;" horiz-adv-x="1306" 
d="M558 578h-96l-86 -578h-338l218 1456h338l-87 -576h91l346 576h446l-527 -721l328 -735h-390zM630 -262l-168 -235h-134l98 245l24 161h206z" />
    <glyph glyph-name="kcommaaccent" unicode="&#x137;" horiz-adv-x="1119" 
d="M479 430h-61l-64 -430h-338l234 1560h338l-132 -875h49l287 397h380l2 -5l-400 -483l298 -594h-385zM558 -262l-168 -235h-134l98 245l24 161h206z" />
    <glyph glyph-name="kgreenlandic" unicode="&#x138;" horiz-adv-x="1242" 
d="M552 378h-121l-56 -378h-337l162 1082h337l-59 -389h91l283 389h425l2 -5l-426 -500l10 5l267 -582h-434z" />
    <glyph glyph-name="Lacute" unicode="&#x139;" horiz-adv-x="1144" 
d="M413 260h625l-39 -260h-963l218 1456h338zM519 1867h370l2 -6l-318 -260h-291l-2 5z" />
    <glyph glyph-name="lacute" unicode="&#x13a;" horiz-adv-x="561" 
d="M370 0h-339l234 1560h339zM516 1904h370l2 -6l-318 -260h-291l-2 5z" />
    <glyph glyph-name="Lcommaaccent" unicode="&#x13b;" horiz-adv-x="1144" 
d="M413 260h625l-39 -260h-963l218 1456h338zM575 -262l-168 -235h-134l98 245l24 161h206z" />
    <glyph glyph-name="lcommaaccent" unicode="&#x13c;" horiz-adv-x="561" 
d="M370 0h-339l234 1560h339zM257 -262l-168 -235h-134l98 245l24 161h206z" />
    <glyph glyph-name="Lcaron" unicode="&#x13d;" horiz-adv-x="1144" 
d="M413 260h625l-39 -260h-963l218 1456h338zM1012 1289l-168 -235h-134l98 245l24 161h206z" />
    <glyph glyph-name="lcaron" unicode="&#x13e;" horiz-adv-x="561" 
d="M370 0h-339l234 1560h339zM928 1388l-168 -235h-134l98 245l24 161h206z" />
    <glyph glyph-name="Ldot" unicode="&#x13f;" horiz-adv-x="1144" 
d="M413 260h625l-39 -260h-963l218 1456h338zM998 677h-381l39 260h381z" />
    <glyph glyph-name="ldot" unicode="&#x140;" horiz-adv-x="561" 
d="M370 0h-339l234 1560h339zM781 608h-381l39 260h381z" />
    <glyph glyph-name="Lslash" unicode="&#x141;" horiz-adv-x="1022" 
d="M502 903l241 64l-31 -208l-241 -64l-65 -435h625l-39 -260h-963l90 602l-116 -30l31 208l116 30l97 646h338z" />
    <glyph glyph-name="lslash" unicode="&#x142;" horiz-adv-x="611" 
d="M528 924l144 43l-31 -208l-144 -43l-107 -716h-339l91 611l-132 -39l31 208l132 39l112 741h339z" />
    <glyph glyph-name="Nacute" unicode="&#x143;" horiz-adv-x="1446" 
d="M1250 0h-337l-397 916l-6 -1l-136 -915h-338l218 1456h338l396 -915l6 1l137 914h337zM953 1867h370l2 -6l-318 -260h-291l-2 5z" />
    <glyph glyph-name="nacute" unicode="&#x144;" 
d="M480 935q65 80 149.5 123.5t180.5 43.5q153 0 229 -109t42 -342l-98 -651h-338l98 652q16 107 -10.5 148.5t-90.5 41.5q-53 0 -99 -20t-81 -55l-115 -767h-337l162 1082h317zM758 1545h370l2 -6l-318 -260h-291l-2 5z" />
    <glyph glyph-name="Ncommaaccent" unicode="&#x145;" horiz-adv-x="1446" 
d="M1250 0h-337l-397 916l-6 -1l-136 -915h-338l218 1456h338l396 -915l6 1l137 914h337zM700 -262l-168 -235h-134l98 245l24 161h206z" />
    <glyph glyph-name="ncommaaccent" unicode="&#x146;" 
d="M480 935q65 80 149.5 123.5t180.5 43.5q153 0 229 -109t42 -342l-98 -651h-338l98 652q16 107 -10.5 148.5t-90.5 41.5q-53 0 -99 -20t-81 -55l-115 -767h-337l162 1082h317zM553 -262l-168 -235h-134l98 245l24 161h206z" />
    <glyph glyph-name="Ncaron" unicode="&#x147;" horiz-adv-x="1446" 
d="M1250 0h-337l-397 916l-6 -1l-136 -915h-338l218 1456h338l396 -915l6 1l137 914h337zM907 1761l119 116h309l-2 -16l-331 -260h-239l-255 262l2 14h312z" />
    <glyph glyph-name="ncaron" unicode="&#x148;" 
d="M480 935q65 80 149.5 123.5t180.5 43.5q153 0 229 -109t42 -342l-98 -651h-338l98 652q16 107 -10.5 148.5t-90.5 41.5q-53 0 -99 -20t-81 -55l-115 -767h-337l162 1082h317zM712 1439l119 116h309l-2 -16l-331 -260h-239l-255 262l2 14h312z" />
    <glyph glyph-name="napostrophe" unicode="&#x149;" 
d="M480 935q65 80 149.5 123.5t180.5 43.5q153 0 229 -109t42 -342l-98 -651h-338l98 652q16 107 -10.5 148.5t-90.5 41.5q-53 0 -99 -20t-81 -55l-115 -767h-337l162 1082h317zM370 1388l-168 -235h-134l98 245l24 161h206z" />
    <glyph glyph-name="Eng" unicode="&#x14a;" horiz-adv-x="1449" 
d="M1469 1456l-220 -1471q-32 -210 -155 -316t-318 -106q-43 0 -80.5 4t-76.5 13l52 255q28 -6 47 -9t51 -3q54 0 92.5 42t50.5 120l2 15l-397 916l-6 -1l-136 -915h-338l218 1456h338l396 -916l6 1l137 915h337z" />
    <glyph glyph-name="eng" unicode="&#x14b;" 
d="M480 934q65 80 150 124t181 44q153 0 229 -109t42 -342l-100 -666q-32 -210 -155 -316t-318 -106q-43 0 -80.5 4t-76.5 13l52 255q28 -6 46.5 -9t51.5 -3q54 0 92 42t50 120l100 667q16 107 -10.5 148.5t-90.5 41.5q-53 0 -99 -20.5t-82 -56.5l-115 -765h-337l162 1082
h317z" />
    <glyph glyph-name="Omacron" unicode="&#x14c;" horiz-adv-x="1416" 
d="M1336 597q-43 -280 -237 -449t-472 -169q-266 0 -417.5 176.5t-110.5 441.5l39 262q41 278 236.5 448t475.5 170q264 0 414 -176.5t111 -441.5zM1038 861q24 162 -34 259t-193 97q-132 0 -222.5 -100.5t-113.5 -255.5l-39 -264q-25 -164 33.5 -261t196.5 -97
q128 0 218.5 101t114.5 257zM1231 1622h-734l24 173h734z" />
    <glyph glyph-name="omacron" unicode="&#x14d;" 
d="M54 551q37 253 196 402t409 149q238 0 357.5 -155t84.5 -396l-3 -21q-39 -254 -197.5 -402.5t-407.5 -148.5q-239 0 -359 154.5t-83 396.5zM389 530q-22 -140 9 -215.5t134 -75.5q95 0 151.5 79t77.5 212l3 21q20 136 -11 213.5t-133 77.5q-96 0 -153 -81t-75 -210z
M1046 1280h-734l24 173h734z" />
    <glyph glyph-name="Obreve" unicode="&#x14e;" horiz-adv-x="1416" 
d="M1336 597q-43 -280 -237 -449t-472 -169q-266 0 -417.5 176.5t-110.5 441.5l39 262q41 278 236.5 448t475.5 170q264 0 414 -176.5t111 -441.5zM1038 861q24 162 -34 259t-193 97q-132 0 -222.5 -100.5t-113.5 -255.5l-39 -264q-25 -164 33.5 -261t196.5 -97
q128 0 218.5 101t114.5 257zM1269 1929l2 -6q-15 -138 -125 -219.5t-280 -81.5q-163 0 -254 84.5t-67 216.5l2 6h244q-7 -49 17.5 -78t85.5 -29q57 0 91 30.5t41 76.5h243z" />
    <glyph glyph-name="obreve" unicode="&#x14f;" 
d="M54 551q37 253 196 402t409 149q238 0 357.5 -155t84.5 -396l-3 -21q-39 -254 -197.5 -402.5t-407.5 -148.5q-239 0 -359 154.5t-83 396.5zM389 530q-22 -140 9 -215.5t134 -75.5q95 0 151.5 79t77.5 212l3 21q20 136 -11 213.5t-133 77.5q-96 0 -153 -81t-75 -210z
M1085 1586l2 -6q-15 -138 -125 -219.5t-280 -81.5q-163 0 -254 84.5t-67 216.5l2 6h244q-7 -49 17.5 -78t85.5 -29q57 0 91 30.5t41 76.5h243z" />
    <glyph glyph-name="Ohungarumlaut" unicode="&#x150;" horiz-adv-x="1416" 
d="M1336 597q-43 -280 -237 -449t-472 -169q-266 0 -417.5 176.5t-110.5 441.5l39 262q41 278 236.5 448t475.5 170q264 0 414 -176.5t111 -441.5zM1038 861q24 162 -34 259t-193 97q-132 0 -222.5 -100.5t-113.5 -255.5l-39 -264q-25 -164 33.5 -261t196.5 -97
q128 0 218.5 101t114.5 257zM1190 1888h301l2 -6l-317 -260h-263l-2 6zM772 1888h304l2 -6l-279 -260h-266l-2 5z" />
    <glyph glyph-name="ohungarumlaut" unicode="&#x151;" 
d="M54 551q37 253 196 402t409 149q238 0 357.5 -155t84.5 -396l-3 -21q-39 -254 -197.5 -402.5t-407.5 -148.5q-239 0 -359 154.5t-83 396.5zM389 530q-22 -140 9 -215.5t134 -75.5q95 0 151.5 79t77.5 212l3 21q20 136 -11 213.5t-133 77.5q-96 0 -153 -81t-75 -210z
M1005 1545h301l2 -6l-317 -260h-263l-2 6zM587 1545h304l2 -6l-279 -260h-266l-2 5z" />
    <glyph glyph-name="OE" unicode="&#x152;" horiz-adv-x="1995" 
d="M1724 0h-794q-92 -10 -158 -15.5t-133 -5.5q-269 0 -424.5 167.5t-115.5 429.5l46 304q41 275 237.5 436t479.5 161q66 0 138.5 -6t147.5 -15h795l-39 -260h-616l-47 -313h513l-39 -260h-513l-54 -363h615zM678 239q31 0 63.5 1.5t65.5 4.5l145 966q-31 2 -63.5 4
t-65.5 2q-133 0 -225 -86t-116 -249l-46 -306q-26 -172 38 -254.5t204 -82.5z" />
    <glyph glyph-name="oe" unicode="&#x153;" horiz-adv-x="1845" 
d="M1273 -21q-120 0 -212 41t-151 116q-80 -77 -185 -117t-232 -40q-239 0 -359 154.5t-83 396.5l3 21q37 253 196 402t409 149q118 0 209 -41t150 -115q76 76 179.5 116t230.5 40q210 0 315 -132.5t72 -357.5l-27 -177h-621l-2 -6q-5 -87 42 -138.5t151 -51.5
q93 0 163 16.5t156 50.5l50 -206q-77 -51 -200.5 -86t-253.5 -35zM389 530q-22 -140 9 -215.5t134 -75.5q95 0 151.5 79t77.5 212l3 21q20 136 -11 213.5t-133 77.5q-96 0 -153 -81t-75 -210zM1389 842q-78 0 -124.5 -51.5t-67.5 -138.5l2 -6h291l4 26q13 87 -10.5 128.5
t-94.5 41.5z" />
    <glyph glyph-name="Racute" unicode="&#x154;" horiz-adv-x="1306" 
d="M457 558l-83 -558h-338l218 1456h507q244 0 379 -118t105 -319q-19 -118 -90 -198t-196 -129q124 -39 171.5 -128.5t29.5 -217.5l-14 -92q-9 -59 -2.5 -131t43.5 -103l-3 -20h-349q-35 31 -36 108t10 148l14 88q16 108 -30 161t-154 53h-182zM496 818h172q98 0 160.5 47
t76.5 133q13 92 -34 145t-149 53h-169zM866 1867h370l2 -6l-318 -260h-291l-2 5z" />
    <glyph glyph-name="racute" unicode="&#x155;" horiz-adv-x="722" 
d="M733 794l-110 1q-56 0 -97 -22.5t-66 -62.5l-106 -710h-338l162 1082h318l-11 -148l5 -3q42 82 104 126.5t138 44.5q22 0 40.5 -3t37.5 -9zM593 1545h370l2 -6l-318 -260h-291l-2 5z" />
    <glyph glyph-name="Rcommaaccent" unicode="&#x156;" horiz-adv-x="1306" 
d="M457 558l-83 -558h-338l218 1456h507q244 0 379 -118t105 -319q-19 -118 -90 -198t-196 -129q124 -39 171.5 -128.5t29.5 -217.5l-14 -92q-9 -59 -2.5 -131t43.5 -103l-3 -20h-349q-35 31 -36 108t10 148l14 88q16 108 -30 161t-154 53h-182zM496 818h172q98 0 160.5 47
t76.5 133q13 92 -34 145t-149 53h-169zM613 -262l-168 -235h-134l98 245l24 161h206z" />
    <glyph glyph-name="rcommaaccent" unicode="&#x157;" horiz-adv-x="722" 
d="M733 794l-110 1q-56 0 -97 -22.5t-66 -62.5l-106 -710h-338l162 1082h318l-11 -148l5 -3q42 82 104 126.5t138 44.5q22 0 40.5 -3t37.5 -9zM255 -262l-168 -235h-134l98 245l24 161h206z" />
    <glyph glyph-name="Rcaron" unicode="&#x158;" horiz-adv-x="1306" 
d="M457 558l-83 -558h-338l218 1456h507q244 0 379 -118t105 -319q-19 -118 -90 -198t-196 -129q124 -39 171.5 -128.5t29.5 -217.5l-14 -92q-9 -59 -2.5 -131t43.5 -103l-3 -20h-349q-35 31 -36 108t10 148l14 88q16 108 -30 161t-154 53h-182zM496 818h172q98 0 160.5 47
t76.5 133q13 92 -34 145t-149 53h-169zM820 1761l119 116h309l-2 -16l-331 -260h-239l-255 262l2 14h312z" />
    <glyph glyph-name="rcaron" unicode="&#x159;" horiz-adv-x="722" 
d="M733 794l-110 1q-56 0 -97 -22.5t-66 -62.5l-106 -710h-338l162 1082h318l-11 -148l5 -3q42 82 104 126.5t138 44.5q22 0 40.5 -3t37.5 -9zM548 1439l119 116h309l-2 -16l-331 -260h-239l-255 262l2 14h312z" />
    <glyph glyph-name="Sacute" unicode="&#x15a;" horiz-adv-x="1273" 
d="M867 363q13 89 -38 132.5t-198 98.5q-259 85 -388 202t-102 295q27 179 188.5 282.5t389.5 103.5q248 0 389 -119t105 -327l-2 -6h-329q12 86 -44.5 139t-157.5 53q-74 0 -133 -36t-67 -88q-12 -81 45 -121t242 -105q236 -77 351 -195t87 -307q-29 -187 -187.5 -286.5
t-392.5 -99.5q-240 0 -406.5 109t-126.5 337l2 6h328q-17 -107 58.5 -149.5t183.5 -42.5q74 0 134.5 35.5t68.5 88.5zM869 1888h370l2 -6l-318 -260h-291l-2 5z" />
    <glyph glyph-name="sacute" unicode="&#x15b;" horiz-adv-x="1048" 
d="M628 304q5 41 -35.5 72t-158.5 56q-184 37 -269 114.5t-66 213.5q20 148 153 245t340 97q208 0 326 -97.5t92 -248.5l-2 -6h-329q9 66 -18.5 98t-100.5 32q-52 0 -93 -29t-46 -74q-7 -44 30.5 -73.5t160.5 -53.5q193 -39 277 -116.5t65 -219.5q-22 -152 -162.5 -243.5
t-356.5 -91.5q-211 0 -328 113t-92 249l2 6h306q-9 -77 30.5 -111t121.5 -34q66 0 106 27t47 75zM694 1545h370l2 -6l-318 -260h-291l-2 5z" />
    <glyph glyph-name="Scircumflex" unicode="&#x15c;" horiz-adv-x="1273" 
d="M867 363q13 89 -38 132.5t-198 98.5q-259 85 -388 202t-102 295q27 179 188.5 282.5t389.5 103.5q248 0 389 -119t105 -327l-2 -6h-329q12 86 -44.5 139t-157.5 53q-74 0 -133 -36t-67 -88q-12 -81 45 -121t242 -105q236 -77 351 -195t87 -307q-29 -187 -187.5 -286.5
t-392.5 -99.5q-240 0 -406.5 109t-126.5 337l2 6h328q-17 -107 58.5 -149.5t183.5 -42.5q74 0 134.5 35.5t68.5 88.5zM1201 1630l-3 -22h-265l-118 126l-155 -126h-260l4 26l336 240h193z" />
    <glyph glyph-name="scircumflex" unicode="&#x15d;" horiz-adv-x="1048" 
d="M628 304q5 41 -35.5 72t-158.5 56q-184 37 -269 114.5t-66 213.5q20 148 153 245t340 97q208 0 326 -97.5t92 -248.5l-2 -6h-329q9 66 -18.5 98t-100.5 32q-52 0 -93 -29t-46 -74q-7 -44 30.5 -73.5t160.5 -53.5q193 -39 277 -116.5t65 -219.5q-22 -152 -162.5 -243.5
t-356.5 -91.5q-211 0 -328 113t-92 249l2 6h306q-9 -77 30.5 -111t121.5 -34q66 0 106 27t47 75zM1028 1287l-3 -22h-265l-118 126l-155 -126h-260l4 26l336 240h193z" />
    <glyph glyph-name="Scedilla" unicode="&#x15e;" horiz-adv-x="1273" 
d="M867 363q13 89 -38 132.5t-198 98.5q-259 85 -388 202t-102 295q27 179 188.5 282.5t389.5 103.5q248 0 389 -119t105 -327l-2 -6h-329q12 86 -44.5 139t-157.5 53q-74 0 -133 -36t-67 -88q-12 -81 45 -121t242 -105q236 -77 351 -195t87 -307q-29 -187 -187.5 -286.5
t-392.5 -99.5q-240 0 -406.5 109t-126.5 337l2 6h328q-17 -107 58.5 -149.5t183.5 -42.5q74 0 134.5 35.5t68.5 88.5zM687 1l-20 -61q62 -11 99 -52.5t25 -120.5q-18 -118 -123.5 -183t-287.5 -65l21 186q39 0 66 19t34 58q5 39 -22 54t-101 19l53 146h256z" />
    <glyph glyph-name="scedilla" unicode="&#x15f;" horiz-adv-x="1048" 
d="M628 304q5 41 -35.5 72t-158.5 56q-184 37 -269 114.5t-66 213.5q20 148 153 245t340 97q208 0 326 -97.5t92 -248.5l-2 -6h-329q9 66 -18.5 98t-100.5 32q-52 0 -93 -29t-46 -74q-7 -44 30.5 -73.5t160.5 -53.5q193 -39 277 -116.5t65 -219.5q-22 -152 -162.5 -243.5
t-356.5 -91.5q-211 0 -328 113t-92 249l2 6h306q-9 -77 30.5 -111t121.5 -34q66 0 106 27t47 75zM564 1l-20 -61q62 -11 99 -52.5t25 -120.5q-18 -118 -123.5 -183t-287.5 -65l21 186q39 0 66 19t34 58q5 39 -22 54t-101 19l53 146h256z" />
    <glyph glyph-name="Scaron" unicode="&#x160;" horiz-adv-x="1273" 
d="M867 363q13 89 -38 132.5t-198 98.5q-259 85 -388 202t-102 295q27 179 188.5 282.5t389.5 103.5q248 0 389 -119t105 -327l-2 -6h-329q12 86 -44.5 139t-157.5 53q-74 0 -133 -36t-67 -88q-12 -81 45 -121t242 -105q236 -77 351 -195t87 -307q-29 -187 -187.5 -286.5
t-392.5 -99.5q-240 0 -406.5 109t-126.5 337l2 6h328q-17 -107 58.5 -149.5t183.5 -42.5q74 0 134.5 35.5t68.5 88.5zM823 1782l119 116h309l-2 -16l-331 -260h-239l-255 262l2 14h312z" />
    <glyph glyph-name="scaron" unicode="&#x161;" horiz-adv-x="1048" 
d="M628 304q5 41 -35.5 72t-158.5 56q-184 37 -269 114.5t-66 213.5q20 148 153 245t340 97q208 0 326 -97.5t92 -248.5l-2 -6h-329q9 66 -18.5 98t-100.5 32q-52 0 -93 -29t-46 -74q-7 -44 30.5 -73.5t160.5 -53.5q193 -39 277 -116.5t65 -219.5q-22 -152 -162.5 -243.5
t-356.5 -91.5q-211 0 -328 113t-92 249l2 6h306q-9 -77 30.5 -111t121.5 -34q66 0 106 27t47 75zM648 1439l119 116h309l-2 -16l-331 -260h-239l-255 262l2 14h312z" />
    <glyph glyph-name="Tcommaaccent" unicode="&#x162;" horiz-adv-x="1150" 
d="M1228 1196h-385l-179 -1196h-338l179 1196h-378l39 260h1101zM555 -262l-168 -235h-134l98 245l24 161h206z" />
    <glyph glyph-name="tcommaaccent" unicode="&#x163;" horiz-adv-x="723" 
d="M607 1351l-41 -269h171l-35 -234h-171l-74 -496q-10 -61 9.5 -85t60.5 -24q25 0 42 2t41 8l-15 -250q-52 -13 -94 -18.5t-98 -5.5q-161 0 -237 90t-47 281l74 498h-151l35 234h151l41 269h338zM394 -272l-168 -235h-134l98 245l24 161h206z" />
    <glyph glyph-name="Tcaron" unicode="&#x164;" horiz-adv-x="1150" 
d="M1228 1196h-385l-179 -1196h-338l179 1196h-378l39 260h1101zM762 1761l119 116h309l-2 -16l-331 -260h-239l-255 262l2 14h312z" />
    <glyph glyph-name="tcaron" unicode="&#x165;" horiz-adv-x="723" 
d="M607 1351l-41 -269h171l-35 -234h-171l-74 -496q-10 -61 9.5 -85t60.5 -24q25 0 42 2t41 8l-15 -250q-52 -13 -94 -18.5t-98 -5.5q-161 0 -237 90t-47 281l74 498h-151l35 234h151l41 269h338zM1000 1418l-168 -235h-134l98 245l24 161h206z" />
    <glyph glyph-name="Tbar" unicode="&#x166;" horiz-adv-x="1150" 
d="M958 723h-186l-108 -723h-338l108 723h-162l29 191h162l42 282h-378l39 260h1101l-39 -260h-385l-42 -282h186z" />
    <glyph glyph-name="tbar" unicode="&#x167;" horiz-adv-x="723" 
d="M607 1351l-41 -269h171l-35 -234h-171l-22 -150h184l-29 -191h-184l-23 -155q-10 -61 9.5 -85t60.5 -24q25 0 42 2t41 8l-15 -250q-52 -13 -94 -18.5t-98 -5.5q-161 0 -237 90t-47 281l23 157h-164l29 191h164l22 150h-151l35 234h151l41 269h338z" />
    <glyph glyph-name="Utilde" unicode="&#x168;" horiz-adv-x="1417" 
d="M1447 1456l-141 -944q-40 -260 -224.5 -396.5t-454.5 -136.5q-259 0 -410 143t-113 390l141 944h339l-141 -944q-22 -140 37.5 -206.5t185.5 -66.5q119 0 199.5 69t101.5 204l141 944h339zM1285 1861q-14 -99 -82.5 -166t-159.5 -67q-66 0 -157 42t-143 42
q-32 0 -59.5 -32.5t-32.5 -77.5l-171 50q13 97 82 165t160 68q53 0 149.5 -41.5t149.5 -41.5q30 0 58.5 32.5t34.5 77.5z" />
    <glyph glyph-name="utilde" unicode="&#x169;" 
d="M693 157q-62 -87 -145 -132.5t-184 -45.5q-162 0 -243 119t-44 364l93 620h337l-93 -622q-20 -132 5.5 -176.5t94.5 -44.5q53 0 97 16t77 47l117 780h338l-162 -1082h-272zM1100 1518q-14 -99 -82.5 -166t-159.5 -67q-66 0 -157 42t-143 42q-32 0 -59.5 -32.5
t-32.5 -77.5l-171 50q13 97 82 165t160 68q53 0 149.5 -41.5t149.5 -41.5q30 0 58.5 32.5t34.5 77.5z" />
    <glyph glyph-name="Umacron" unicode="&#x16a;" horiz-adv-x="1417" 
d="M1447 1456l-141 -944q-40 -260 -224.5 -396.5t-454.5 -136.5q-259 0 -410 143t-113 390l141 944h339l-141 -944q-22 -140 37.5 -206.5t185.5 -66.5q119 0 199.5 69t101.5 204l141 944h339zM1227 1601h-734l24 173h734z" />
    <glyph glyph-name="umacron" unicode="&#x16b;" 
d="M693 157q-62 -87 -145 -132.5t-184 -45.5q-162 0 -243 119t-44 364l93 620h337l-93 -622q-20 -132 5.5 -176.5t94.5 -44.5q53 0 97 16t77 47l117 780h338l-162 -1082h-272zM1042 1259h-734l24 173h734z" />
    <glyph glyph-name="Ubreve" unicode="&#x16c;" horiz-adv-x="1417" 
d="M1447 1456l-141 -944q-40 -260 -224.5 -396.5t-454.5 -136.5q-259 0 -410 143t-113 390l141 944h339l-141 -944q-22 -140 37.5 -206.5t185.5 -66.5q119 0 199.5 69t101.5 204l141 944h339zM1266 1908l2 -6q-15 -138 -125 -219.5t-280 -81.5q-163 0 -254 84.5t-67 216.5
l2 6h244q-7 -49 17.5 -78t85.5 -29q57 0 91 30.5t41 76.5h243z" />
    <glyph glyph-name="ubreve" unicode="&#x16d;" 
d="M693 157q-62 -87 -145 -132.5t-184 -45.5q-162 0 -243 119t-44 364l93 620h337l-93 -622q-20 -132 5.5 -176.5t94.5 -44.5q53 0 97 16t77 47l117 780h338l-162 -1082h-272zM1080 1565l2 -6q-15 -138 -125 -219.5t-280 -81.5q-163 0 -254 84.5t-67 216.5l2 6h244
q-7 -49 17.5 -78t85.5 -29q57 0 91 30.5t41 76.5h243z" />
    <glyph glyph-name="Uring" unicode="&#x16e;" horiz-adv-x="1417" 
d="M1447 1456l-141 -944q-40 -260 -224.5 -396.5t-454.5 -136.5q-259 0 -410 143t-113 390l141 944h339l-141 -944q-22 -140 37.5 -206.5t185.5 -66.5q119 0 199.5 69t101.5 204l141 944h339zM700 1751q11 76 73.5 124.5t146.5 48.5q78 0 126.5 -50.5t38.5 -122.5
q-12 -77 -73.5 -123.5t-143.5 -46.5q-80 0 -130 48.5t-38 121.5zM823 1751q-6 -32 11 -51t49 -19q28 0 49.5 19.5t27.5 50.5q4 33 -11 52.5t-45 19.5t-53.5 -20.5t-27.5 -51.5z" />
    <glyph glyph-name="uring" unicode="&#x16f;" 
d="M693 157q-62 -87 -145 -132.5t-184 -45.5q-162 0 -243 119t-44 364l93 620h337l-93 -622q-20 -132 5.5 -176.5t94.5 -44.5q53 0 97 16t77 47l117 780h338l-162 -1082h-272zM515 1408q11 76 73.5 124.5t146.5 48.5q78 0 126.5 -50.5t38.5 -122.5q-12 -77 -73.5 -123.5
t-143.5 -46.5q-80 0 -130 48.5t-38 121.5zM638 1408q-6 -32 11 -51t49 -19q28 0 49.5 19.5t27.5 50.5q4 33 -11 52.5t-45 19.5t-53.5 -20.5t-27.5 -51.5z" />
    <glyph glyph-name="Uhungarumlaut" unicode="&#x170;" horiz-adv-x="1417" 
d="M1447 1456l-141 -944q-40 -260 -224.5 -396.5t-454.5 -136.5q-259 0 -410 143t-113 390l141 944h339l-141 -944q-22 -140 37.5 -206.5t185.5 -66.5q119 0 199.5 69t101.5 204l141 944h339zM1186 1867h301l2 -6l-317 -260h-263l-2 6zM768 1867h304l2 -6l-279 -260h-266
l-2 5z" />
    <glyph glyph-name="uhungarumlaut" unicode="&#x171;" 
d="M693 157q-62 -87 -145 -132.5t-184 -45.5q-162 0 -243 119t-44 364l93 620h337l-93 -622q-20 -132 5.5 -176.5t94.5 -44.5q53 0 97 16t77 47l117 780h338l-162 -1082h-272zM1001 1524h301l2 -6l-317 -260h-263l-2 6zM583 1524h304l2 -6l-279 -260h-266l-2 5z" />
    <glyph glyph-name="Uogonek" unicode="&#x172;" horiz-adv-x="1417" 
d="M1447 1456l-141 -944q-40 -260 -224.5 -396.5t-454.5 -136.5q-259 0 -410 143t-113 390l141 944h339l-141 -944q-22 -140 37.5 -206.5t185.5 -66.5q119 0 199.5 69t101.5 204l141 944h339zM726 0q-51 -52 -74.5 -84.5t-30.5 -79.5q-3 -19 8.5 -39t63.5 -20q27 0 49.5 5.5
t43.5 12.5l11 -168q-38 -19 -85 -31.5t-108 -12.5q-111 0 -178 57t-52 157q11 78 59.5 143.5t139.5 119.5z" />
    <glyph glyph-name="uogonek" unicode="&#x173;" 
d="M693 157q-62 -87 -145 -132.5t-184 -45.5q-162 0 -243 119t-44 364l93 620h337l-93 -622q-20 -132 5.5 -176.5t94.5 -44.5q53 0 97 16t77 47l117 780h338l-162 -1082h-272zM864 0q-51 -52 -74.5 -84.5t-30.5 -79.5q-3 -19 8.5 -39t63.5 -20q27 0 49.5 5.5t43.5 12.5
l11 -168q-38 -19 -85 -31.5t-108 -12.5q-111 0 -178 57t-52 157q11 78 59.5 143.5t139.5 119.5z" />
    <glyph glyph-name="Wcircumflex" unicode="&#x174;" horiz-adv-x="1825" 
d="M1283 513l6 -1l318 944h342l-552 -1456h-318l-110 899l-6 1l-378 -900h-318l-117 1456h343l34 -945l6 -1l389 946h255zM1475 1609l-3 -22h-265l-118 126l-155 -126h-260l4 26l336 240h193z" />
    <glyph glyph-name="wcircumflex" unicode="&#x175;" horiz-adv-x="1485" 
d="M1016 477h6l198 605h322l-416 -1082h-286l-92 554l-6 1l-261 -555h-285l-93 1082h322l17 -608l6 -1l268 609h213zM1253 1267l-3 -22h-265l-118 126l-155 -126h-260l4 26l336 240h193z" />
    <glyph glyph-name="Ycircumflex" unicode="&#x176;" horiz-adv-x="1307" 
d="M692 819l6 -1l386 638h366l-636 -944l-76 -512h-337l79 528l-347 928h366zM1225 1609l-3 -22h-265l-118 126l-155 -126h-260l4 26l336 240h193z" />
    <glyph glyph-name="ycircumflex" unicode="&#x177;" horiz-adv-x="1053" 
d="M507 477v-5l6 -2l270 612h360l-617 -1243q-67 -120 -158.5 -198t-263.5 -78q-42 0 -71 6t-85 20l78 241q12 -3 19.5 -4.5t18.5 -1.5q76 0 118.5 24t67.5 70l37 70l-210 1094h359zM1039 1267l-3 -22h-265l-118 126l-155 -126h-260l4 26l336 240h193z" />
    <glyph glyph-name="Ydieresis" unicode="&#x178;" horiz-adv-x="1307" 
d="M692 819l6 -1l386 638h366l-636 -944l-76 -512h-337l79 528l-347 928h366zM1217 1601h-290l29 204h290zM702 1601h-290l29 204h290z" />
    <glyph glyph-name="Zacute" unicode="&#x179;" horiz-adv-x="1131" 
d="M445 260h631l-39 -260h-1022l-21 152l713 1044h-534l39 260h972l-21 -146zM828 1870h370l2 -6l-318 -260h-291l-2 5z" />
    <glyph glyph-name="zacute" unicode="&#x17a;" horiz-adv-x="1053" 
d="M456 265l2 -5h485l-39 -260h-919l28 188l571 629l-2 5h-453l39 260h888l-27 -182zM704 1524h370l2 -6l-318 -260h-291l-2 5z" />
    <glyph glyph-name="Zdotaccent" unicode="&#x17b;" horiz-adv-x="1131" 
d="M445 260h631l-39 -260h-1022l-21 152l713 1044h-534l39 260h972l-21 -146zM949 1605h-381l39 260h381z" />
    <glyph glyph-name="zdotaccent" unicode="&#x17c;" horiz-adv-x="1053" 
d="M456 265l2 -5h485l-39 -260h-919l28 188l571 629l-2 5h-453l39 260h888l-27 -182zM825 1259h-381l39 260h381z" />
    <glyph glyph-name="Zcaron" unicode="&#x17d;" horiz-adv-x="1131" 
d="M445 260h631l-39 -260h-1022l-21 152l713 1044h-534l39 260h972l-21 -146zM782 1764l119 116h309l-2 -16l-331 -260h-239l-255 262l2 14h312z" />
    <glyph glyph-name="zcaron" unicode="&#x17e;" horiz-adv-x="1053" 
d="M456 265l2 -5h485l-39 -260h-919l28 188l571 629l-2 5h-453l39 260h888l-27 -182zM658 1418l119 116h309l-2 -16l-331 -260h-239l-255 262l2 14h312z" />
    <glyph glyph-name="longs" unicode="&#x17f;" horiz-adv-x="539" 
d="M14 0l179 1194q29 194 154 290.5t332 96.5q37 0 77.5 -6t86.5 -15l-61 -249q-28 5 -49 7.5t-51 2.5q-62 0 -102.5 -33.5t-48.5 -93.5l-179 -1194h-338z" />
    <glyph glyph-name="florin" unicode="&#x192;" horiz-adv-x="758" 
d="M764 848h-214l-123 -863q-30 -210 -151.5 -316t-316.5 -106q-42 0 -79.5 4t-77.5 13l51 255q28 -6 46.5 -9t49.5 -3q55 0 92 42t49 120l121 863h-156l32 234h156l16 112q27 194 151 290.5t332 96.5q37 0 77.5 -6t86.5 -15l-59 -249q-28 5 -49 7.5t-51 2.5
q-61 0 -101 -33.5t-48 -93.5l-16 -112h214z" />
    <glyph glyph-name="Ohorn" unicode="&#x1a0;" horiz-adv-x="1452" 
d="M1331 597q-43 -280 -237 -449t-472 -169q-266 0 -417.5 176.5t-110.5 441.5l39 262q41 278 236.5 448t475.5 170q135 0 244.5 -50t180.5 -140q98 33 160.5 112.5t80.5 196.5h224q-30 -199 -124.5 -327t-246.5 -184q11 -53 12.5 -110t-6.5 -116zM1033 861q24 162 -34 259
t-193 97q-132 0 -222.5 -100.5t-113.5 -255.5l-39 -264q-25 -164 33.5 -261t196.5 -97q128 0 218.5 101t114.5 257z" />
    <glyph glyph-name="ohorn" unicode="&#x1a1;" horiz-adv-x="1199" 
d="M54 551q37 253 196 402t409 149q110 0 197 -36t146 -101q55 41 91.5 110t51.5 162h226q-24 -155 -97 -260t-190 -158q19 -59 23 -126.5t-6 -141.5l-3 -21q-39 -254 -197.5 -402.5t-407.5 -148.5q-239 0 -359 154.5t-83 396.5zM389 530q-22 -140 9 -215.5t134 -75.5
q95 0 151.5 79t77.5 212l3 21q20 136 -11 213.5t-133 77.5q-96 0 -153 -81t-75 -210z" />
    <glyph glyph-name="Uhorn" unicode="&#x1af;" horiz-adv-x="1475" 
d="M1447 1456l-28 -182l6 -2q85 18 129 102.5t68 241.5h216l2 -5q-35 -255 -141 -388t-310 -157l-83 -554q-40 -260 -224.5 -396.5t-454.5 -136.5q-259 0 -410 143t-113 390l141 944h339l-141 -944q-22 -140 37.5 -206.5t185.5 -66.5q119 0 199.5 69t101.5 204l141 944h339z
" />
    <glyph glyph-name="uhorn" unicode="&#x1b0;" horiz-adv-x="1146" 
d="M1496 1181l2 -6q-24 -181 -121.5 -279t-279.5 -121l-116 -775h-272l-16 157q-62 -87 -145 -132.5t-184 -45.5q-162 0 -243 119t-44 364l93 620h337l-93 -622q-20 -132 5.5 -176.5t94.5 -44.5q53 0 97 16t77 47l117 780h338l-19 -127l5 -2q74 14 115.5 71t56.5 157h195z
" />
    <glyph glyph-name="uni01F0" unicode="&#x1f0;" horiz-adv-x="604" 
d="M558 1082l-164 -1097q-32 -210 -155 -316t-318 -106q-42 0 -79 4t-77 13l53 255q27 -6 46.5 -9t49.5 -3q56 0 93.5 42t49.5 120l164 1097h337zM409 1418l119 116h309l-2 -16l-331 -260h-239l-255 262l2 14h312z" />
    <glyph glyph-name="Aringacute" unicode="&#x1fa;" horiz-adv-x="1307" 
d="M840 283h-432l-127 -283h-356l693 1456h181v-1l1 1h181l258 -1456h-356zM524 543h277l-67 451l-6 1zM1003 2169h282l2 -6l-318 -220h-203l-2 6zM613 1701q12 84 82 138.5t163 54.5q87 0 141.5 -56.5t43.5 -136.5q-13 -87 -81.5 -138.5t-160.5 -51.5q-89 0 -144.5 54
t-43.5 136zM738 1701q-6 -42 16 -66t62 -24q37 0 66 25t35 65q6 43 -14 67.5t-60 24.5q-38 0 -69 -26t-36 -66z" />
    <glyph glyph-name="aringacute" unicode="&#x1fb;" horiz-adv-x="1086" 
d="M641 1q-13 34 -20.5 77t-7.5 90q-57 -86 -129 -137.5t-176 -51.5q-164 0 -248 88.5t-62 237.5q25 167 157 251.5t381 84.5h139l12 77q10 72 -17 107.5t-96 35.5q-57 0 -91 -28t-42 -85l-328 1l-1 6q17 154 160.5 250.5t359.5 96.5q194 0 307 -101t85 -285l-61 -408
q-14 -89 -10 -160.5t22 -147.5zM436 220q59 0 112.5 29.5t78.5 69.5l21 142h-136q-77 0 -121 -39.5t-53 -98.5q-7 -48 20.5 -75.5t77.5 -27.5zM841 1847h282l2 -6l-318 -220h-203l-2 6zM451 1379q12 84 82 138.5t163 54.5q87 0 141.5 -56.5t43.5 -136.5
q-13 -87 -81.5 -138.5t-160.5 -51.5q-89 0 -144.5 54t-43.5 136zM576 1379q-6 -42 16 -66t62 -24q37 0 66 25t35 65q6 43 -14 67.5t-60 24.5q-38 0 -69 -26t-36 -66z" />
    <glyph glyph-name="AEacute" unicode="&#x1fc;" horiz-adv-x="1916" 
d="M1767 0h-897l35 329h-382l-202 -329h-390l953 1456h1040l-39 -264h-550l-34 -316h455l-39 -264h-444l-38 -348h572zM934 599l52 473l-6 2l-292 -475h246zM1159 1867h370l2 -6l-318 -260h-291l-2 5z" />
    <glyph glyph-name="aeacute" unicode="&#x1fd;" horiz-adv-x="1763" 
d="M1192 -21q-121 0 -213.5 38.5t-151.5 110.5q-70 -66 -173.5 -107.5t-235.5 -41.5q-195 0 -296 93.5t-76 251.5q24 165 167.5 248t401.5 83h157l7 46q10 68 -19 104.5t-93 36.5q-67 0 -112.5 -29.5t-51.5 -72.5l-325 18l-2 6q17 152 163 245t371 93q93 0 170.5 -23
t132.5 -66q68 44 152.5 66.5t183.5 22.5q203 0 310.5 -133.5t74.5 -356.5l-27 -177h-621l-2 -6q-9 -91 36.5 -140.5t156.5 -49.5q84 0 150 16.5t145 50.5l50 -206q-74 -51 -192 -86t-238 -35zM517 211q47 0 104.5 24t95.5 58l24 158h-154q-84 0 -140.5 -39t-63.5 -92
q-8 -54 25 -81.5t109 -27.5zM1310 842q-82 0 -128.5 -50.5t-64.5 -139.5l2 -6h291l4 26q12 83 -15 126.5t-89 43.5zM1082 1546h370l2 -6l-318 -260h-291l-2 5z" />
    <glyph glyph-name="Oslashacute" unicode="&#x1fe;" horiz-adv-x="1416" 
d="M1336 597q-43 -280 -237 -449t-472 -169q-76 0 -144.5 15.5t-126.5 46.5l-99 -136h-140l145 199q-100 83 -143.5 211.5t-19.5 281.5l39 262q41 278 236.5 448t475.5 170q98 0 183.5 -27t153.5 -77l105 145h140l-163 -223q69 -84 97 -196t9 -240zM436 597
q-11 -69 -6.5 -126t23.5 -95l6 -2l544 748q-30 45 -78 70t-114 25q-132 0 -222.5 -100.5t-113.5 -255.5zM1038 861q5 33 6 63t-1 51l-5 2l-511 -701q27 -19 61.5 -28t77.5 -9q128 0 218.5 101t114.5 257zM961 1929h370l2 -6l-318 -260h-291l-2 5z" />
    <glyph glyph-name="oslashacute" unicode="&#x1ff;" horiz-adv-x="1152" 
d="M54 551q37 253 196 402t409 149q46 0 89 -7t83 -20l92 144h177l-138 -216q87 -74 123 -191.5t16 -260.5l-3 -21q-39 -254 -197.5 -402.5t-407.5 -148.5q-46 0 -87.5 6.5t-79.5 17.5l-94 -148h-177l139 218q-91 72 -128.5 191t-14.5 266zM389 530q-8 -50 -9.5 -87.5
t3.5 -60.5l6 -1l289 453q-14 3 -28 5.5t-30 2.5q-96 0 -153 -81t-75 -210zM764 551q6 42 7.5 78t-1.5 59l-6 2l-284 -445q11 -3 24 -4.5t28 -1.5q95 0 151.5 79t77.5 212zM720 1539h370l2 -6l-318 -260h-291l-2 5z" />
    <glyph glyph-name="Scommaaccent" unicode="&#x218;" horiz-adv-x="1273" 
d="M867 363q13 89 -38 132.5t-198 98.5q-259 85 -388 202t-102 295q27 179 188.5 282.5t389.5 103.5q248 0 389 -119t105 -327l-2 -6h-329q12 86 -44.5 139t-157.5 53q-74 0 -133 -36t-67 -88q-12 -81 45 -121t242 -105q236 -77 351 -195t87 -307q-29 -187 -187.5 -286.5
t-392.5 -99.5q-240 0 -406.5 109t-126.5 337l2 6h328q-17 -107 58.5 -149.5t183.5 -42.5q74 0 134.5 35.5t68.5 88.5zM609 -282l-168 -235h-134l98 245l24 161h206z" />
    <glyph glyph-name="scommaaccent" unicode="&#x219;" horiz-adv-x="1048" 
d="M628 304q5 41 -35.5 72t-158.5 56q-184 37 -269 114.5t-66 213.5q20 148 153 245t340 97q208 0 326 -97.5t92 -248.5l-2 -6h-329q9 66 -18.5 98t-100.5 32q-52 0 -93 -29t-46 -74q-7 -44 30.5 -73.5t160.5 -53.5q193 -39 277 -116.5t65 -219.5q-22 -152 -162.5 -243.5
t-356.5 -91.5q-211 0 -328 113t-92 249l2 6h306q-9 -77 30.5 -111t121.5 -34q66 0 106 27t47 75zM486 -282l-168 -235h-134l98 245l24 161h206z" />
    <glyph glyph-name="uni0237" unicode="&#x237;" horiz-adv-x="604" 
d="M558 1082l-164 -1097q-32 -210 -155 -316t-318 -106q-42 0 -79 4t-77 13l53 255q27 -6 46.5 -9t49.5 -3q56 0 93.5 42t49.5 120l164 1097h337z" />
    <glyph glyph-name="uni02BC" unicode="&#x2bc;" horiz-adv-x="577" 
d="M521 1162l-139 -250h-167l37 251l44 293h269z" />
    <glyph glyph-name="circumflex" unicode="&#x2c6;" horiz-adv-x="1033" 
d="M1029 1274l-3 -22h-265l-118 126l-155 -126h-260l4 26l336 240h193z" />
    <glyph glyph-name="caron" unicode="&#x2c7;" horiz-adv-x="985" 
d="M624 1412l119 116h309l-2 -16l-331 -260h-239l-255 262l2 14h312z" />
    <glyph glyph-name="breve" unicode="&#x2d8;" horiz-adv-x="927" 
d="M953 1456l2 -6q-15 -138 -125 -219.5t-280 -81.5q-163 0 -254 84.5t-67 216.5l2 6h244q-7 -49 17.5 -78t85.5 -29q57 0 91 30.5t41 76.5h243z" />
    <glyph glyph-name="dotaccent" unicode="&#x2d9;" horiz-adv-x="664" 
d="M610 1215h-381l39 260h381z" />
    <glyph glyph-name="ring" unicode="&#x2da;" horiz-adv-x="674" 
d="M265 1304q11 76 73.5 124.5t146.5 48.5q78 0 126.5 -50.5t38.5 -122.5q-12 -77 -73.5 -123.5t-143.5 -46.5q-80 0 -130 48.5t-38 121.5zM388 1304q-6 -32 11 -51t49 -19q28 0 49.5 19.5t27.5 50.5q4 33 -11 52.5t-45 19.5t-53.5 -20.5t-27.5 -51.5z" />
    <glyph glyph-name="ogonek" unicode="&#x2db;" horiz-adv-x="645" 
d="M332 0q-51 -52 -74.5 -84.5t-30.5 -79.5q-3 -19 8.5 -39t63.5 -20q27 0 49.5 5.5t43.5 12.5l11 -168q-38 -19 -85 -31.5t-108 -12.5q-111 0 -178 57t-52 157q11 78 59.5 143.5t139.5 119.5z" />
    <glyph glyph-name="tilde" unicode="&#x2dc;" horiz-adv-x="987" 
d="M1019 1480q-14 -99 -82.5 -166t-159.5 -67q-66 0 -157 42t-143 42q-32 0 -59.5 -32.5t-32.5 -77.5l-171 50q13 97 82 165t160 68q53 0 149.5 -41.5t149.5 -41.5q30 0 58.5 32.5t34.5 77.5z" />
    <glyph glyph-name="hungarumlaut" unicode="&#x2dd;" horiz-adv-x="933" 
d="M934 1518h301l2 -6l-317 -260h-263l-2 6zM516 1518h304l2 -6l-279 -260h-266l-2 5z" />
    <glyph glyph-name="uni02F3" unicode="&#x2f3;" horiz-adv-x="659" 
d="M33 -225q11 77 74 125t148 48q79 0 128.5 -50t38.5 -123q-12 -76 -73 -123t-145 -47q-81 0 -131.5 49t-39.5 121zM158 -225q-5 -31 12 -50.5t49 -19.5q29 0 50.5 20t26.5 50q5 34 -10.5 53t-45.5 19q-31 0 -54 -20t-28 -52z" />
    <glyph glyph-name="gravecomb" unicode="&#x300;" horiz-adv-x="0" 
d="M-408.145 1264.03h-207.016l-171.467 343.281l2.09082 7.92188h257.897z" />
    <glyph glyph-name="acutecomb" unicode="&#x301;" horiz-adv-x="0" 
d="M-479.112 1616.16h252.591l1.36523 -7.94531l-217.091 -344.297h-198.66l-1.36523 6.62109z" />
    <glyph glyph-name="tildecomb" unicode="&#x303;" horiz-adv-x="0" 
d="M0 1480q-14 -99 -82.5 -166t-159.5 -67q-66 0 -157 42t-143 42q-32 0 -59.5 -32.5t-32.5 -77.5l-171 50q13 97 82 165t160 68q53 0 149.5 -41.5t149.5 -41.5q30 0 58.5 32.5t34.5 77.5z" />
    <glyph glyph-name="hook" unicode="&#x309;" horiz-adv-x="0" 
d="M-639 1276l-3 126q74 3 107.5 17t33.5 43v6q10 34 -22.5 48.5t-96.5 14.5l28 145q207 0 306.5 -50.5t84.5 -146.5q-9 -62 -58 -97.5t-113 -43.5l-10 -62h-257z" />
    <glyph glyph-name="uni030F" unicode="&#x30f;" horiz-adv-x="0" 
d="M-406 1252h-271l-239 261l2 5h303zM-26 1252h-274l-205 266h312z" />
    <glyph glyph-name="dotbelow" unicode="&#x323;" horiz-adv-x="0" 
d="M-541 -362h-381l39 260h381z" />
    <glyph glyph-name="tonos" unicode="&#x384;" horiz-adv-x="779" 
d="M489 1558h305l2 -5l-256 -281h-171z" />
    <glyph glyph-name="dieresistonos" unicode="&#x385;" horiz-adv-x="1163" 
d="M1105 1252h-280l30 204h280zM537 1252h-280l30 204h280zM717 1770h306l2 -5l-239 -281h-149z" />
    <glyph glyph-name="Alphatonos" unicode="&#x386;" horiz-adv-x="1307" 
d="M840 283h-432l-127 -283h-356l693 1456h181v-1l1 1h181l258 -1456h-356zM524 543h277l-67 451l-6 1zM270 1558h305l2 -5l-256 -281h-171z" />
    <glyph glyph-name="anoteleia" unicode="&#x387;" horiz-adv-x="658" 
d="M497 539h-338l42 284h338z" />
    <glyph glyph-name="Epsilontonos" unicode="&#x388;" horiz-adv-x="1143" 
d="M980 623h-513l-54 -363h615l-39 -260h-953l218 1456h954l-39 -260h-616l-47 -313h513zM-62 1560h305l2 -5l-256 -281h-171z" />
    <glyph glyph-name="Etatonos" unicode="&#x389;" horiz-adv-x="1446" 
d="M1250 0h-337l87 586h-539l-87 -586h-338l218 1456h338l-92 -610h539l92 610h337zM-26 1555h305l2 -5l-256 -281h-171z" />
    <glyph glyph-name="Iotatonos" unicode="&#x38a;" horiz-adv-x="611" 
d="M394 0h-337l218 1456h337zM-15 1560h305l2 -5l-256 -281h-171z" />
    <glyph glyph-name="Omicrontonos" unicode="&#x38c;" horiz-adv-x="1416" 
d="M1336 597q-43 -280 -237 -449t-472 -169q-266 0 -417.5 176.5t-110.5 441.5l39 262q41 278 236.5 448t475.5 170q264 0 414 -176.5t111 -441.5zM1038 861q24 162 -34 259t-193 97q-132 0 -222.5 -100.5t-113.5 -255.5l-39 -264q-25 -164 33.5 -261t196.5 -97
q128 0 218.5 101t114.5 257zM160 1558h305l2 -5l-256 -281h-171z" />
    <glyph glyph-name="Upsilontonos" unicode="&#x38e;" horiz-adv-x="1307" 
d="M692 819l6 -1l386 638h366l-636 -944l-76 -512h-337l79 528l-347 928h366zM-101 1558h305l2 -5l-256 -281h-171z" />
    <glyph glyph-name="Omegatonos" unicode="&#x38f;" horiz-adv-x="1380" 
d="M679 160l16 108q74 40 133 165t93 355l12 81q26 174 -13 259t-136 85q-91 0 -158.5 -89.5t-91.5 -254.5l-12 -81q-36 -241 -14 -360.5t89 -159.5l-1 -4h1l-16 -104l-24 -160h-507l40 264h250q-112 87 -169.5 224.5t-32.5 299.5l12 79q41 278 226.5 444t447.5 166
q248 0 389.5 -173t102.5 -437l-12 -79q-25 -168 -121 -303t-231 -221h252l-40 -264h-509zM140 1558h305l2 -5l-256 -281h-171z" />
    <glyph glyph-name="iotadieresistonos" unicode="&#x390;" horiz-adv-x="685" 
d="M527 1081l-109 -731q-10 -63 6.5 -86.5t64.5 -23.5q30 0 46.5 2t56.5 11l-15 -250q-49 -13 -91 -18.5t-98 -5.5q-169 0 -253 94.5t-56 276.5l109 731h339zM801 1192h-280l30 204h280zM233 1192h-280l30 204h280zM413 1710h306l2 -5l-239 -281h-149z" />
    <glyph glyph-name="Alpha" unicode="&#x391;" horiz-adv-x="1307" 
d="M840 283h-432l-127 -283h-356l693 1456h181v-1l1 1h181l258 -1456h-356zM524 543h277l-67 451l-6 1z" />
    <glyph glyph-name="Beta" unicode="&#x392;" horiz-adv-x="1306" 
d="M36 0l218 1456h477q261 0 402 -101.5t112 -298.5q-16 -107 -75 -187t-166 -120q124 -28 172.5 -115.5t32.5 -202.5q-34 -220 -190.5 -325.5t-427.5 -105.5h-555zM467 625l-54 -365h217q104 0 166.5 43.5t75.5 129.5q13 97 -26.5 143t-148.5 49h-11h-219zM501 849h133
q117 0 186 43t82 126q14 96 -37 137t-173 41h-139z" />
    <glyph glyph-name="Gamma" unicode="&#x393;" horiz-adv-x="1144" 
d="M1192 1196h-638l-179 -1196h-339l218 1456h977z" />
    <glyph glyph-name="Delta" unicode="&#x394;" horiz-adv-x="1517" 
d="M904 1456v-1l1 1h181l354 -1456h-1502l785 1456h181zM428 260h598l-177 800l-6 1z" />
    <glyph glyph-name="Delta" unicode="&#x2206;" horiz-adv-x="1517" 
d="M904 1456v-1l1 1h181l354 -1456h-1502l785 1456h181zM428 260h598l-177 800l-6 1z" />
    <glyph glyph-name="Epsilon" unicode="&#x395;" horiz-adv-x="1143" 
d="M980 623h-513l-54 -363h615l-39 -260h-953l218 1456h954l-39 -260h-616l-47 -313h513z" />
    <glyph glyph-name="Zeta" unicode="&#x396;" horiz-adv-x="1131" 
d="M445 260h631l-39 -260h-1022l-21 152l713 1044h-534l39 260h972l-21 -146z" />
    <glyph glyph-name="Eta" unicode="&#x397;" horiz-adv-x="1446" 
d="M1250 0h-337l87 586h-539l-87 -586h-338l218 1456h338l-92 -610h539l92 610h337z" />
    <glyph glyph-name="Theta" unicode="&#x398;" horiz-adv-x="1416" 
d="M878 589h-315l39 259h315zM1336 597q-43 -280 -237 -449t-472 -169q-266 0 -417.5 176.5t-110.5 441.5l39 262q41 278 236.5 448t475.5 170q264 0 414 -176.5t111 -441.5zM1038 861q24 162 -34 259t-193 97q-132 0 -222.5 -100.5t-113.5 -255.5l-39 -264
q-25 -164 33.5 -261t196.5 -97q128 0 218.5 101t114.5 257z" />
    <glyph glyph-name="Iota" unicode="&#x399;" horiz-adv-x="611" 
d="M394 0h-337l218 1456h337z" />
    <glyph glyph-name="Kappa" unicode="&#x39a;" horiz-adv-x="1306" 
d="M558 578h-96l-86 -578h-338l218 1456h338l-87 -576h91l346 576h446l-527 -721l328 -735h-390z" />
    <glyph glyph-name="Lambda" unicode="&#x39b;" horiz-adv-x="1319" 
d="M281 0h-356l691 1456h363l255 -1456h-355l-117 1061l-7 85l-6 1l-31 -82z" />
    <glyph glyph-name="Mu" unicode="&#x39c;" horiz-adv-x="1783" 
d="M870 438l6 -1l482 1019h447l-218 -1456h-338l140 937l-6 1l-461 -938h-227l-177 924h-6l-138 -924h-338l218 1456h443z" />
    <glyph glyph-name="Nu" unicode="&#x39d;" horiz-adv-x="1446" 
d="M1250 0h-337l-397 916l-6 -1l-136 -915h-338l218 1456h338l396 -915l6 1l137 914h337z" />
    <glyph glyph-name="Xi" unicode="&#x39e;" horiz-adv-x="1157" 
d="M44 260h1003l-39 -260h-1003zM260 856h752l-37 -248h-752zM256 1456h915l-39 -260h-915z" />
    <glyph glyph-name="Omicron" unicode="&#x39f;" horiz-adv-x="1416" 
d="M1336 597q-43 -280 -237 -449t-472 -169q-266 0 -417.5 176.5t-110.5 441.5l39 262q41 278 236.5 448t475.5 170q264 0 414 -176.5t111 -441.5zM1038 861q24 162 -34 259t-193 97q-132 0 -222.5 -100.5t-113.5 -255.5l-39 -264q-25 -164 33.5 -261t196.5 -97
q128 0 218.5 101t114.5 257z" />
    <glyph glyph-name="Pi" unicode="&#x3a0;" horiz-adv-x="1446" 
d="M1250 0h-337l179 1196h-539l-179 -1196h-338l218 1456h1214z" />
    <glyph glyph-name="Rho" unicode="&#x3a1;" horiz-adv-x="1306" 
d="M448 499l-74 -499h-338l218 1456h556q249 0 386 -133.5t106 -345.5q-34 -223 -203.5 -350.5t-431.5 -127.5h-219zM487 759h219q106 0 175 61.5t83 154.5q14 100 -34 160.5t-159 60.5h-218z" />
    <glyph glyph-name="Sigma" unicode="&#x3a3;" horiz-adv-x="1157" 
d="M885 731l-391 -466l2 -5h572l-39 -260h-1036l23 152l513 586l-340 568l22 150h1021l-39 -260h-559l253 -451z" />
    <glyph glyph-name="Tau" unicode="&#x3a4;" horiz-adv-x="1150" 
d="M1228 1196h-385l-179 -1196h-338l179 1196h-378l39 260h1101z" />
    <glyph glyph-name="Upsilon" unicode="&#x3a5;" horiz-adv-x="1307" 
d="M692 819l6 -1l386 638h366l-636 -944l-76 -512h-337l79 528l-347 928h366z" />
    <glyph glyph-name="Phi" unicode="&#x3a6;" horiz-adv-x="1541" 
d="M1062 1269q245 -20 380.5 -169t101.5 -381q-37 -237 -210 -376.5t-434 -156.5l-28 -186h-337l28 186q-248 18 -385.5 161.5t-103.5 369.5q36 246 211.5 390.5t439.5 161.5l28 187h337zM405 717q-18 -112 35 -172.5t160 -68.5l6 1l75 499l-6 3q-105 -12 -179.5 -80
t-90.5 -182zM1213 719q18 120 -33.5 185t-155.5 76l-6 -2l-75 -498l6 -3q103 10 175 72.5t89 169.5z" />
    <glyph glyph-name="Chi" unicode="&#x3a7;" horiz-adv-x="1307" 
d="M711 972l6 -1l309 485h390l-525 -722l339 -734h-410l-173 501l-323 -501h-390l538 734l-309 722h387z" />
    <glyph glyph-name="Psi" unicode="&#x3a8;" horiz-adv-x="1517" 
d="M953 633l5 -2q100 13 161.5 97.5t85.5 240.5l73 487h339l-73 -487q-42 -279 -208 -433.5t-425 -177.5l-53 -358h-337l53 357q-250 20 -379.5 181t-88.5 431l73 487h337l-73 -487q-24 -158 19 -241t148 -97l5 1l124 824h337z" />
    <glyph glyph-name="Omega" unicode="&#x3a9;" horiz-adv-x="1380" 
d="M679 160l16 108q74 40 133 165t93 355l12 81q26 174 -13 259t-136 85q-91 0 -158.5 -89.5t-91.5 -254.5l-12 -81q-36 -241 -14 -360.5t89 -159.5l-1 -4h1l-16 -104l-24 -160h-507l40 264h250q-112 87 -169.5 224.5t-32.5 299.5l12 79q41 278 226.5 444t447.5 166
q248 0 389.5 -173t102.5 -437l-12 -79q-25 -168 -121 -303t-231 -221h252l-40 -264h-509z" />
    <glyph glyph-name="Omega" unicode="&#x2126;" horiz-adv-x="1380" 
d="M679 160l16 108q74 40 133 165t93 355l12 81q26 174 -13 259t-136 85q-91 0 -158.5 -89.5t-91.5 -254.5l-12 -81q-36 -241 -14 -360.5t89 -159.5l-1 -4h1l-16 -104l-24 -160h-507l40 264h250q-112 87 -169.5 224.5t-32.5 299.5l12 79q41 278 226.5 444t447.5 166
q248 0 389.5 -173t102.5 -437l-12 -79q-25 -168 -121 -303t-231 -221h252l-40 -264h-509z" />
    <glyph glyph-name="Iotadieresis" unicode="&#x3aa;" horiz-adv-x="611" 
d="M394 0h-337l218 1456h337zM861 1601h-290l29 204h290zM346 1601h-290l29 204h290z" />
    <glyph glyph-name="Upsilondieresis" unicode="&#x3ab;" horiz-adv-x="1307" 
d="M692 819l6 -1l386 638h366l-636 -944l-76 -512h-337l79 528l-347 928h366zM1217 1601h-290l29 204h290zM702 1601h-290l29 204h290z" />
    <glyph glyph-name="alphatonos" unicode="&#x3ac;" horiz-adv-x="1152" 
d="M1124 1081l-109 -731q-10 -62 2.5 -85.5t49.5 -23.5q12 0 20 1.5t18 5.5l-12 -245q-40 -13 -73.5 -18.5t-76.5 -5.5q-100 0 -166.5 43t-91.5 128q-58 -83 -129 -127t-158 -44q-193 0 -285 149.5t-55 389.5l3 21q39 262 171 412.5t336 150.5q79 0 134 -43.5t88 -123.5
l66 146h268zM397 518q-21 -137 6 -208t119 -71q48 0 85.5 17.5t65.5 52.5q0 8 1.5 17.5t3.5 23.5l62 417q-17 36 -48 55.5t-78 19.5q-85 0 -139.5 -84.5t-74.5 -218.5zM693 1478h305l2 -5l-256 -281h-171z" />
    <glyph glyph-name="epsilontonos" unicode="&#x3ad;" horiz-adv-x="1159" 
d="M59 306q13 95 76 158t169 95q-81 36 -123 96t-31 131q23 155 173.5 235t382.5 80q191 0 315.5 -90.5t96.5 -236.5l-2 -6h-328q7 47 -31 70t-109 23q-73 0 -116.5 -32t-49.5 -74q-7 -48 31.5 -73t112.5 -25h175l-11 -69l-20 -138h-175q-81 0 -134 -27.5t-62 -86.5
q-8 -49 31 -82.5t121 -33.5q81 0 130.5 28t56.5 72h326l2 -6q-20 -169 -173.5 -251.5t-354.5 -82.5q-221 0 -361.5 88.5t-117.5 237.5zM678 1477h305l2 -5l-256 -281h-171z" />
    <glyph glyph-name="etatonos" unicode="&#x3ae;" 
d="M480 934q65 80 150 124t181 44q153 0 229 -109t42 -342l-160 -1067h-338l160 1068q16 107 -10.5 148.5t-90.5 41.5q-53 0 -99 -20.5t-82 -56.5l-115 -765h-337l162 1082h317zM652 1478h305l2 -5l-256 -281h-171z" />
    <glyph glyph-name="iotatonos" unicode="&#x3af;" horiz-adv-x="685" 
d="M527 1081l-109 -731q-10 -63 6.5 -86.5t64.5 -23.5q30 0 46.5 2t56.5 11l-15 -250q-49 -13 -91 -18.5t-98 -5.5q-169 0 -253 94.5t-56 276.5l109 731h339zM367 1456h305l2 -5l-256 -281h-171z" />
    <glyph glyph-name="upsilondieresistonos" unicode="&#x3b0;" 
d="M518 1082l-91 -612q-21 -130 12.5 -180.5t103.5 -50.5q85 0 139.5 95t75.5 232q16 129 12.5 258.5t-25.5 257.5h313q35 -103 47 -232.5t-11 -283.5q-43 -284 -178.5 -435.5t-401.5 -151.5q-225 0 -343 123.5t-81 369.5l91 610h337zM1103 1193h-280l30 204h280zM535 1193
h-280l30 204h280zM715 1711h306l2 -5l-239 -281h-149z" />
    <glyph glyph-name="alpha" unicode="&#x3b1;" horiz-adv-x="1152" 
d="M1124 1081l-109 -731q-10 -62 2.5 -85.5t49.5 -23.5q12 0 20 1.5t18 5.5l-12 -245q-40 -13 -73.5 -18.5t-76.5 -5.5q-100 0 -166.5 43t-91.5 128q-58 -83 -129 -127t-158 -44q-193 0 -285 149.5t-55 389.5l3 21q39 262 171 412.5t336 150.5q79 0 134 -43.5t88 -123.5
l66 146h268zM397 518q-21 -137 6 -208t119 -71q48 0 85.5 17.5t65.5 52.5q0 8 1.5 17.5t3.5 23.5l62 417q-17 36 -48 55.5t-78 19.5q-85 0 -139.5 -84.5t-74.5 -218.5z" />
    <glyph glyph-name="beta" unicode="&#x3b2;" horiz-adv-x="1243" 
d="M779 1477q217 0 336.5 -103.5t91.5 -291.5q-17 -108 -80 -191.5t-161 -131.5q115 -44 168.5 -134t34.5 -217q-32 -213 -162.5 -321t-343.5 -108q-69 0 -138 18t-126 55l-70 -467h-337l215 1433q32 216 193 337.5t379 121.5zM626 857h56q77 0 123 49t61 145
q10 73 -21.5 119.5t-104.5 46.5q-72 0 -127.5 -54t-68.5 -145l-111 -739q31 -20 77 -30t104 -10q85 0 146.5 50.5t72.5 125.5q16 112 -26.5 161.5t-143.5 49.5h-72l25 169z" />
    <glyph glyph-name="gamma" unicode="&#x3b3;" horiz-adv-x="1053" 
d="M774 1082h355l-514 -1082h-3l-63 -417h-338l63 417h-2l-190 1082h356l50 -636l3 -115l6 -1l39 116z" />
    <glyph glyph-name="delta" unicode="&#x3b4;" 
d="M1137 1456l-39 -260h-382l-2 -6l161 -142q116 -97 182.5 -217t43.5 -280l-3 -21q-39 -254 -197.5 -402.5t-407.5 -148.5q-239 0 -361 143t-87 368l3 21q30 201 158 331.5t296 160.5l9 1l2 6l-254 239l31 207h847zM620 842q-96 0 -153 -81t-75 -210l-3 -21
q-22 -140 9 -215.5t134 -75.5q95 0 151.5 79t77.5 212l3 21q20 136 -11 213.5t-133 77.5z" />
    <glyph glyph-name="epsilon" unicode="&#x3b5;" horiz-adv-x="1159" 
d="M59 306q13 95 76 158t169 95q-81 36 -123 96t-31 131q23 155 173.5 235t382.5 80q191 0 315.5 -90.5t96.5 -236.5l-2 -6h-328q7 47 -31 70t-109 23q-73 0 -116.5 -32t-49.5 -74q-7 -48 31.5 -73t112.5 -25h175l-11 -69l-20 -138h-175q-81 0 -134 -27.5t-62 -86.5
q-8 -49 31 -82.5t121 -33.5q81 0 130.5 28t56.5 72h326l2 -6q-20 -169 -173.5 -251.5t-354.5 -82.5q-221 0 -361.5 88.5t-117.5 237.5z" />
    <glyph glyph-name="zeta" unicode="&#x3b6;" horiz-adv-x="1014" 
d="M1104 1456l-26 -178l-435 -435q-117 -118 -171 -203t-71 -200q-15 -97 25.5 -141.5t144.5 -44.5h65q135 0 207.5 -78t52.5 -213q-22 -133 -131.5 -241t-285.5 -149l-70 226q69 27 109 57.5t47 74.5q4 34 -19.5 51.5t-87.5 17.5h-48q-191 0 -284 113t-69 268
q27 180 105 299t250 298l210 214l-3 6h-465l38 258h912z" />
    <glyph glyph-name="eta" unicode="&#x3b7;" 
d="M480 934q65 80 150 124t181 44q153 0 229 -109t42 -342l-160 -1067h-338l160 1068q16 107 -10.5 148.5t-90.5 41.5q-53 0 -99 -20.5t-82 -56.5l-115 -765h-337l162 1082h317z" />
    <glyph glyph-name="theta" unicode="&#x3b8;" horiz-adv-x="1231" 
d="M1106 535q-41 -272 -199.5 -414t-389.5 -142q-221 0 -342.5 148.5t-82.5 407.5l58 386q40 271 198.5 413.5t391.5 142.5q220 0 341 -149t83 -407zM780 611h-340l-14 -97q-22 -141 12.5 -208t117.5 -67q77 0 133.5 70t76.5 205zM478 858h340l13 86q20 138 -14.5 205.5
t-115.5 67.5q-78 0 -134.5 -71t-75.5 -202z" />
    <glyph glyph-name="iota" unicode="&#x3b9;" horiz-adv-x="685" 
d="M527 1081l-109 -731q-10 -63 6.5 -86.5t64.5 -23.5q30 0 46.5 2t56.5 11l-15 -250q-49 -13 -91 -18.5t-98 -5.5q-169 0 -253 94.5t-56 276.5l109 731h339z" />
    <glyph glyph-name="kappa" unicode="&#x3ba;" horiz-adv-x="1242" 
d="M552 378h-121l-56 -378h-337l162 1082h337l-59 -389h91l283 389h425l2 -5l-426 -500l10 5l267 -582h-434z" />
    <glyph glyph-name="lambda" unicode="&#x3bb;" horiz-adv-x="1071" 
d="M271 0h-360l527 1072l-38 95q-13 41 -47.5 65.5t-84.5 24.5q-14 0 -35 -2t-31 -4l27 241q54 14 87.5 20t77.5 6q164 0 237.5 -81t100.5 -194l234 -875q10 -44 32.5 -74t60.5 -41q8 -3 23.5 -4t30.5 -1l-66 -252q-43 -6 -84.5 -7.5t-83.5 2.5q-132 13 -191 118.5
t-80 233.5l-63 314l-6 1l-17 -54z" />
    <glyph glyph-name="uni03BC" unicode="&#x3bc;" horiz-adv-x="1313" 
d="M552 1082l-93 -620q-20 -132 12 -175.5t118 -43.5q65 0 113.5 24.5t82.5 71.5l111 743h337l-162 -1082h-317l3 49q-48 -35 -103.5 -52.5t-117.5 -17.5q-41 0 -77.5 9.5t-66.5 26.5l-64 -431h-338l224 1498h338z" />
    <glyph glyph-name="nu" unicode="&#x3bd;" horiz-adv-x="1053" 
d="M488 446l3 -115l6 -1l39 116l238 636h355l-514 -1082h-343l-190 1082h356z" />
    <glyph glyph-name="xi" unicode="&#x3be;" horiz-adv-x="1125" 
d="M1148 1456l-40 -270h-278q-96 -2 -151 -34t-63 -89q-10 -67 28.5 -105t133.5 -38h155l-27 -183h-1l-13 -88h-143q-136 0 -221 -58.5t-101 -166.5q-13 -81 34.5 -127.5t144.5 -46.5h152q143 0 219.5 -73.5t55.5 -213.5q-26 -157 -128.5 -259t-291.5 -152l-53 193
q59 24 104 57.5t54 87.5q6 44 -19.5 66.5t-87.5 22.5h-70q-231 0 -357.5 119.5t-94.5 329.5q20 132 105.5 220.5t232.5 133.5q-86 31 -127.5 85.5t-29.5 130.5q10 67 54 112.5t117 69.5l-3 6h-200l40 270h870z" />
    <glyph glyph-name="omicron" unicode="&#x3bf;" 
d="M54 551q37 253 196 402t409 149q238 0 357.5 -155t84.5 -396l-3 -21q-39 -254 -197.5 -402.5t-407.5 -148.5q-239 0 -359 154.5t-83 396.5zM389 530q-22 -140 9 -215.5t134 -75.5q95 0 151.5 79t77.5 212l3 21q20 136 -11 213.5t-133 77.5q-96 0 -153 -81t-75 -210z" />
    <glyph glyph-name="pi" unicode="&#x3c0;" horiz-adv-x="1440" 
d="M1322 840h-230l-73 -490q-10 -63 6.5 -86.5t64.5 -23.5q30 0 46.5 2t56.5 11l-15 -250q-49 -13 -91 -18.5t-98 -5.5q-169 0 -253 94.5t-56 276.5l73 490h-131l-126 -840h-337l126 840h-161l36 242h1198z" />
    <glyph glyph-name="rho" unicode="&#x3c1;" 
d="M1097 518q-39 -252 -169.5 -395.5t-332.5 -143.5q-77 0 -133 32t-93 94l-77 -521h-338l149 995q35 236 191.5 379.5t404.5 143.5q220 0 329 -157t72 -406zM762 539q20 141 -8 222t-116 81q-78 0 -130 -80.5t-72 -217.5l-1 -1l-35 -234q18 -35 55.5 -52.5t95.5 -17.5
q86 0 136.5 74.5t71.5 204.5z" />
    <glyph glyph-name="sigma1" unicode="&#x3c2;" horiz-adv-x="1027" 
d="M642 1102q198 0 307.5 -116t76.5 -313l-2 -5h-309q12 79 -16 126.5t-96 47.5q-95 0 -147 -80t-71 -210l-4 -23q-21 -139 26 -197t181 -78q189 -31 266 -101.5t56 -210.5q-23 -133 -132.5 -241t-284.5 -149l-71 226q70 28 109.5 58.5t46.5 74.5q4 38 -26.5 58.5
t-99.5 35.5q-243 36 -343 166t-65 358l4 23q37 253 191 401.5t403 148.5z" />
    <glyph glyph-name="sigma" unicode="&#x3c3;" horiz-adv-x="1176" 
d="M1193 822h-247q66 -62 101 -143.5t23 -168.5l-4 -21q-36 -236 -186.5 -373t-388.5 -137q-239 0 -359 154.5t-83 396.5l3 21q36 244 194 387.5t408 143.5v-1h1v1h577zM386 530q-22 -140 9.5 -215.5t134.5 -75.5q84 0 134.5 79t71.5 212l3 21q18 124 -6 195t-108 76h-9
q-96 0 -153 -76t-74 -195z" />
    <glyph glyph-name="tau" unicode="&#x3c4;" horiz-adv-x="1077" 
d="M1096 824h-343l-123 -824h-338l123 824h-336l38 258h1017z" />
    <glyph glyph-name="upsilon" unicode="&#x3c5;" 
d="M518 1082l-91 -612q-21 -130 12.5 -180.5t103.5 -50.5q85 0 139.5 95t75.5 232q16 129 12.5 258.5t-25.5 257.5h313q35 -103 47 -232.5t-11 -283.5q-43 -284 -178.5 -435.5t-401.5 -151.5q-225 0 -343 123.5t-81 369.5l91 610h337z" />
    <glyph glyph-name="phi" unicode="&#x3c6;" horiz-adv-x="1567" 
d="M1026 1082l-123 -818l5 -3q120 22 184 95t82 189q17 126 -30 201.5t-157 75.5l38 253l6 2q270 3 389.5 -164t90.5 -368q-35 -229 -190.5 -378t-459.5 -180l-69 -465h-338l70 470q-281 42 -395 211.5t-79 403.5q22 147 76 262.5t131 212.5h301q-65 -128 -109 -245
t-62 -230q-23 -146 15.5 -230.5t157.5 -109.5l5 1l123 814h338z" />
    <glyph glyph-name="chi" unicode="&#x3c7;" horiz-adv-x="1071" 
d="M232 1099q165 0 238.5 -80.5t101.5 -194.5l31 -110l6 -1l234 369h343l-476 -738l114 -395q8 -42 31.5 -72.5t60.5 -42.5q8 -3 23.5 -4.5t30.5 -1.5l-64 -251q-42 -7 -83.5 -8.5t-85.5 3.5q-109 14 -156.5 112t-80.5 240l-17 58l-6 1l-257 -399h-327l484 764l-115 400
q-12 47 -54 68.5t-102 21.5q-14 0 -34.5 -2t-30.5 -4l27 241q53 14 86.5 20t77.5 6z" />
    <glyph glyph-name="psi" unicode="&#x3c8;" horiz-adv-x="1569" 
d="M1027 1082l-121 -811l5 -2q118 28 185 115.5t88 222.5q16 114 7 231t-36 244h301q46 -95 65.5 -214.5t-0.5 -260.5q-38 -252 -196 -417.5t-462 -201.5l-70 -466h-337l70 470q-250 36 -375.5 183.5t-85.5 411.5l74 495h338l-74 -498q-23 -145 21 -221t138 -96l5 1l123 814
h337z" />
    <glyph glyph-name="omega" unicode="&#x3c9;" horiz-adv-x="1770" 
d="M614 1082q-79 -129 -131.5 -258.5t-74.5 -257.5q-22 -146 -1.5 -236.5t101.5 -90.5q65 0 117.5 63t73.5 199l56 371h361l-56 -371q-21 -143 11.5 -202.5t101.5 -59.5q76 0 126.5 95t71.5 232q15 130 1 259.5t-54 256.5h312q54 -102 77 -232t0 -284
q-43 -284 -174.5 -435.5t-388.5 -151.5q-109 0 -188.5 53.5t-119.5 155.5q-69 -104 -165.5 -156.5t-211.5 -52.5q-245 0 -337 159t-51 428q24 159 84.5 284.5t146.5 231.5h312z" />
    <glyph glyph-name="iotadieresis" unicode="&#x3ca;" horiz-adv-x="685" 
d="M527 1081l-109 -731q-10 -63 6.5 -86.5t64.5 -23.5q30 0 46.5 2t56.5 11l-15 -250q-49 -13 -91 -18.5t-98 -5.5q-169 0 -253 94.5t-56 276.5l109 731h339zM798 1257h-290l29 204h290zM283 1257h-290l29 204h290z" />
    <glyph glyph-name="upsilondieresis" unicode="&#x3cb;" 
d="M518 1082l-91 -612q-21 -130 12.5 -180.5t103.5 -50.5q85 0 139.5 95t75.5 232q16 129 12.5 258.5t-25.5 257.5h313q35 -103 47 -232.5t-11 -283.5q-43 -284 -178.5 -435.5t-401.5 -151.5q-225 0 -343 123.5t-81 369.5l91 610h337zM1099 1258h-290l29 204h290zM584 1258
h-290l29 204h290z" />
    <glyph glyph-name="omicrontonos" unicode="&#x3cc;" 
d="M54 551q37 253 196 402t409 149q238 0 357.5 -155t84.5 -396l-3 -21q-39 -254 -197.5 -402.5t-407.5 -148.5q-239 0 -359 154.5t-83 396.5zM389 530q-22 -140 9 -215.5t134 -75.5q95 0 151.5 79t77.5 212l3 21q20 136 -11 213.5t-133 77.5q-96 0 -153 -81t-75 -210z
M651 1478h305l2 -5l-256 -281h-171z" />
    <glyph glyph-name="upsilontonos" unicode="&#x3cd;" 
d="M518 1082l-91 -612q-21 -130 12.5 -180.5t103.5 -50.5q85 0 139.5 95t75.5 232q16 129 12.5 258.5t-25.5 257.5h313q35 -103 47 -232.5t-11 -283.5q-43 -284 -178.5 -435.5t-401.5 -151.5q-225 0 -343 123.5t-81 369.5l91 610h337zM668 1457h305l2 -5l-256 -281h-171z
" />
    <glyph glyph-name="omegatonos" unicode="&#x3ce;" horiz-adv-x="1770" 
d="M614 1082q-79 -129 -131.5 -258.5t-74.5 -257.5q-22 -146 -1.5 -236.5t101.5 -90.5q65 0 117.5 63t73.5 199l56 371h361l-56 -371q-21 -143 11.5 -202.5t101.5 -59.5q76 0 126.5 95t71.5 232q15 130 1 259.5t-54 256.5h312q54 -102 77 -232t0 -284
q-43 -284 -174.5 -435.5t-388.5 -151.5q-109 0 -188.5 53.5t-119.5 155.5q-69 -104 -165.5 -156.5t-211.5 -52.5q-245 0 -337 159t-51 428q24 159 84.5 284.5t146.5 231.5h312zM957 1457h305l2 -5l-256 -281h-171z" />
    <glyph glyph-name="uni03D1" unicode="&#x3d1;" horiz-adv-x="1461" 
d="M619 932l19 125q27 189 162 304.5t310 115.5q181 0 267.5 -108t56.5 -312l-79 -522q-38 -249 -231 -402.5t-453 -153.5q-282 0 -432 153t-112 403l108 717l361 2l-108 -719q-19 -125 43.5 -205t180.5 -80q111 0 184.5 70t96.5 204q-183 15 -292 126.5t-82 281.5v0z
M1080 1098q6 43 -4 65.5t-33 22.5q-33 0 -55.5 -22t-28.5 -66l-25 -168q-10 -63 15 -108t75 -55l6 1z" />
    <glyph glyph-name="uni03D2" unicode="&#x3d2;" horiz-adv-x="1258" 
d="M882 1184q91 168 183.5 235.5t247.5 67.5q28 0 53.5 -4t44.5 -12l-64 -256q-3 0 -24 1.5t-31 1.5q-38 0 -72 -31.5t-61 -78.5l-381 -683h-2l-63 -425h-337l66 445l-169 663q-15 49 -38 79.5t-62 30.5q-11 0 -33 -1.5t-24 -1.5l16 256q18 8 44 12t57 4q151 0 226.5 -64.5
t113.5 -228.5l78 -374l3 -100l6 -1l34 101z" />
    <glyph glyph-name="uni03D6" unicode="&#x3d6;" horiz-adv-x="1740" 
d="M1806 890h-136q16 -73 19 -154t-10 -170q-43 -284 -171 -435.5t-376 -151.5q-109 0 -190 53.5t-121 156.5q-69 -105 -166 -157.5t-214 -52.5q-237 0 -325.5 159t-47.5 428q13 91 40 171.5t65 152.5h-130l28 192h1763zM1343 566q9 80 7 161t-15 163h-825
q-38 -81 -64 -162.5t-40 -161.5q-22 -146 -6 -235.5t88 -84.5l6 -1q63 -6 116 57t74 199l28 183h360l-28 -183q-21 -143 12.5 -202.5t103.5 -59.5q69 0 115.5 94.5t67.5 232.5z" />
    <glyph glyph-name="uni0400" unicode="&#x400;" horiz-adv-x="1143" 
d="M980 623h-513l-54 -363h615l-39 -260h-953l218 1456h954l-39 -260h-616l-47 -313h513zM914 1599h-297l-246 260l3 6h370z" />
    <glyph glyph-name="uni0401" unicode="&#x401;" horiz-adv-x="1143" 
d="M980 623h-513l-54 -363h615l-39 -260h-953l218 1456h954l-39 -260h-616l-47 -313h513zM1148 1601h-290l29 204h290zM633 1601h-290l29 204h290z" />
    <glyph glyph-name="uni0402" unicode="&#x402;" horiz-adv-x="1584" 
d="M1248 1196h-385l-39 -260h174q272 0 423.5 -124.5t116.5 -366.5q-16 -132 -130.5 -263.5t-303.5 -203.5l-126 207q97 54 152.5 112.5t70.5 147.5q17 116 -46 173.5t-196 57.5h-174l-101 -676h-338l179 1196h-378l39 260h1101z" />
    <glyph glyph-name="uni0403" unicode="&#x403;" horiz-adv-x="1144" 
d="M1192 1196h-638l-179 -1196h-339l218 1456h977zM835 1867h370l2 -6l-318 -260h-291l-2 5z" />
    <glyph glyph-name="uni0404" unicode="&#x404;" horiz-adv-x="1241" 
d="M1244 492l2 -6q-35 -259 -196 -382.5t-430 -123.5q-259 0 -403 166.5t-104 430.5l45 304q41 276 221.5 436.5t442.5 160.5q267 0 403.5 -130t96.5 -374l-3 -6h-330q21 139 -26.5 194.5t-179.5 55.5q-109 0 -187 -92.5t-100 -242.5l-4 -24h366l-39 -261h-365l-3 -21
q-24 -158 29 -247.5t179 -89.5q111 0 174 59t83 193h328z" />
    <glyph glyph-name="uni0405" unicode="&#x405;" horiz-adv-x="1273" 
d="M845 386q12 80 -32 120.5t-173 87.5q-258 88 -375 187.5t-88 286.5q28 190 196.5 299.5t407.5 109.5q240 0 378.5 -117.5t102.5 -327.5l-2 -6h-329q15 107 -33 151.5t-163 44.5q-89 0 -150 -45.5t-71 -110.5q-10 -66 37.5 -102.5t190.5 -96.5q242 -75 355.5 -183
t85.5 -296q-30 -200 -194 -304.5t-415 -104.5q-239 0 -397 117t-116 366l2 6h330q-20 -132 34 -183t185 -51q102 0 162 42.5t71 109.5z" />
    <glyph glyph-name="uni0406" unicode="&#x406;" horiz-adv-x="611" 
d="M394 0h-337l218 1456h337z" />
    <glyph glyph-name="uni0407" unicode="&#x407;" horiz-adv-x="611" 
d="M394 0h-337l218 1456h337zM861 1601h-290l29 204h290zM346 1601h-290l29 204h290z" />
    <glyph glyph-name="uni0408" unicode="&#x408;" horiz-adv-x="1144" 
d="M830 1456h338l-148 -989q-35 -231 -189.5 -359.5t-371.5 -128.5q-237 0 -366.5 119.5t-91.5 341.5l2 6h331q-17 -112 29.5 -159.5t134.5 -47.5q63 0 115.5 61t68.5 167z" />
    <glyph glyph-name="uni0409" unicode="&#x409;" horiz-adv-x="2153" 
d="M1468 1456l-72 -479h197q249 0 390.5 -138.5t109.5 -349.5q-34 -224 -209.5 -356.5t-437.5 -132.5h-533l179 1196h-329l-58 -388q-68 -453 -241 -630.5t-468 -177.5h-38l39 260h39q146 0 214.5 116t116.5 432l97 648h1004zM1357 717l-68 -457h196q106 0 181.5 67.5
t90.5 163.5q14 97 -39 161.5t-164 64.5h-197z" />
    <glyph glyph-name="uni040A" unicode="&#x40a;" horiz-adv-x="2152" 
d="M500 846h538l92 610h337l-72 -479h197q249 0 390.5 -138.5t109.5 -349.5q-34 -223 -209.5 -356t-437.5 -133h-533l87 586h-538l-87 -586h-338l218 1456h338zM1356 717l-68 -457h196q106 0 181.5 67.5t90.5 163.5q14 97 -39 161.5t-164 64.5h-197z" />
    <glyph glyph-name="uni040B" unicode="&#x40b;" horiz-adv-x="1616" 
d="M1264 1196h-385l-32 -210h146q267 0 402.5 -123t98.5 -368l-74 -495h-337l74 495q21 137 -24 184t-179 47h-146l-108 -726h-338l179 1196h-378l39 260h1101z" />
    <glyph glyph-name="uni040C" unicode="&#x40c;" horiz-adv-x="1306" 
d="M558 578h-96l-86 -578h-338l218 1456h338l-87 -576h91l346 576h446l-527 -721l328 -735h-390zM814 1779h370l2 -6l-318 -260h-291l-2 5z" />
    <glyph glyph-name="uni040D" unicode="&#x40d;" horiz-adv-x="1426" 
d="M1114 1456h338l-218 -1456h-338l134 901l-5 2l-668 -903h-338l218 1456h338l-135 -900l5 -2zM1027 1599h-297l-246 260l3 6h370z" />
    <glyph glyph-name="uni040E" unicode="&#x40e;" horiz-adv-x="1317" 
d="M714 821l3 -25l6 -2l382 662h348l-708 -1160q-90 -150 -195 -233.5t-268 -83.5q-57 0 -101.5 10.5t-109.5 33.5l75 241q46 -14 74 -19.5t63 -5.5q80 0 127.5 32.5t81.5 103.5l21 41l-373 1040h361zM1216 1908l2 -6q-15 -138 -125 -219.5t-280 -81.5q-163 0 -254 84.5
t-67 216.5l2 6h244q-7 -49 17.5 -78t85.5 -29q57 0 91 30.5t41 76.5h243z" />
    <glyph glyph-name="uni040F" unicode="&#x40f;" horiz-adv-x="1426" 
d="M234 1456h337l-179 -1196h538l179 1196h339l-218 -1456h-423l-54 -360h-338l54 360h-453z" />
    <glyph glyph-name="uni0410" unicode="&#x410;" horiz-adv-x="1307" 
d="M840 283h-432l-127 -283h-356l693 1456h181v-1l1 1h181l258 -1456h-356zM524 543h277l-67 451l-6 1z" />
    <glyph glyph-name="uni0411" unicode="&#x411;" horiz-adv-x="1279" 
d="M1192 1196h-638l-33 -219h197q249 0 390.5 -138.5t109.5 -349.5q-34 -223 -209.5 -356t-437.5 -133h-535l218 1456h977zM482 717l-68 -457h196q106 0 181.5 67.5t90.5 163.5q14 97 -39 161.5t-164 64.5h-197z" />
    <glyph glyph-name="uni0412" unicode="&#x412;" horiz-adv-x="1306" 
d="M36 0l218 1456h477q261 0 402 -101.5t112 -298.5q-16 -107 -75 -187t-166 -120q124 -28 172.5 -115.5t32.5 -202.5q-34 -220 -190.5 -325.5t-427.5 -105.5h-555zM467 625l-54 -365h217q104 0 166.5 43.5t75.5 129.5q13 97 -26.5 143t-148.5 49h-11h-219zM501 849h133
q117 0 186 43t82 126q14 96 -37 137t-173 41h-139z" />
    <glyph glyph-name="uni0413" unicode="&#x413;" horiz-adv-x="1144" 
d="M1192 1196h-638l-179 -1196h-339l218 1456h977z" />
    <glyph glyph-name="uni0414" unicode="&#x414;" horiz-adv-x="1409" 
d="M1314 -358h-338l54 358h-779l-54 -358h-336l93 618h73q101 0 167.5 140t126.5 460l122 596h985l-179 -1196h158zM659 860q-39 -196 -94.5 -346t-125.5 -254h473l140 936h-325z" />
    <glyph glyph-name="uni0415" unicode="&#x415;" horiz-adv-x="1143" 
d="M980 623h-513l-54 -363h615l-39 -260h-953l218 1456h954l-39 -260h-616l-47 -313h513z" />
    <glyph glyph-name="uni0416" unicode="&#x416;" horiz-adv-x="1961" 
d="M1272 578h-110l-86 -578h-338l86 578h-112l-375 -578h-420l560 793l-328 663h426l217 -576h77l87 576h338l-87 -576h77l378 576h424l-515 -660l313 -796h-421z" />
    <glyph glyph-name="uni0417" unicode="&#x417;" horiz-adv-x="1325" 
d="M1307 1061q-16 -105 -92 -187.5t-196 -128.5q119 -44 175 -130t38 -207q-32 -209 -215 -319t-459 -110q-224 0 -381 108t-120 311l2 6h330q-12 -74 46.5 -119.5t161.5 -45.5q120 0 203.5 50.5t94.5 125.5q16 111 -39.5 157t-185.5 46h-204l22 149l15 102h204
q115 0 181.5 48.5t80.5 136.5q11 72 -46 117.5t-179 45.5q-89 0 -158.5 -43t-79.5 -114h-327l-2 6q23 192 197.5 301.5t408.5 109.5q261 0 407 -109t117 -307z" />
    <glyph glyph-name="uni0418" unicode="&#x418;" horiz-adv-x="1426" 
d="M1114 1456h338l-218 -1456h-338l134 901l-5 2l-668 -903h-338l218 1456h338l-135 -900l5 -2z" />
    <glyph glyph-name="uni0419" unicode="&#x419;" horiz-adv-x="1426" 
d="M1114 1456h338l-218 -1456h-338l134 901l-5 2l-668 -903h-338l218 1456h338l-135 -900l5 -2zM1264 1908l2 -6q-15 -138 -125 -219.5t-280 -81.5q-163 0 -254 84.5t-67 216.5l2 6h244q-7 -49 17.5 -78t85.5 -29q57 0 91 30.5t41 76.5h243z" />
    <glyph glyph-name="uni041A" unicode="&#x41a;" horiz-adv-x="1306" 
d="M558 578h-96l-86 -578h-338l218 1456h338l-87 -576h91l346 576h446l-527 -721l328 -735h-390z" />
    <glyph glyph-name="uni041B" unicode="&#x41b;" horiz-adv-x="1446" 
d="M1468 1456l-218 -1456h-337l179 1196h-360l-58 -388q-68 -455 -231.5 -631.5t-446.5 -176.5h-38l39 260h39q132 0 191.5 113.5t107.5 434.5l97 648h1036z" />
    <glyph glyph-name="uni041C" unicode="&#x41c;" horiz-adv-x="1783" 
d="M870 438l6 -1l482 1019h447l-218 -1456h-338l140 937l-6 1l-461 -938h-227l-177 924h-6l-138 -924h-338l218 1456h443z" />
    <glyph glyph-name="uni041D" unicode="&#x41d;" horiz-adv-x="1446" 
d="M1250 0h-337l87 586h-539l-87 -586h-338l218 1456h338l-92 -610h539l92 610h337z" />
    <glyph glyph-name="uni041E" unicode="&#x41e;" horiz-adv-x="1416" 
d="M1336 597q-43 -280 -237 -449t-472 -169q-266 0 -417.5 176.5t-110.5 441.5l39 262q41 278 236.5 448t475.5 170q264 0 414 -176.5t111 -441.5zM1038 861q24 162 -34 259t-193 97q-132 0 -222.5 -100.5t-113.5 -255.5l-39 -264q-25 -164 33.5 -261t196.5 -97
q128 0 218.5 101t114.5 257z" />
    <glyph glyph-name="uni041F" unicode="&#x41f;" horiz-adv-x="1446" 
d="M1250 0h-337l179 1196h-539l-179 -1196h-338l218 1456h1214z" />
    <glyph glyph-name="uni0420" unicode="&#x420;" horiz-adv-x="1306" 
d="M448 499l-74 -499h-338l218 1456h556q249 0 386 -133.5t106 -345.5q-34 -223 -203.5 -350.5t-431.5 -127.5h-219zM487 759h219q106 0 175 61.5t83 154.5q14 100 -34 160.5t-159 60.5h-218z" />
    <glyph glyph-name="uni0421" unicode="&#x421;" horiz-adv-x="1307" 
d="M1227 491l2 -6q-35 -259 -196 -382.5t-430 -123.5q-260 0 -404 167t-104 430l46 304q41 276 221.5 436.5t442.5 160.5q267 0 403.5 -130t96.5 -374l-3 -6h-330q20 139 -27 194.5t-179 55.5q-109 0 -187 -92.5t-100 -242.5l-46 -306q-24 -158 29.5 -247.5t179.5 -89.5
q111 0 174 59t83 193h328z" />
    <glyph glyph-name="uni0422" unicode="&#x422;" horiz-adv-x="1150" 
d="M1228 1196h-385l-179 -1196h-338l179 1196h-378l39 260h1101z" />
    <glyph glyph-name="uni0423" unicode="&#x423;" horiz-adv-x="1317" 
d="M714 821l3 -25l6 -2l382 662h348l-708 -1160q-90 -150 -195 -233.5t-268 -83.5q-57 0 -101.5 10.5t-109.5 33.5l75 241q46 -14 74 -19.5t63 -5.5q80 0 127.5 32.5t81.5 103.5l21 41l-373 1040h361z" />
    <glyph glyph-name="uni0424" unicode="&#x424;" horiz-adv-x="1541" 
d="M1062 1269q245 -20 380.5 -169t101.5 -381q-37 -237 -210 -376.5t-434 -156.5l-28 -186h-337l28 186q-248 18 -385.5 161.5t-103.5 369.5q36 246 211.5 390.5t439.5 161.5l28 187h337zM405 717q-18 -112 35 -172.5t160 -68.5l6 1l75 499l-6 3q-105 -12 -179.5 -80
t-90.5 -182zM1213 719q18 120 -33.5 185t-155.5 76l-6 -2l-75 -498l6 -3q103 10 175 72.5t89 169.5z" />
    <glyph glyph-name="uni0425" unicode="&#x425;" horiz-adv-x="1307" 
d="M711 972l6 -1l309 485h390l-525 -722l339 -734h-410l-173 501l-323 -501h-390l538 734l-309 722h387z" />
    <glyph glyph-name="uni0426" unicode="&#x426;" horiz-adv-x="1570" 
d="M240 1456h337l-179 -1196h539l179 1196h338l-180 -1198h197l-93 -617h-337l54 359h-1073z" />
    <glyph glyph-name="uni0427" unicode="&#x427;" horiz-adv-x="1431" 
d="M1454 1456l-218 -1456h-338l81 543q-60 -10 -136 -16.5t-113 -6.5q-271 0 -415.5 123.5t-107.5 367.5l66 445h338l-66 -445q-21 -136 32 -183.5t192 -47.5q40 0 115 6t134 16l98 654h338z" />
    <glyph glyph-name="uni0428" unicode="&#x428;" horiz-adv-x="2138" 
d="M588 1456l-179 -1196h451l179 1196h337l-179 -1196h447l179 1196h337l-218 -1456h-1910l218 1456h338z" />
    <glyph glyph-name="uni0429" unicode="&#x429;" horiz-adv-x="2338" 
d="M588 1456l-179 -1196h451l179 1196h337l-179 -1196h447l179 1196h337l-183 -1222h252l-86 -577h-337l51 343h-1825l218 1456h338z" />
    <glyph glyph-name="uni042A" unicode="&#x42a;" horiz-adv-x="1483" 
d="M146 1456h610l-72 -479h197q249 0 390.5 -138.5t109.5 -349.5q-34 -223 -209.5 -356t-437.5 -133h-535l179 1196h-271zM645 717l-68 -457h196q106 0 181.5 67.5t90.5 163.5q14 97 -39 161.5t-164 64.5h-197z" />
    <glyph glyph-name="uni042B" unicode="&#x42b;" horiz-adv-x="1789" 
d="M521 977h197q249 0 390.5 -138.5t109.5 -349.5q-34 -223 -209.5 -356t-437.5 -133h-535l218 1456h339zM1592 0h-337l218 1456h337zM482 717l-68 -457h196q106 0 181.5 67.5t90.5 163.5q14 97 -39 161.5t-164 64.5h-197z" />
    <glyph glyph-name="uni042C" unicode="&#x42c;" horiz-adv-x="1278" 
d="M521 977h197q249 0 390.5 -138.5t109.5 -349.5q-34 -223 -209.5 -356t-437.5 -133h-535l218 1456h339zM482 717l-68 -457h196q106 0 181.5 67.5t90.5 163.5q14 97 -39 161.5t-164 64.5h-197z" />
    <glyph glyph-name="uni042D" unicode="&#x42d;" horiz-adv-x="1238" 
d="M113 966l-2 6q34 259 189.5 382.5t423.5 123.5q246 0 379.5 -167t94.5 -430l-45 -304q-42 -278 -218.5 -437.5t-435.5 -159.5q-256 0 -380 129.5t-83 375.5l2 5h330q-22 -142 15 -196t155 -54q107 0 179.5 91.5t95.5 243.5l3 23h-383l39 261h383l4 22q23 160 -19 248.5
t-155 88.5q-110 0 -167 -59t-77 -193h-328z" />
    <glyph glyph-name="uni042E" unicode="&#x42e;" horiz-adv-x="1991" 
d="M1816 597q-43 -280 -237 -449t-472 -169q-264 0 -416 174.5t-113 437.5h-96l-88 -591h-337l218 1456h337l-91 -604h96l1 7q41 278 236.5 448t475.5 170q264 0 414 -176.5t111 -441.5zM1518 861q24 162 -34 259t-193 97q-132 0 -222.5 -100.5t-113.5 -255.5l-39 -264
q-25 -164 33.5 -261t196.5 -97q128 0 218.5 101t114.5 257z" />
    <glyph glyph-name="uni042F" unicode="&#x42f;" horiz-adv-x="1198" 
d="M218 0h-367l400 647q-93 60 -130.5 151t-17.5 217q31 208 198.5 324.5t413.5 116.5h523l-218 -1456h-338l80 537h-210zM861 1196h-185q-104 0 -164 -50.5t-74 -150.5q-14 -95 33 -156t143 -61h184z" />
    <glyph glyph-name="uni0430" unicode="&#x430;" horiz-adv-x="1086" 
d="M641 1q-13 34 -20.5 77t-7.5 90q-57 -86 -129 -137.5t-176 -51.5q-164 0 -248 88.5t-62 237.5q25 167 157 251.5t381 84.5h139l12 77q10 72 -17 107.5t-96 35.5q-57 0 -91 -28t-42 -85l-328 1l-1 6q17 154 160.5 250.5t359.5 96.5q194 0 307 -101t85 -285l-61 -408
q-14 -89 -10 -160.5t22 -147.5zM436 220q59 0 112.5 29.5t78.5 69.5l21 142h-136q-77 0 -121 -39.5t-53 -98.5q-7 -48 20.5 -75.5t77.5 -27.5z" />
    <glyph glyph-name="uni0431" unicode="&#x431;" horiz-adv-x="1155" 
d="M675 1102q230 0 344.5 -155t79.5 -396l-3 -21q-39 -254 -197.5 -402.5t-407.5 -148.5q-239 0 -359 154.5t-83 396.5l1 12l39 257q53 347 196 495t414 152q129 1 189 27.5t69 86.5h261l2 -6q-28 -218 -151 -293t-382 -79q-143 -3 -222 -54.5t-81 -131.5l3 -5q50 47 127 79
t161 32zM618 842q-96 0 -153.5 -81.5t-75.5 -209.5l-3 -21q-22 -140 9.5 -215.5t134.5 -75.5q95 0 151.5 79.5t77.5 211.5l3 21q20 136 -11 213.5t-133 77.5z" />
    <glyph glyph-name="uni0432" unicode="&#x432;" 
d="M39 0l162 1082h464q209 0 323 -77.5t92 -225.5q-13 -79 -73.5 -137.5t-162.5 -88.5q129 -25 186 -90t44 -154q-24 -159 -150 -234t-351 -75h-534zM442 441l-27 -183h197q59 0 91.5 22t39.5 67q7 46 -15.5 70t-88.5 24h-197zM473 649h150q52 1 79 21t34 60q7 52 -19 73
t-90 21h-127z" />
    <glyph glyph-name="uni0433" unicode="&#x433;" horiz-adv-x="859" 
d="M896 822h-426l-123 -822h-337l162 1082h763z" />
    <glyph glyph-name="uni0434" unicode="&#x434;" horiz-adv-x="1397" 
d="M104 260v1h26q78 0 122.5 79t81.5 281l90 461h841l-123 -822h151l-93 -618h-337l54 358h-585l-54 -358h-338l93 618h71zM672 621q-22 -113 -51.5 -202.5t-67.5 -158.5h253l84 562h-179z" />
    <glyph glyph-name="uni0435" unicode="&#x435;" horiz-adv-x="1070" 
d="M493 -21q-236 0 -358 150.5t-88 375.5l5 38q38 257 191.5 408.5t404.5 150.5q210 0 315 -132.5t72 -357.5l-27 -177h-621l-2 -6q-5 -87 42 -138.5t151 -51.5q93 0 163 16.5t156 50.5l50 -206q-77 -51 -200.5 -86t-253.5 -35zM609 842q-78 0 -124.5 -51.5t-67.5 -138.5
l2 -6h291l4 26q13 87 -10.5 128.5t-94.5 41.5z" />
    <glyph glyph-name="uni0436" unicode="&#x436;" horiz-adv-x="1755" 
d="M1111 378h-91l-56 -378h-336l56 378h-88l-229 -378h-434l409 582l14 -7l5 4l-257 503h433l134 -389h60l59 389h336l-59 -389h65l250 389h425l3 -5l-401 -496l4 -5l13 6l234 -582h-434z" />
    <glyph glyph-name="uni0437" unicode="&#x437;" horiz-adv-x="1159" 
d="M429 652h159q68 0 113 28t52 75q6 46 -22.5 76t-102.5 30q-68 0 -112.5 -23.5t-51.5 -69.5h-326l-2 6q17 155 160 241t345 86q219 0 348 -83.5t107 -231.5q-12 -75 -69.5 -135.5t-148.5 -95.5q91 -33 134.5 -96.5t30.5 -152.5q-24 -157 -181.5 -241.5t-388.5 -84.5
q-190 0 -321.5 86.5t-101.5 247.5l2 6h328q-8 -46 29.5 -73t123.5 -27q76 0 123.5 34.5t54.5 81.5q10 63 -30.5 91.5t-122.5 28.5h-159l9 60l11 72z" />
    <glyph glyph-name="uni0438" unicode="&#x438;" 
d="M808 1082h337l-162 -1082h-337l89 593l-6 2l-381 -595h-338l162 1082h338l-89 -592l6 -2z" />
    <glyph glyph-name="uni0439" unicode="&#x439;" 
d="M808 1082h337l-162 -1082h-337l89 593l-6 2l-381 -595h-338l162 1082h338l-89 -592l6 -2zM1082 1565l2 -6q-15 -138 -125 -219.5t-280 -81.5q-163 0 -254 84.5t-67 216.5l2 6h244q-7 -49 17.5 -78t85.5 -29q57 0 91 30.5t41 76.5h243z" />
    <glyph glyph-name="uni043A" unicode="&#x43a;" horiz-adv-x="1190" 
d="M545 378h-114l-56 -378h-337l162 1082h337l-59 -389h91l237 389h432l-397 -503l3 -5l19 8l245 -582h-457z" />
    <glyph glyph-name="uni043B" unicode="&#x43b;" horiz-adv-x="1157" 
d="M1145 1082l-162 -1082h-337l123 822h-208l-30 -201q-50 -332 -175 -476.5t-380 -144.5h-42l32 261h26q94 0 131.5 73t69.5 287l69 461h883z" />
    <glyph glyph-name="uni043C" unicode="&#x43c;" horiz-adv-x="1571" 
d="M747 381l6 -1l347 702h423l-162 -1082h-337l87 583l-5 1l-300 -584h-225l-117 552l-6 -1l-83 -551h-337l162 1082h413z" />
    <glyph glyph-name="uni043D" unicode="&#x43d;" 
d="M980 0h-338l60 401h-295l-60 -401h-337l162 1082h337l-63 -422h295l63 422h338z" />
    <glyph glyph-name="uni043E" unicode="&#x43e;" 
d="M54 551q37 253 196 402t409 149q238 0 357.5 -155t84.5 -396l-3 -21q-39 -254 -197.5 -402.5t-407.5 -148.5q-239 0 -359 154.5t-83 396.5zM389 530q-22 -140 9 -215.5t134 -75.5q95 0 151.5 79t77.5 212l3 21q20 136 -11 213.5t-133 77.5q-96 0 -153 -81t-75 -210z" />
    <glyph glyph-name="uni043F" unicode="&#x43f;" 
d="M983 0h-338l123 822h-298l-123 -822h-337l162 1082h973z" />
    <glyph glyph-name="uni0440" unicode="&#x440;" 
d="M1096 518q-39 -253 -169 -396t-332 -143q-77 0 -133 31.5t-93 92.5l-77 -519h-338l224 1498h319l-7 -118q55 66 122.5 102t148.5 36q193 0 284 -156.5t54 -406.5zM762 539q20 141 -7.5 222t-115.5 81q-55 0 -98 -22t-74 -64l-67 -448q19 -35 56.5 -52t94.5 -17
q86 0 136.5 74.5t71.5 204.5z" />
    <glyph glyph-name="uni0441" unicode="&#x441;" horiz-adv-x="1048" 
d="M515 239q66 0 107 38t52 108h307l2 -6q-24 -184 -165.5 -292t-341.5 -108q-237 0 -353 154.5t-79 395.5l4 23q37 253 191.5 401.5t402.5 148.5q199 0 308.5 -116t76.5 -313l-2 -5h-309q12 80 -15.5 127t-97.5 47q-94 0 -146.5 -80t-71.5 -210l-4 -23q-21 -141 6 -215.5
t128 -74.5z" />
    <glyph glyph-name="uni0442" unicode="&#x442;" horiz-adv-x="1080" 
d="M1097 824h-342l-123 -824h-339l123 824h-335l38 258h1016z" />
    <glyph glyph-name="uni0443" unicode="&#x443;" horiz-adv-x="1053" 
d="M507 477v-5l6 -2l270 612h360l-617 -1243q-67 -120 -158.5 -198t-263.5 -78q-42 0 -71 6t-85 20l78 241q12 -3 19.5 -4.5t18.5 -1.5q76 0 118.5 24t67.5 70l37 70l-210 1094h359z" />
    <glyph glyph-name="uni0444" unicode="&#x444;" horiz-adv-x="1773" 
d="M46 539q39 262 170.5 412.5t334.5 150.5q76 0 132 -36t93 -103l89 597h338l-88 -586q53 61 118 94.5t143 33.5q193 0 284.5 -156.5t54.5 -406.5l-3 -21q-39 -252 -169.5 -395.5t-332.5 -143.5q-77 0 -132.5 32t-92.5 94l-78 -521h-338l77 517q-55 -59 -121 -90.5
t-144 -31.5q-192 0 -283.5 149.5t-54.5 389.5zM380 518q-21 -136 6.5 -207.5t119.5 -71.5q55 0 98 18.5t74 55.5l67 447q-18 40 -54.5 61t-92.5 21q-86 0 -140.5 -84.5t-74.5 -218.5zM1377 539q20 141 -7.5 222t-115.5 81q-55 0 -98 -22t-74 -63l-67 -449q19 -35 56.5 -52
t94.5 -17q86 0 136.5 74.5t71.5 204.5z" />
    <glyph glyph-name="uni0445" unicode="&#x445;" horiz-adv-x="1053" 
d="M558 764l6 -1l185 319h379l-394 -535l243 -547h-379l-95 329h-6l-193 -329h-379l407 547l-235 535h377z" />
    <glyph glyph-name="uni0446" unicode="&#x446;" horiz-adv-x="1261" 
d="M172 1082h337l-123 -822h298l123 822h338l-123 -822h167l-93 -620h-337l54 360h-803z" />
    <glyph glyph-name="uni0447" unicode="&#x447;" horiz-adv-x="1155" 
d="M987 0h-338l48 325q-30 -5 -56.5 -7.5t-44.5 -2.5q-252 0 -379 102t-95 316l52 349h337l-52 -349q-16 -100 21.5 -129t154.5 -29q24 0 49.5 2t51.5 8l75 497h338z" />
    <glyph glyph-name="uni0448" unicode="&#x448;" horiz-adv-x="1713" 
d="M509 1082l-123 -822h253l123 822h339l-123 -822h253l123 822h337l-162 -1082h-1519l162 1082h337z" />
    <glyph glyph-name="uni0449" unicode="&#x449;" horiz-adv-x="1915" 
d="M509 1082l-123 -822h253l123 822h339l-123 -822h253l123 822h337l-123 -822h245l-93 -620h-337l54 360h-1427l162 1082h337z" />
    <glyph glyph-name="uni044A" unicode="&#x44a;" horiz-adv-x="1316" 
d="M688 765h172q222 0 344.5 -106.5t97.5 -275.5q-27 -180 -175 -281.5t-382 -101.5h-509l123 821h-317l39 261h655zM650 506l-37 -248h171q78 0 126 35t57 92q8 56 -27.5 88.5t-118.5 32.5h-171z" />
    <glyph glyph-name="uni044B" unicode="&#x44b;" horiz-adv-x="1744" 
d="M510 765h172q222 0 344.5 -106.5t97.5 -275.5q-27 -180 -175 -281.5t-382 -101.5h-509l162 1082h338zM1464 0h-339l162 1082h339zM472 506l-37 -248h171q78 0 126 35t57 92q8 56 -27.5 88.5t-118.5 32.5h-171z" />
    <glyph glyph-name="uni044C" unicode="&#x44c;" horiz-adv-x="1157" 
d="M490 765h172q222 0 344.5 -106.5t97.5 -275.5q-27 -180 -175 -281.5t-382 -101.5h-509l162 1082h338zM452 506l-37 -248h171q78 0 126 35t57 92q8 56 -27.5 88.5t-118.5 32.5h-171z" />
    <glyph glyph-name="uni044D" unicode="&#x44d;" horiz-adv-x="1044" 
d="M543 842q-68 0 -108 -38t-49 -107h-307l-2 6q22 183 163 291t342 108q236 0 352 -155t80 -395l-4 -23q-38 -254 -192.5 -402t-401.5 -148q-199 0 -308 115.5t-76 314.5l2 5h309q-12 -82 14.5 -128.5t97.5 -46.5q79 0 127 56t70 150l-3 6h-230l27 183h239q5 100 -26.5 154
t-115.5 54z" />
    <glyph glyph-name="uni044E" unicode="&#x44e;" horiz-adv-x="1658" 
d="M484 682h106q61 196 210.5 308t364.5 112q238 0 357.5 -155t84.5 -396l-3 -21q-39 -254 -197.5 -402.5t-407.5 -148.5q-210 0 -329.5 121t-120.5 321h-104l-63 -421h-339l162 1082h339zM895 530q-22 -140 9 -215.5t134 -75.5q95 0 151.5 79t77.5 212l3 21
q20 136 -11 213.5t-133 77.5q-96 0 -153 -81t-75 -210z" />
    <glyph glyph-name="uni044F" unicode="&#x44f;" 
d="M1113 1082l-162 -1082h-336l54 358h-130l-245 -358h-336l287 418q-90 46 -133 122t-28 169q25 170 172 271.5t371 101.5h486zM420 697q-9 -50 26 -86t107 -36h148l38 249h-150q-68 0 -115 -39.5t-54 -87.5z" />
    <glyph glyph-name="uni0450" unicode="&#x450;" horiz-adv-x="1070" 
d="M493 -21q-236 0 -358 150.5t-88 375.5l5 38q38 257 191.5 408.5t404.5 150.5q210 0 315 -132.5t72 -357.5l-27 -177h-621l-2 -6q-5 -87 42 -138.5t151 -51.5q93 0 163 16.5t156 50.5l50 -206q-77 -51 -200.5 -86t-253.5 -35zM609 842q-78 0 -124.5 -51.5t-67.5 -138.5
l2 -6h291l4 26q13 87 -10.5 128.5t-94.5 41.5zM812 1278h-297l-246 260l3 6h370z" />
    <glyph glyph-name="uni0451" unicode="&#x451;" horiz-adv-x="1070" 
d="M493 -21q-236 0 -358 150.5t-88 375.5l5 38q38 257 191.5 408.5t404.5 150.5q210 0 315 -132.5t72 -357.5l-27 -177h-621l-2 -6q-5 -87 42 -138.5t151 -51.5q93 0 163 16.5t156 50.5l50 -206q-77 -51 -200.5 -86t-253.5 -35zM609 842q-78 0 -124.5 -51.5t-67.5 -138.5
l2 -6h291l4 26q13 87 -10.5 128.5t-94.5 41.5zM1047 1280h-290l29 204h290zM532 1280h-290l29 204h290z" />
    <glyph glyph-name="uni0452" unicode="&#x452;" horiz-adv-x="1152" 
d="M642 1196h-119l-36 -241q60 71 135.5 109t161.5 38q162 0 243.5 -118.5t44.5 -361.5l-22 -146h1l-73 -491q-32 -210 -155 -316t-318 -106q-43 0 -81 4t-77 13l52 255q29 -6 47.5 -9t50.5 -3q55 0 92.5 42t49.5 120l2 15l17 117l54 359l23 148q18 129 -6.5 173.5
t-90.5 44.5q-56 0 -100 -17.5t-78 -49.5l-116 -775h-338l179 1196h-132l32 208h131l24 156h338l-24 -156h120z" />
    <glyph glyph-name="uni0453" unicode="&#x453;" horiz-adv-x="859" 
d="M896 822h-426l-123 -822h-337l162 1082h763zM602 1524h370l2 -6l-318 -260h-291l-2 5z" />
    <glyph glyph-name="uni0454" unicode="&#x454;" horiz-adv-x="1045" 
d="M515 239q66 0 107 38t52 108h307l2 -6q-24 -184 -165.5 -292t-341.5 -108q-237 0 -353 154.5t-79 395.5l4 23q37 253 191.5 401.5t402.5 148.5q199 0 308.5 -116t76.5 -313l-2 -5h-309q12 80 -15.5 127t-97.5 47q-82 0 -132 -61t-69 -160l2 -5h253l-27 -183h-259
q-4 -95 29 -144.5t115 -49.5z" />
    <glyph glyph-name="uni0455" unicode="&#x455;" horiz-adv-x="1048" 
d="M628 304q5 41 -35.5 72t-158.5 56q-184 37 -269 114.5t-66 213.5q20 148 153 245t340 97q208 0 326 -97.5t92 -248.5l-2 -6h-329q9 66 -18.5 98t-100.5 32q-52 0 -93 -29t-46 -74q-7 -44 30.5 -73.5t160.5 -53.5q193 -39 277 -116.5t65 -219.5q-22 -152 -162.5 -243.5
t-356.5 -91.5q-211 0 -328 113t-92 249l2 6h306q-9 -77 30.5 -111t121.5 -34q66 0 106 27t47 75z" />
    <glyph glyph-name="uni0456" unicode="&#x456;" horiz-adv-x="561" 
d="M370 0h-339l162 1082h339zM570 1333h-339l34 227h339z" />
    <glyph glyph-name="uni0457" unicode="&#x457;" horiz-adv-x="584" 
d="M382 0h-339l162 1082h339zM798 1258h-290l29 204h290zM283 1258h-290l29 204h290z" />
    <glyph glyph-name="uni0458" unicode="&#x458;" horiz-adv-x="548" 
d="M536 1082l-164 -1097q-32 -210 -155.5 -316t-318.5 -106q-42 0 -79 4t-77 13l52 255q28 -6 48 -9t51 -3q55 0 91.5 41.5t48.5 120.5l164 1097h339zM568 1334h-339l34 226h339z" />
    <glyph glyph-name="uni0459" unicode="&#x459;" horiz-adv-x="1766" 
d="M1146 1082l-48 -317h173q221 0 343.5 -106.5t97.5 -275.5q-27 -180 -175 -281.5t-381 -101.5h-510l123 822h-192l-30 -201q-50 -328 -184 -474.5t-392 -146.5h-42l32 261h26q79 0 137 90.5t85 269.5l69 461h868zM1060 506l-37 -248h172q78 0 125.5 35t56.5 92
q8 56 -27 88.5t-118 32.5h-172z" />
    <glyph glyph-name="uni045A" unicode="&#x45a;" horiz-adv-x="1761" 
d="M446 660h295l63 422h338l-48 -317h172q222 0 344.5 -106.5t97.5 -275.5q-27 -180 -175 -281.5t-382 -101.5h-509l60 401h-295l-60 -401h-337l162 1082h337zM1056 506l-37 -248h171q78 0 126 35t57 92q8 56 -27.5 88.5t-118.5 32.5h-171z" />
    <glyph glyph-name="uni045B" unicode="&#x45b;" horiz-adv-x="1152" 
d="M821 1214h-295l-39 -259q60 71 135.5 109t161.5 38q162 0 243.5 -118.5t44.5 -361.5l-93 -622h-338l94 624q18 129 -6.5 173.5t-90.5 44.5q-56 0 -100 -17.5t-78 -49.5l-116 -775h-338l182 1214h-53l29 191h52l24 155h338l-24 -155h296z" />
    <glyph glyph-name="uni045C" unicode="&#x45c;" horiz-adv-x="1190" 
d="M545 378h-114l-56 -378h-337l162 1082h337l-59 -389h91l237 389h432l-397 -503l3 -5l19 8l245 -582h-457zM765 1524h370l2 -6l-318 -260h-291l-2 5z" />
    <glyph glyph-name="uni045D" unicode="&#x45d;" 
d="M808 1082h337l-162 -1082h-337l89 593l-6 2l-381 -595h-338l162 1082h338l-89 -592l6 -2zM846 1256h-297l-246 260l3 6h370z" />
    <glyph glyph-name="uni045E" unicode="&#x45e;" horiz-adv-x="1053" 
d="M507 477v-5l6 -2l270 612h360l-617 -1243q-67 -120 -158.5 -198t-263.5 -78q-42 0 -71 6t-85 20l78 241q12 -3 19.5 -4.5t18.5 -1.5q76 0 118.5 24t67.5 70l37 70l-210 1094h359zM1033 1565l2 -6q-15 -138 -125 -219.5t-280 -81.5q-163 0 -254 84.5t-67 216.5l2 6h244
q-7 -49 17.5 -78t85.5 -29q57 0 91 30.5t41 76.5h243z" />
    <glyph glyph-name="uni045F" unicode="&#x45f;" 
d="M509 1082l-123 -822h298l123 822h338l-162 -1082h-319l-54 -360h-337l54 360h-317l162 1082h337z" />
    <glyph glyph-name="uni0460" unicode="&#x460;" horiz-adv-x="1980" 
d="M1230 1435q62 20 132 31t143 11q223 0 351 -168.5t89 -428.5l-46 -304q-41 -275 -217.5 -436t-422.5 -161q-107 0 -190.5 21t-146.5 58q-74 -38 -164.5 -58.5t-201.5 -20.5q-235 0 -368.5 167.5t-93.5 429.5l46 304q41 274 213 435.5t408 161.5q68 0 135.5 -11t125.5 -31
l-99 -241q-38 11 -85.5 17t-104.5 6q-90 0 -162 -94t-94 -241l-46 -306q-24 -157 19 -247t145 -90q73 0 117.5 15t72.5 40l38 250h-183l33 224h705l-33 -224h-183l-38 -250q22 -26 59.5 -40.5t114.5 -14.5q96 0 169 93.5t95 243.5l46 306q23 154 -19 244.5t-134 90.5
q-56 0 -107.5 -6t-91.5 -17z" />
    <glyph glyph-name="uni0461" unicode="&#x461;" horiz-adv-x="1486" 
d="M488 446l6 -186l5 -1l82 187l89 247l-50 389h333l24 -636l2 -70l3 10q86 163 136 332t79 364h354q-78 -271 -192.5 -536t-265.5 -546h-333l-34 260l-6 1l-127 -261h-321l-190 1082h356z" />
    <glyph glyph-name="uni0462" unicode="&#x462;" horiz-adv-x="1278" 
d="M803 1085h-266l-16 -108h197q249 0 390.5 -138.5t109.5 -349.5q-34 -223 -209.5 -356t-437.5 -133h-535l162 1085h-81l28 191h82l27 180h339l-27 -180h265zM482 717l-68 -457h196q106 0 181.5 67.5t90.5 163.5q14 97 -39 161.5t-164 64.5h-197z" />
    <glyph glyph-name="uni0463" unicode="&#x463;" horiz-adv-x="1157" 
d="M766 1122h-222l-53 -357h171q222 0 344.5 -106.5t97.5 -275.5q-27 -180 -175 -281.5t-382 -101.5h-509l168 1122h-117l29 191h116l38 249h338l-37 -249h222zM452 506l-37 -248h171q78 0 126 35t57 92q8 56 -27.5 88.5t-118.5 32.5h-171z" />
    <glyph glyph-name="uni0464" unicode="&#x464;" horiz-adv-x="1824" 
d="M1218 598h-314l-3 -21q-24 -158 29 -247.5t179 -89.5q111 0 174 59t83 193h328l2 -6q-35 -259 -196 -382.5t-430 -123.5q-259 0 -403 166.5t-104 430.5l3 21h-82l-89 -598h-337l218 1456h337l-90 -597h81l4 22q41 276 221.5 436.5t442.5 160.5q267 0 403.5 -130
t96.5 -374l-3 -6h-330q21 139 -26.5 194.5t-179.5 55.5q-109 0 -187 -92.5t-100 -242.5l-4 -24h315z" />
    <glyph glyph-name="uni0465" unicode="&#x465;" horiz-adv-x="1554" 
d="M1110 464h-311q-9 -109 22 -167t120 -58q66 0 107 38t52 108h307l2 -6q-24 -184 -165.5 -292t-341.5 -108q-220 0 -336.5 134.5t-102.5 350.5h-14l-69 -464h-339l162 1082h339l-64 -427h17q56 208 203.5 327.5t369.5 119.5q199 0 308.5 -116t76.5 -313l-2 -5h-309
q12 80 -15.5 127t-97.5 47q-74 0 -121.5 -50t-68.5 -131l2 -6h297z" />
    <glyph glyph-name="uni0466" unicode="&#x466;" horiz-adv-x="1401" 
d="M888 366h-89l-54 -366h-269l54 366h-76l-173 -366h-356l727 1456h364l292 -1456h-356zM557 584h292l-77 440l-6 1z" />
    <glyph glyph-name="uni0467" unicode="&#x467;" horiz-adv-x="1171" 
d="M687 262h-65l-39 -262h-187l39 262h-48l-119 -262h-344l554 1082h365l229 -1082h-343zM478 460h178l-28 175l-11 138l-6 1l-53 -139z" />
    <glyph glyph-name="uni0468" unicode="&#x468;" horiz-adv-x="1976" 
d="M500 584h245l436 872h364l292 -1456h-356l-64 366h-89l-54 -366h-269l54 366h-76l-173 -366h-356l181 364h-168l-54 -364h-337l218 1456h337zM1086 584h292l-77 440l-6 1z" />
    <glyph glyph-name="uni0469" unicode="&#x469;" horiz-adv-x="1682" 
d="M1134 262h-65l-39 -262h-187l39 262h-48l-119 -262h-639l39 263h-2l30 196h2l93 623h339l-94 -623h123l319 623h365l229 -1082h-343zM925 460h178l-28 175l-11 138l-6 1l-53 -139zM454 263l-18 -124l5 -1l64 125h-51z" />
    <glyph glyph-name="uni046A" unicode="&#x46a;" horiz-adv-x="1795" 
d="M1247 796q232 -14 343.5 -126t78.5 -340l-50 -330h-337l50 330q17 119 -28.5 161.5t-163.5 42.5h-56l-80 -534h-338l80 534h-92q-113 0 -174 -45.5t-77 -158.5l-50 -330h-337l50 330q36 251 185 357t417 111l-270 658h1318zM968 861l212 331h-326z" />
    <glyph glyph-name="uni046B" unicode="&#x46b;" horiz-adv-x="1493" 
d="M1049 608q169 -26 249.5 -127.5t52.5 -290.5l-29 -190h-337l29 190q15 103 -13 141t-101 35l-6 -1l-54 -365h-337l54 364l-6 2q-74 4 -117 -35.5t-58 -140.5l-29 -190h-337l29 190q30 205 140 303.5t302 117.5l-202 471h1115zM768 650l6 -1l137 231h-211z" />
    <glyph glyph-name="uni046C" unicode="&#x46c;" horiz-adv-x="2409" 
d="M1314 535h-997l40 264h997zM394 0h-337l218 1456h337zM1814 796q232 -14 343.5 -126t78.5 -340l-50 -330h-337l50 330q17 119 -28.5 161.5t-163.5 42.5h-56l-80 -534h-338l80 534h-92q-113 0 -174 -45.5t-77 -158.5l-50 -330h-337l50 330q36 251 185 357t417 111
l-270 658h1318zM1535 861l212 331h-326z" />
    <glyph glyph-name="uni046D" unicode="&#x46d;" horiz-adv-x="2080" 
d="M1181 384h-985l35 233h985zM382 0h-339l162 1082h339zM1555 608q169 -26 249.5 -127.5t52.5 -290.5l-29 -190h-337l29 190q15 103 -13 141t-101 35l-6 -1l-54 -365h-337l54 364l-6 2q-74 4 -117 -35.5t-58 -140.5l-29 -190h-337l29 190q30 205 140 303.5t302 117.5
l-202 471h1115zM1274 650l6 -1l137 231h-211z" />
    <glyph glyph-name="uni046E" unicode="&#x46e;" horiz-adv-x="1048" 
d="M275 880h154q90 0 143.5 45t64.5 118t-33 108t-149 35h-239l40 270h239q259 0 387 -90.5t99 -283.5q-20 -131 -89.5 -214.5t-183.5 -125.5q126 -45 186.5 -130t42.5 -204q-32 -211 -187 -320t-398 -109h-62q-48 0 -76.5 -24t-33.5 -65q-10 -56 24 -88t90 -57l-111 -193
q-181 32 -251 133t-49 257q24 157 130.5 232.5t280.5 75.5h75q92 0 155.5 43t74.5 111q15 103 -41.5 154t-180.5 51h-143l27 177zM765 1803l119 116h309l-2 -16l-331 -260h-239l-255 262l2 14h312z" />
    <glyph glyph-name="uni046F" unicode="&#x46f;" horiz-adv-x="1057" 
d="M238 630h178q70 0 110.5 33.5t49.5 88.5q7 50 -34.5 75.5t-136.5 25.5h-239l34 229h239q250 0 376.5 -70.5t104.5 -221.5q-14 -93 -67.5 -155.5t-141.5 -97.5q103 -34 153 -93.5t39 -139.5q-25 -159 -165 -242t-364 -83h-49q-61 0 -94.5 -24t-38.5 -65q-10 -56 17.5 -88
t73.5 -57l-108 -172q-136 41 -205.5 139.5t-52.5 229.5q21 136 114 201t245 65h64q93 0 156.5 31t71.5 81q8 61 -40.5 92t-151.5 31h-167l7 46l14 89zM641 1459l119 116h309l-2 -16l-331 -260h-239l-255 262l2 14h312z" />
    <glyph glyph-name="uni0470" unicode="&#x470;" horiz-adv-x="1517" 
d="M953 633l5 -2q100 13 161.5 97.5t85.5 240.5l73 487h339l-73 -487q-42 -279 -208 -433.5t-425 -177.5l-53 -358h-337l53 357q-250 20 -379.5 181t-88.5 431l73 487h337l-73 -487q-24 -158 19 -241t148 -97l5 1l124 824h337z" />
    <glyph glyph-name="uni0471" unicode="&#x471;" horiz-adv-x="1569" 
d="M1027 1082l-121 -811l5 -2q118 28 185 115.5t88 222.5q16 114 7 231t-36 244h301q46 -95 65.5 -214.5t-0.5 -260.5q-38 -252 -196 -417.5t-462 -201.5l-70 -466h-337l70 470q-250 36 -375.5 183.5t-85.5 411.5l74 495h338l-74 -498q-23 -145 21 -221t138 -96l5 1l123 814
h337z" />
    <glyph glyph-name="uni0472" unicode="&#x472;" horiz-adv-x="1416" 
d="M1336 597q-43 -280 -237 -449t-472 -169q-266 0 -417.5 176.5t-110.5 441.5l39 262q41 278 236.5 448t475.5 170q264 0 414 -176.5t111 -441.5zM916 771q24 0 58.5 19t60.5 49l3 22q24 162 -34 259t-193 97q-132 0 -222.5 -100.5t-113.5 -255.5l-13 -84q34 47 81 73.5
t108 26.5q54 0 133 -53t132 -53zM1002 616q-34 -33 -75.5 -50t-90.5 -17q-66 0 -138 53.5t-126 53.5q-38 0 -85.5 -41t-57.5 -93q-4 -132 55.5 -207.5t181.5 -75.5q128 0 218.5 101t114.5 257z" />
    <glyph glyph-name="uni0473" unicode="&#x473;" horiz-adv-x="1152" 
d="M54 551q37 253 196 402t409 149q238 0 357.5 -155t84.5 -396l-3 -21q-39 -254 -197.5 -402.5t-407.5 -148.5q-239 0 -359 154.5t-83 396.5zM706 570q17 0 34.5 14.5t30.5 39.5q5 103 -30 160.5t-121 57.5q-89 0 -143.5 -69.5t-67.5 -173.5l4 -4q13 23 40 38.5t57 15.5
q39 0 98 -39.5t98 -39.5zM460 485q-25 0 -48 -27.5t-31 -66.5q5 -74 41 -113t110 -39q77 0 127.5 52t69.5 137l-3 5q-9 -12 -29 -20t-40 -8q-49 0 -103.5 40t-93.5 40z" />
    <glyph glyph-name="uni0474" unicode="&#x474;" horiz-adv-x="1325" 
d="M629 395l2 -51l6 -1l17 48l302 718q80 182 180.5 274t249.5 92q30 0 55.5 -4t42.5 -13l-63 -256q-4 0 -24 1.5t-31 1.5q-38 0 -75 -33t-52 -77l-474 -1095h-363l-256 1456h354z" />
    <glyph glyph-name="uni0475" unicode="&#x475;" horiz-adv-x="1053" 
d="M467 446l3 -95l5 -1l31 96l107 291q79 180 185.5 273t258.5 93q29 0 54.5 -4t43.5 -12l-63 -256q-4 0 -24.5 1.5t-31.5 1.5q-40 0 -77.5 -32.5t-53.5 -77.5l-310 -724h-343l-170 1082h356z" />
    <glyph glyph-name="uni0476" unicode="&#x476;" horiz-adv-x="1325" 
d="M629 395l2 -51l6 -1l17 48l302 718q80 182 180.5 274t249.5 92q30 0 55.5 -4t42.5 -13l-63 -256q-4 0 -24 1.5t-31 1.5q-38 0 -75 -33t-52 -77l-474 -1095h-363l-256 1456h354zM734 1586h-271l-239 261l2 5h303zM1114 1586h-274l-205 266h312z" />
    <glyph glyph-name="uni0477" unicode="&#x477;" horiz-adv-x="1053" 
d="M467 446l3 -95l5 -1l31 96l107 291q79 180 185.5 273t258.5 93q29 0 54.5 -4t43.5 -12l-63 -256q-4 0 -24.5 1.5t-31.5 1.5q-40 0 -77.5 -32.5t-53.5 -77.5l-310 -724h-343l-170 1082h356zM601 1352h-271l-239 261l2 5h303zM981 1352h-274l-205 266h312z" />
    <glyph glyph-name="uni0478" unicode="&#x478;" horiz-adv-x="2469" 
d="M1336 597q-43 -280 -237 -449t-472 -169q-266 0 -417.5 176.5t-110.5 441.5l39 262q41 278 236.5 448t475.5 170q264 0 414 -176.5t111 -441.5zM1038 861q24 162 -34 259t-193 97q-132 0 -222.5 -100.5t-113.5 -255.5l-39 -264q-25 -164 33.5 -261t196.5 -97
q128 0 218.5 101t114.5 257zM1923 477v-5l6 -2l270 612h360l-617 -1243q-67 -120 -158.5 -198t-263.5 -78q-42 0 -71 6t-85 20l78 241q12 -3 19.5 -4.5t18.5 -1.5q76 0 118.5 24t67.5 70l37 70l-210 1094h359z" />
    <glyph glyph-name="uni0479" unicode="&#x479;" horiz-adv-x="2204" 
d="M54 551q37 253 196 402t409 149q238 0 357.5 -155t84.5 -396l-3 -21q-39 -254 -197.5 -402.5t-407.5 -148.5q-239 0 -359 154.5t-83 396.5zM389 530q-22 -140 9 -215.5t134 -75.5q95 0 151.5 79t77.5 212l3 21q20 136 -11 213.5t-133 77.5q-96 0 -153 -81t-75 -210z
M1658 477v-5l6 -2l270 612h360l-617 -1243q-67 -120 -158.5 -198t-263.5 -78q-42 0 -71 6t-85 20l78 241q12 -3 19.5 -4.5t18.5 -1.5q76 0 118.5 24t67.5 70l37 70l-210 1094h359z" />
    <glyph glyph-name="uni047A" unicode="&#x47a;" horiz-adv-x="1416" 
d="M887 1084h-194l73 487h194zM707 -133h-193l75 497h193zM1336 597q-43 -280 -237 -449t-472 -169q-266 0 -417.5 176.5t-110.5 441.5l39 262q41 278 236.5 448t475.5 170q264 0 414 -176.5t111 -441.5zM1038 861q24 162 -34 259t-193 97q-132 0 -222.5 -100.5
t-113.5 -255.5l-39 -264q-25 -164 33.5 -261t196.5 -97q128 0 218.5 101t114.5 257z" />
    <glyph glyph-name="uni047B" unicode="&#x47b;" horiz-adv-x="1152" 
d="M705 726h-193l71 477h193zM569 -126h-193l75 497h193zM54 551q37 253 196 402t409 149q238 0 357.5 -155t84.5 -396l-3 -21q-39 -254 -197.5 -402.5t-407.5 -148.5q-239 0 -359 154.5t-83 396.5zM389 530q-22 -140 9 -215.5t134 -75.5q95 0 151.5 79t77.5 212l3 21
q20 136 -11 213.5t-133 77.5q-96 0 -153 -81t-75 -210z" />
    <glyph glyph-name="uni047C" unicode="&#x47c;" horiz-adv-x="1980" 
d="M1275 1435q52 20 110.5 31t119.5 11q223 0 348 -185t83 -472l-25 -164q-47 -312 -226.5 -494.5t-425.5 -182.5q-107 0 -190 26.5t-144 73.5q-75 -47 -166.5 -73.5t-202.5 -26.5q-235 0 -365 189.5t-85 487.5l25 164q45 301 219.5 479t410.5 178q58 0 113.5 -11t102.5 -31
l-99 -241q-29 11 -65.5 17t-79.5 6q-90 0 -164.5 -110.5t-100.5 -284.5l-25 -166q-29 -195 10.5 -306t141.5 -111q73 0 118 20.5t75 54.5l7 44h339l-7 -45q20 -35 57 -54.5t114 -19.5q96 0 172 115.5t104 301.5l25 166q27 183 -12.5 289t-132.5 106q-43 0 -82.5 -6
t-70.5 -17zM1653 1858l-20 -134h-11q-120 0 -275.5 60t-197.5 60q-46 0 -78 -25.5t-39 -76.5l-2 -18h-132l5 37q17 113 84 165t179 52q65 0 216 -60t261 -60h10zM1085 1439l-75 48l75 105l21 150h177l-19 -132z" />
    <glyph glyph-name="uni047D" unicode="&#x47d;" horiz-adv-x="1695" 
d="M1037 1065q49 20 102 31t110 11q198 0 312.5 -151.5t80.5 -385.5l-6 -34q-38 -256 -197.5 -406.5t-379.5 -150.5q-86 0 -155.5 21t-121.5 58q-64 -38 -140 -58.5t-166 -20.5q-210 0 -329 156.5t-82 400.5l6 34q36 245 190 391t364 146q53 0 104.5 -11t94.5 -31l-98 -241
q-26 11 -58.5 17t-70.5 6q-65 0 -118 -77.5t-70 -197.5l-6 -36q-21 -138 8.5 -217.5t103.5 -79.5q49 0 79.5 15t50.5 40l11 74h339l-11 -74q12 -26 37 -40.5t77 -14.5q69 0 125 83t76 214l6 36q18 126 -11 200.5t-96 74.5q-38 0 -72.5 -6t-61.5 -17zM1490 1460l-20 -134h-11
q-120 0 -275.5 60t-197.5 60q-46 0 -77.5 -25.5t-38.5 -76.5l-3 -18h-132l5 37q17 113 84 165t179 52q65 0 216 -60t261 -60h10zM925 1061l-75 48l75 105l19 130h178l-17 -112z" />
    <glyph glyph-name="uni047E" unicode="&#x47e;" horiz-adv-x="1980" 
d="M885 1687l-19 -127l-178 1l37 238h916l-36 -239h-179l19 127h-197l-19 -127h-181l19 127h-182zM1256 1194q40 11 91.5 17t107.5 6q92 0 134 -90.5t19 -244.5l-46 -306q-22 -150 -95 -243.5t-169 -93.5q-77 0 -114.5 14.5t-59.5 40.5l38 250h183l33 224h-705l-33 -224h183
l-38 -250q-28 -25 -72.5 -40t-117.5 -15q-102 0 -145 90t-19 247l46 306q22 147 94 241t162 94q57 0 104.5 -6t85.5 -17l99 241q-58 20 -125.5 31t-135.5 11q-236 0 -408 -161.5t-213 -435.5l-46 -304q-40 -262 93.5 -429.5t368.5 -167.5q111 0 201.5 20.5t164.5 58.5
q63 -37 146.5 -58t190.5 -21q246 0 422.5 161t217.5 436l46 304q39 260 -89 428.5t-351 168.5q-73 0 -143 -11t-132 -31z" />
    <glyph glyph-name="uni047F" unicode="&#x47f;" horiz-adv-x="1486" 
d="M646 1345l-19 -127l-177 1l37 238h824l-36 -239h-180l19 127h-151l-19 -127h-180l19 127h-137zM438 1082h-356l190 -1082h321l127 261l6 -1l34 -260h333q151 281 265.5 546t192.5 536h-354q-29 -195 -79 -364t-136 -332l-3 -10l-2 70l-24 636h-333l50 -389l-89 -247
l-82 -187l-5 1l-6 186z" />
    <glyph glyph-name="uni0480" unicode="&#x480;" horiz-adv-x="1246" 
d="M734 -356h-338l51 345q-198 37 -297.5 196t-64.5 391l46 304q41 277 217 437t437 160q254 0 378.5 -129.5t83.5 -375.5l-2 -5h-330q21 141 -16 195.5t-153 54.5q-110 0 -182 -91.5t-95 -243.5l-46 -306q-24 -157 16 -245t148 -92h236z" />
    <glyph glyph-name="uni0481" unicode="&#x481;" horiz-adv-x="1092" 
d="M689 -358h-337l52 347q-186 33 -272 180.5t-53 359.5l4 23q37 253 191 401.5t403 148.5q198 0 307 -116t76 -313l-2 -5h-309q12 80 -14.5 127t-96.5 47q-95 0 -147 -80t-71 -210l-4 -23q-21 -137 3.5 -211.5t119.5 -78.5h240z" />
    <glyph glyph-name="uni0482" unicode="&#x482;" horiz-adv-x="1270" 
d="M586 449l264 -172l-92 -128l-265 170l-229 -319h-175l285 398l-264 171l91 128l267 -171l256 360l-264 171l92 130l265 -171l234 326h172l-288 -405l267 -171l-95 -127l-263 170z" />
    <glyph glyph-name="uni0483" unicode="&#x483;" horiz-adv-x="781" 
d="M324 1312l-19 -126l-177 1l37 238h546l15 108l177 -1l-33 -220h-546z" />
    <glyph glyph-name="uni0484" unicode="&#x484;" horiz-adv-x="819" 
d="M171 1437q114 0 289 60t243 60q115 0 168 -52t37 -165l-6 -37h-136l3 18q7 51 -18.5 76.5t-72.5 25.5q-44 0 -223.5 -60t-302.5 -60h-12l21 134h10z" />
    <glyph glyph-name="uni0485" unicode="&#x485;" horiz-adv-x="315" 
d="M203 1500l23 152h190l-27 -170l43 -105l-92 -68z" />
    <glyph glyph-name="uni0486" unicode="&#x486;" horiz-adv-x="307" 
d="M206 1309l-71 68l74 105l25 170h189l-23 -152z" />
    <glyph glyph-name="uni0488" unicode="&#x488;" horiz-adv-x="2063" 
d="M920 1267l-2 6q7 82 70 132t161 50q92 0 143 -52t35 -130l-3 -6h-104q6 45 -14 73t-70 28q-48 0 -77 -29.5t-35 -71.5h-104zM1470 990l-2 6q7 82 70.5 132t160.5 50q92 0 143 -52t36 -130l-3 -6h-105q6 45 -13.5 73t-70.5 28q-47 0 -76.5 -29.5t-34.5 -71.5h-105z
M1581 487l-2 6q7 82 70.5 132t160.5 50q92 0 143 -52t35 -130l-3 -6h-104q6 45 -13.5 73t-70.5 28q-47 0 -76.5 -29.5t-35.5 -71.5h-104zM1306 -32l-2 6q8 82 71 132t160 50q92 0 143 -52t35 -130l-3 -6h-104q7 45 -13 73t-71 28q-47 0 -76.5 -29.5t-35.5 -71.5h-104z
M688 -316l-2 6q7 83 70 132.5t161 49.5q92 0 142.5 -51.5t35.5 -130.5l-3 -6h-104q6 46 -14 73.5t-70 27.5q-47 0 -76.5 -29t-35.5 -72h-104zM306 990l-2 6q7 82 70.5 132t161.5 50q92 0 142.5 -52t35.5 -130l-3 -6h-104q6 45 -14 73t-70 28q-48 0 -77.5 -29.5t-34.5 -71.5
h-105zM54 487l-2 6q7 82 70.5 132t160.5 50q92 0 143 -52t35 -130l-3 -6h-104q6 45 -13.5 73t-70.5 28q-47 0 -76.5 -29.5t-35.5 -71.5h-104zM142 -32l-2 6q8 82 71 132t160 50q93 0 144 -52.5t35 -129.5l-3 -6h-105q7 45 -13 73t-71 28q-47 0 -76 -29.5t-35 -71.5h-105z
" />
    <glyph glyph-name="uni0489" unicode="&#x489;" horiz-adv-x="1995" 
d="M1009 -60l9 -14l-173 -339h-96l123 353h137zM992 1126l-10 14l173 338h96l-123 -352h-136zM1596 631l14 12l315 -124l-15 -98l-335 71zM402 433l-15 -12l-314 124l14 98l336 -71zM1411 1002l5 16l344 153l57 -68q-40 -23 -324 -200zM580 21l-4 -17l-343 -153l-59 69
l324 200zM566 860l-17 2l-99 326l76 69l153 -299zM1423 161l17 -2l100 -325l-77 -71l-152 299z" />
    <glyph glyph-name="uni048A" unicode="&#x48a;" horiz-adv-x="1426" 
d="M1114 1456h338l-218 -1456h-338l134 901l-5 2l-668 -903h-338l218 1456h338l-135 -900l5 -2zM1264 1908l2 -6q-15 -138 -125 -219.5t-280 -81.5q-163 0 -254 84.5t-67 216.5l2 6h244q-7 -49 17.5 -78t85.5 -29q57 0 91 30.5t41 76.5h243zM1543 -48l-211 -318h-233
l119 327l40 263h326z" />
    <glyph glyph-name="uni048B" unicode="&#x48b;" 
d="M808 1082h337l-162 -1082h-337l89 593l-6 2l-381 -595h-338l162 1082h338l-89 -592l6 -2zM1082 1565l2 -6q-15 -138 -125 -219.5t-280 -81.5q-163 0 -254 84.5t-67 216.5l2 6h244q-7 -49 17.5 -78t85.5 -29q57 0 91 30.5t41 76.5h243zM1292 -48l-211 -318h-233l119 327
l40 263h326z" />
    <glyph glyph-name="uni048C" unicode="&#x48c;" horiz-adv-x="1278" 
d="M803 1085h-266l-16 -108h197q249 0 390.5 -138.5t109.5 -349.5q-34 -223 -209.5 -356t-437.5 -133h-535l162 1085h-81l28 191h82l27 180h339l-27 -180h265zM482 717l-68 -457h196q106 0 181.5 67.5t90.5 163.5q14 97 -39 161.5t-164 64.5h-197z" />
    <glyph glyph-name="uni048D" unicode="&#x48d;" horiz-adv-x="1157" 
d="M744 817h-246l-8 -52h172q222 0 344.5 -106.5t97.5 -275.5q-27 -180 -175 -281.5t-382 -101.5h-509l122 817h-102l28 191h103l11 74h338l-11 -74h245zM452 506l-37 -248h171q78 0 126 35t57 92q8 56 -27.5 88.5t-118.5 32.5h-171z" />
    <glyph glyph-name="uni048E" unicode="&#x48e;" horiz-adv-x="1280" 
d="M1021 369l-118 -59l-234 616l120 59zM441 499l-74 -499h-338l218 1456h556q249 0 386 -133.5t106 -345.5q-34 -223 -203.5 -350.5t-431.5 -127.5h-219zM480 759h219q106 0 175 61.5t83 154.5q14 100 -34 160.5t-159 60.5h-218z" />
    <glyph glyph-name="uni048F" unicode="&#x48f;" horiz-adv-x="1150" 
d="M761 -135l-124 -44l-121 600l123 44zM1096 518q-39 -253 -169 -396t-332 -143q-77 0 -133 31.5t-93 92.5l-77 -519h-338l224 1498h319l-7 -118q55 66 122.5 102t148.5 36q193 0 284 -156.5t54 -406.5zM762 539q20 141 -7.5 222t-115.5 81q-55 0 -98 -22t-74 -64l-67 -448
q19 -35 56.5 -52t94.5 -17q86 0 136.5 74.5t71.5 204.5z" />
    <glyph glyph-name="uni0490" unicode="&#x490;" horiz-adv-x="1144" 
d="M1212 1197h-20v-1h-638l-179 -1196h-339l218 1456h660l58 388h337z" />
    <glyph glyph-name="uni0491" unicode="&#x491;" horiz-adv-x="961" 
d="M705 1399h338l-87 -577h-486l-123 -822h-337l162 1082h485z" />
    <glyph glyph-name="uni0492" unicode="&#x492;" horiz-adv-x="1144" 
d="M691 656h-218l-98 -656h-339l98 656h-129l29 191h128l92 609h977l-39 -260h-638l-53 -349h219z" />
    <glyph glyph-name="uni0493" unicode="&#x493;" horiz-adv-x="859" 
d="M610 446h-196l-67 -446h-337l67 446h-153l29 191h152l67 445h763l-39 -260h-426l-28 -185h197z" />
    <glyph glyph-name="uni0494" unicode="&#x494;" horiz-adv-x="1097" 
d="M1192 1196h-638l-40 -265h184q272 0 423.5 -124.5t115.5 -366.5q-16 -132 -130.5 -263.5t-303.5 -203.5l-126 207q97 54 152.5 112.5t70.5 147.5q18 116 -45 173.5t-196 57.5h-184l-100 -671h-339l218 1456h977z" />
    <glyph glyph-name="uni0495" unicode="&#x495;" horiz-adv-x="1295" 
d="M896 822h-426l-14 -93h35q272 0 423.5 -124.5t116.5 -366.5q-16 -132 -130.5 -263t-303.5 -204l-126 207q97 54 152.5 112.5t70.5 147.5q17 116 -46 173.5t-196 57.5h-35l-70 -469h-337l162 1082h763z" />
    <glyph glyph-name="uni0496" unicode="&#x496;" horiz-adv-x="1961" 
d="M1272 578h-110l-86 -578h-338l86 578h-112l-375 -578h-420l560 793l-328 663h426l217 -576h77l87 576h338l-87 -576h77l378 576h424l-515 -660l313 -796h-421zM1966 -356h-337l94 630h337z" />
    <glyph glyph-name="uni0497" unicode="&#x497;" horiz-adv-x="1755" 
d="M1111 378h-91l-56 -378h-336l56 378h-88l-229 -378h-434l409 582l14 -7l5 4l-257 503h433l134 -389h60l59 389h336l-59 -389h65l250 389h425l3 -5l-401 -496l4 -5l13 6l234 -582h-434zM1694 -356h-337l94 630h337z" />
    <glyph glyph-name="uni0498" unicode="&#x498;" horiz-adv-x="1325" 
d="M1307 1061q-16 -105 -92 -187.5t-196 -128.5q119 -44 175 -130t38 -207q-32 -209 -215 -319t-459 -110q-224 0 -381 108t-120 311l2 6h330q-12 -74 46.5 -119.5t161.5 -45.5q120 0 203.5 50.5t94.5 125.5q16 111 -39.5 157t-185.5 46h-204l22 149l15 102h204
q115 0 181.5 48.5t80.5 136.5q11 72 -46 117.5t-179 45.5q-89 0 -158.5 -43t-79.5 -114h-327l-2 6q23 192 197.5 301.5t408.5 109.5q261 0 407 -109t117 -307zM620 51q76 -53 106.5 -120.5t19.5 -142.5q-16 -105 -97.5 -159.5t-195.5 -54.5q-58 0 -101.5 13t-75.5 31l61 168
q20 -8 39.5 -13t47.5 -5q48 0 65.5 21t20.5 38q7 48 -6.5 77t-51.5 87z" />
    <glyph glyph-name="uni0499" unicode="&#x499;" horiz-adv-x="1159" 
d="M429 652h159q68 0 113 28t52 75q6 46 -22.5 76t-102.5 30q-68 0 -112.5 -23.5t-51.5 -69.5h-326l-2 6q17 155 160 241t345 86q219 0 348 -83.5t107 -231.5q-12 -75 -69.5 -135.5t-148.5 -95.5q91 -33 134.5 -96.5t30.5 -152.5q-24 -157 -181.5 -241.5t-388.5 -84.5
q-190 0 -321.5 86.5t-101.5 247.5l2 6h328q-8 -46 29.5 -73t123.5 -27q76 0 123.5 34.5t54.5 81.5q10 63 -30.5 91.5t-122.5 28.5h-159l9 60l11 72zM535 52q76 -53 106.5 -120.5t19.5 -142.5q-16 -105 -97.5 -159.5t-195.5 -54.5q-58 0 -101.5 13t-75.5 31l61 168
q20 -8 39.5 -13t47.5 -5q48 0 65.5 21t20.5 38q7 48 -6.5 77t-51.5 87z" />
    <glyph glyph-name="uni049A" unicode="&#x49a;" horiz-adv-x="1306" 
d="M558 578h-96l-86 -578h-338l218 1456h338l-87 -576h91l346 576h446l-527 -721l328 -735h-390zM1252 -356h-337l94 630h337z" />
    <glyph glyph-name="uni049B" unicode="&#x49b;" horiz-adv-x="1190" 
d="M545 378h-114l-56 -378h-337l162 1082h337l-59 -389h91l237 389h432l-397 -503l3 -5l19 8l245 -582h-457zM1148 -356h-337l94 630h337z" />
    <glyph glyph-name="uni049C" unicode="&#x49c;" horiz-adv-x="1379" 
d="M1520 1456l-470 -650l291 -806h-433l-158 578h-41l-34 -225h-171l34 225h-77l-86 -578h-339l218 1456h339l-87 -576h77l39 258h171l-39 -258h23l318 576h425z" />
    <glyph glyph-name="uni049D" unicode="&#x49d;" horiz-adv-x="1211" 
d="M1304 1082l-346 -505l192 -577h-434l-60 378h-26l-24 -163h-147l24 163h-52l-56 -378h-337l162 1082h337l-59 -389h52l28 183h147l-28 -183h32l163 389h432z" />
    <glyph glyph-name="uni049E" unicode="&#x49e;" horiz-adv-x="1306" 
d="M556 584h-95l-87 -584h-338l170 1134h-223l29 191h222l20 131h338l-20 -131h126l-29 -191h-125l-37 -248h70l414 570h418l2 -5l-552 -657l378 -794h-434z" />
    <glyph glyph-name="uni049F" unicode="&#x49f;" horiz-adv-x="1119" 
d="M479 430h-61l-64 -430h-338l181 1207h-189l29 191h188l25 162h338l-25 -162h160l-29 -191h-159l-79 -522h49l287 397h380l2 -5l-400 -483l298 -594h-385z" />
    <glyph glyph-name="uni04A0" unicode="&#x4a0;" horiz-adv-x="1756" 
d="M995 584h-95l-87 -584h-338l179 1195h-466l39 261h804l-86 -570h71l414 570h418l2 -5l-552 -657l378 -794h-434z" />
    <glyph glyph-name="uni04A1" unicode="&#x4a1;" horiz-adv-x="1530" 
d="M925 378h-114l-56 -378h-337l123 821h-414l39 261h751l-59 -389h91l237 389h432l-397 -503l3 -5l19 8l245 -582h-457z" />
    <glyph glyph-name="uni04A2" unicode="&#x4a2;" horiz-adv-x="1446" 
d="M1250 0h-337l87 586h-539l-87 -586h-338l218 1456h338l-92 -610h539l92 610h337zM1397 -356h-337l94 630h337z" />
    <glyph glyph-name="uni04A3" unicode="&#x4a3;" 
d="M980 0h-338l60 401h-295l-60 -401h-337l162 1082h337l-63 -422h295l63 422h338zM1127 -356h-337l94 630h337z" />
    <glyph glyph-name="uni04A4" unicode="&#x4a4;" horiz-adv-x="2037" 
d="M499 846h539l92 610h962l-39 -260h-623l-2 1l-179 -1197h-337l87 586h-539l-87 -586h-338l218 1456h338z" />
    <glyph glyph-name="uni04A5" unicode="&#x4a5;" horiz-adv-x="1442" 
d="M446 660h295l63 422h667l-39 -260h-329l-123 -822h-338l60 401h-295l-60 -401h-337l162 1082h337z" />
    <glyph glyph-name="uni04A6" unicode="&#x4a6;" horiz-adv-x="2134" 
d="M1390 936h152q272 0 423.5 -124.5t116.5 -366.5q-16 -132 -130.5 -263.5t-302.5 -203.5l-127 207q97 54 153 112.5t70 147.5q18 116 -45 173.5t-197 57.5h-152l-101 -676h-337l179 1196h-539l-179 -1196h-338l218 1456h1214z" />
    <glyph glyph-name="uni04A7" unicode="&#x4a7;" horiz-adv-x="1766" 
d="M1092 732h156q272 0 423.5 -124.5t115.5 -366.5q-15 -132 -130 -263t-304 -204l-126 207q97 54 152.5 112.5t70.5 147.5q18 116 -45 173.5t-196 57.5h-156l-70 -472h-338l123 822h-298l-123 -822h-337l162 1082h973z" />
    <glyph glyph-name="uni04A8" unicode="&#x4a8;" horiz-adv-x="1509" 
d="M602 641l17 114q23 158 151.5 263t297.5 105q198 0 302.5 -112t77.5 -298l-14 -95q-41 -272 -259.5 -455.5t-501.5 -183.5q-300 0 -458 171t-116 447l39 262q39 262 249.5 439t480.5 174l6 -3l-40 -263q-132 0 -221.5 -94t-113.5 -251l-39 -264q-23 -152 47.5 -249.5
t206.5 -97.5q15 0 30.5 1t31.5 4q-102 56 -148 156t-26 230v0zM1073 618l14 98q9 59 -7.5 98t-51.5 39q-38 0 -65 -37.5t-36 -99.5l-11 -77q-12 -75 11.5 -132t73.5 -79h6q23 35 39.5 83.5t26.5 106.5v0z" />
    <glyph glyph-name="uni04A9" unicode="&#x4a9;" horiz-adv-x="1185" 
d="M505 495l4 24q18 124 119.5 208t235.5 84q140 0 211.5 -90t50.5 -236l-5 -34q-31 -203 -193 -337.5t-374 -134.5q-264 0 -403.5 147.5t-102.5 387.5l5 33q35 236 226 394.5t437 155.5l5 -3l-39 -260q-109 -14 -179 -87t-89 -198l-5 -35q-15 -101 22 -169.5t108 -72.5l6 2
q-29 31 -40.5 89.5t0.5 131.5v0zM809 472l5 36q6 41 -1.5 67t-24.5 21h-6q-17 5 -32 -21.5t-21 -69.5l-4 -28q-8 -48 0 -85.5t28 -49.5h6q17 20 30 53.5t20 76.5v0z" />
    <glyph glyph-name="uni04AA" unicode="&#x4aa;" horiz-adv-x="1307" 
d="M1227 491l2 -6q-35 -259 -196 -382.5t-430 -123.5q-260 0 -404 167t-104 430l46 304q41 276 221.5 436.5t442.5 160.5q267 0 403.5 -130t96.5 -374l-3 -6h-330q20 139 -27 194.5t-179 55.5q-109 0 -187 -92.5t-100 -242.5l-46 -306q-24 -158 29.5 -247.5t179.5 -89.5
q111 0 174 59t83 193h328zM623 60q76 -53 106.5 -120.5t19.5 -142.5q-16 -105 -97.5 -159.5t-195.5 -54.5q-58 0 -101.5 13t-75.5 31l61 168q20 -8 39.5 -13t47.5 -5q48 0 65.5 21t20.5 38q7 48 -6.5 77t-51.5 87z" />
    <glyph glyph-name="uni04AB" unicode="&#x4ab;" horiz-adv-x="1048" 
d="M515 239q66 0 107 38t52 108h307l2 -6q-24 -184 -165.5 -292t-341.5 -108q-237 0 -353 154.5t-79 395.5l4 23q37 253 191.5 401.5t402.5 148.5q199 0 308.5 -116t76.5 -313l-2 -5h-309q12 80 -15.5 127t-97.5 47q-94 0 -146.5 -80t-71.5 -210l-4 -23q-21 -141 6 -215.5
t128 -74.5zM519 60q76 -53 106.5 -120.5t19.5 -142.5q-16 -105 -97.5 -159.5t-195.5 -54.5q-58 0 -101.5 13t-75.5 31l61 168q20 -8 39.5 -13t47.5 -5q48 0 65.5 21t20.5 38q7 48 -6.5 77t-51.5 87z" />
    <glyph glyph-name="uni04AC" unicode="&#x4ac;" horiz-adv-x="1150" 
d="M1228 1196h-385l-179 -1196h-338l179 1196h-378l39 260h1101zM811 -356h-337l94 630h337z" />
    <glyph glyph-name="uni04AD" unicode="&#x4ad;" horiz-adv-x="1080" 
d="M1097 824h-342l-123 -824h-339l123 824h-335l38 258h1016zM779 -356h-337l94 630h337z" />
    <glyph glyph-name="uni04AE" unicode="&#x4ae;" horiz-adv-x="1307" 
d="M692 819l6 -1l386 638h366l-636 -944l-76 -512h-337l79 528l-347 928h366z" />
    <glyph glyph-name="uni04AF" unicode="&#x4af;" horiz-adv-x="1053" 
d="M774 1082h355l-514 -1082h-3l-63 -417h-338l63 417h-2l-190 1082h356l50 -636l3 -115l6 -1l39 116z" />
    <glyph glyph-name="uni04B0" unicode="&#x4b0;" horiz-adv-x="1307" 
d="M692 819l6 -1l386 638h366l-507 -752h99l-29 -191h-198l-77 -513h-337l77 513h-151l29 191h58l-281 752h366z" />
    <glyph glyph-name="uni04B1" unicode="&#x4b1;" horiz-adv-x="1053" 
d="M798 20h-174l-9 -20h-3l-63 -417h-338l63 417h-2l-4 20h-156l29 191h94l-153 871h356l50 -636l3 -115l6 -1l39 116l238 636h355l-414 -871h112z" />
    <glyph glyph-name="uni04B2" unicode="&#x4b2;" horiz-adv-x="1307" 
d="M711 972l6 -1l309 485h390l-525 -722l339 -734h-410l-173 501l-323 -501h-390l538 734l-309 722h387zM1206 -356h-337l94 630h337z" />
    <glyph glyph-name="uni04B3" unicode="&#x4b3;" horiz-adv-x="1053" 
d="M558 764l6 -1l185 319h379l-394 -535l243 -547h-379l-95 329h-6l-193 -329h-379l407 547l-235 535h377zM959 -356h-337l94 630h337z" />
    <glyph glyph-name="uni04B4" unicode="&#x4b4;" horiz-adv-x="1837" 
d="M460 1195h-325l39 261h964l-39 -261h-302l-140 -935h539l179 1196h338l-177 -1178h250l-95 -630h-337l53 352h-1126z" />
    <glyph glyph-name="uni04B5" unicode="&#x4b5;" horiz-adv-x="1416" 
d="M290 821h-195l39 261h707l-39 -261h-175l-84 -561h298l123 822h338l-123 -822h167l-93 -620h-337l54 360h-803z" />
    <glyph glyph-name="uni04B6" unicode="&#x4b6;" horiz-adv-x="1431" 
d="M1454 1456l-218 -1456h-338l81 543q-60 -10 -136 -16.5t-113 -6.5q-271 0 -415.5 123.5t-107.5 367.5l66 445h338l-66 -445q-21 -136 32 -183.5t192 -47.5q40 0 115 6t134 16l98 654h338zM1383 -356h-337l94 630h337z" />
    <glyph glyph-name="uni04B7" unicode="&#x4b7;" horiz-adv-x="1155" 
d="M987 0h-338l48 325q-30 -5 -56.5 -7.5t-44.5 -2.5q-252 0 -379 102t-95 316l52 349h337l-52 -349q-16 -100 21.5 -129t154.5 -29q24 0 49.5 2t51.5 8l75 497h338zM1134 -356h-337l94 630h337z" />
    <glyph glyph-name="uni04B8" unicode="&#x4b8;" horiz-adv-x="1391" 
d="M808 280h-170l118 785h170zM1454 1456l-218 -1456h-338l81 543q-60 -10 -136 -16.5t-113 -6.5q-271 0 -415.5 123.5t-107.5 367.5l66 445h338l-66 -445q-21 -136 32 -183.5t192 -47.5q40 0 115 6t134 16l98 654h338z" />
    <glyph glyph-name="uni04B9" unicode="&#x4b9;" horiz-adv-x="1156" 
d="M609 160h-170l102 681h170zM987 0h-338l48 325q-30 -5 -56.5 -7.5t-44.5 -2.5q-252 0 -379 102t-95 316l52 349h337l-52 -349q-16 -100 21.5 -129t154.5 -29q24 0 49.5 2t51.5 8l75 497h338z" />
    <glyph glyph-name="uni04BA" unicode="&#x4ba;" horiz-adv-x="1450" 
d="M-30 0l218 1456h338l-82 -544q59 10 135 17t115 7q270 0 415 -124t109 -367l-67 -445h-338l67 445q20 135 -33.5 183t-191.5 48q-42 0 -117 -6.5t-132 -16.5l-98 -653h-338z" />
    <glyph glyph-name="uni04BB" unicode="&#x4bb;" horiz-adv-x="1156" 
d="M312.061 1084h337.979l-47.9971 -324.98q29.998 5 56.4961 7.5t44.4971 2.5q251.985 0 378.978 -101.994t94.9941 -315.98l-51.9971 -348.979h-336.979l51.9971 348.979q15.999 99.9941 -21.499 128.992t-154.49 28.998q-23.999 0 -49.4971 -2
q-25.499 -2 -51.4971 -7.99902l-74.9951 -496.97h-337.979z" />
    <glyph glyph-name="uni04BC" unicode="&#x4bc;" horiz-adv-x="1651" 
d="M913 -23q-329 0 -498 182t-143 484q-145 27 -214 143t-43 296h216q-13 -83 7.5 -135.5t73.5 -73.5q77 278 280 440.5t458 161.5q285 0 422.5 -186.5t90.5 -502.5l-26 -172h-920l-3 -6q-11 -163 69 -254.5t272 -91.5q116 0 224 17.5t186 41.5l9 -269q-57 -25 -180 -50
t-281 -25zM1008 1190q-120 0 -212 -85.5t-135 -220.5l2 -6h577l4 31q19 131 -36 206t-200 75z" />
    <glyph glyph-name="uni04BD" unicode="&#x4bd;" horiz-adv-x="1230" 
d="M604 -21q-226 0 -348.5 138.5t-102.5 350.5q-111 43 -160.5 146t-27.5 250h194q-10 -59 0 -102.5t39 -70.5q63 193 206 302t355 109q210 0 315 -132.5t72 -357.5l-27 -177h-621l-2 -6q-5 -87 42 -138.5t151 -51.5q93 0 163 16.5t156 50.5l50 -206q-77 -51 -200.5 -86
t-253.5 -35zM720 842q-78 0 -124.5 -51.5t-67.5 -138.5l2 -6h291l4 26q13 87 -10.5 128.5t-94.5 41.5z" />
    <glyph glyph-name="uni04BE" unicode="&#x4be;" horiz-adv-x="1651" 
d="M913 -23q-329 0 -498 182t-143 484q-145 27 -214 143t-43 296h216q-13 -83 7.5 -135.5t73.5 -73.5q77 278 280 440.5t458 161.5q285 0 422.5 -186.5t90.5 -502.5l-26 -172h-920l-3 -6q-11 -163 69 -254.5t272 -91.5q116 0 224 17.5t186 41.5l9 -269q-57 -25 -180 -50
t-281 -25zM1008 1190q-120 0 -212 -85.5t-135 -220.5l2 -6h577l4 31q19 131 -36 206t-200 75zM843 0q-51 -52 -74.5 -84.5t-30.5 -79.5q-3 -19 8.5 -39t63.5 -20q27 0 49.5 5.5t43.5 12.5l11 -168q-38 -19 -85 -31.5t-108 -12.5q-111 0 -178 57t-52 157q11 78 59.5 143.5
t139.5 119.5z" />
    <glyph glyph-name="uni04BF" unicode="&#x4bf;" horiz-adv-x="1230" 
d="M604 -21q-226 0 -348.5 138.5t-102.5 350.5q-111 43 -160.5 146t-27.5 250h194q-10 -59 0 -102.5t39 -70.5q63 193 206 302t355 109q210 0 315 -132.5t72 -357.5l-27 -177h-621l-2 -6q-5 -87 42 -138.5t151 -51.5q93 0 163 16.5t156 50.5l50 -206q-77 -51 -200.5 -86
t-253.5 -35zM720 842q-78 0 -124.5 -51.5t-67.5 -138.5l2 -6h291l4 26q13 87 -10.5 128.5t-94.5 41.5zM632 0q-51 -52 -74.5 -84.5t-30.5 -79.5q-3 -19 8.5 -39t63.5 -20q27 0 49.5 5.5t43.5 12.5l11 -168q-38 -19 -85 -31.5t-108 -12.5q-111 0 -178 57t-52 157
q11 78 59.5 143.5t139.5 119.5z" />
    <glyph glyph-name="uni04C0" unicode="&#x4c0;" horiz-adv-x="611" 
d="M394 0h-337l218 1456h337z" />
    <glyph glyph-name="uni04C1" unicode="&#x4c1;" horiz-adv-x="1961" 
d="M1272 578h-110l-86 -578h-338l86 578h-112l-375 -578h-420l560 793l-328 663h426l217 -576h77l87 576h338l-87 -576h77l378 576h424l-515 -660l313 -796h-421zM1538 1908l2 -6q-15 -138 -125 -219.5t-280 -81.5q-163 0 -254 84.5t-67 216.5l2 6h244q-7 -49 17.5 -78
t85.5 -29q57 0 91 30.5t41 76.5h243z" />
    <glyph glyph-name="uni04C2" unicode="&#x4c2;" horiz-adv-x="1755" 
d="M1111 378h-91l-56 -378h-336l56 378h-88l-229 -378h-434l409 582l14 -7l5 4l-257 503h433l134 -389h60l59 389h336l-59 -389h65l250 389h425l3 -5l-401 -496l4 -5l13 6l234 -582h-434zM1383 1565l2 -6q-15 -138 -125 -219.5t-280 -81.5q-163 0 -254 84.5t-67 216.5l2 6
h244q-7 -49 17.5 -78t85.5 -29q57 0 91 30.5t41 76.5h243z" />
    <glyph glyph-name="uni04C3" unicode="&#x4c3;" horiz-adv-x="1297" 
d="M888 810q182 -48 272.5 -175t60.5 -331q-17 -138 -136.5 -275t-316.5 -213l-127 207q105 57 165.5 120.5t76.5 160.5q21 137 -46 204.5t-212 67.5h-164l-86 -576h-339l218 1456h339l-87 -576h91l383 576h419l3 -5z" />
    <glyph glyph-name="uni04C4" unicode="&#x4c4;" horiz-adv-x="1195" 
d="M849 589q136 -54 201 -165t41 -276q-17 -133 -131 -263.5t-303 -203.5l-127 207q97 53 153 112t70 148q17 107 -36 164.5t-167 65.5h-119l-56 -378h-337l162 1082h337l-59 -389h91l237 389h432z" />
    <glyph glyph-name="uni04C5" unicode="&#x4c5;" horiz-adv-x="1446" 
d="M1468 1456l-218 -1456h-337l179 1196h-360l-58 -388q-68 -455 -231.5 -631.5t-446.5 -176.5h-38l39 260h39q132 0 191.5 113.5t107.5 434.5l97 648h1036zM1559 -48l-211 -318h-233l119 327l40 263h326z" />
    <glyph glyph-name="uni04C6" unicode="&#x4c6;" horiz-adv-x="1157" 
d="M1145 1082l-162 -1082h-337l123 822h-208l-30 -201q-50 -332 -175 -476.5t-380 -144.5h-42l32 261h26q94 0 131.5 73t69.5 287l69 461h883zM1292 -48l-211 -318h-233l119 327l40 263h326z" />
    <glyph glyph-name="uni04C7" unicode="&#x4c7;" horiz-adv-x="1446" 
d="M592 1456l-91 -610h539l91 610h337l-220 -1471q-32 -210 -155 -316t-318 -106q-43 0 -80.5 4t-76.5 13l52 255q28 -6 47 -9t51 -3q54 0 92.5 42t50.5 120l90 601h-539l-88 -586h-338l218 1456h338z" />
    <glyph glyph-name="uni04C8" unicode="&#x4c8;" 
d="M509 1082l-63 -422h295l63 422h338l-164 -1097q-32 -210 -155 -316t-318 -106q-43 0 -81 4t-77 13l52 255q29 -6 47.5 -9t51.5 -3q54 0 92 42t50 120l62 416h-295l-60 -401h-337l162 1082h337z" />
    <glyph glyph-name="uni04C9" unicode="&#x4c9;" horiz-adv-x="1446" 
d="M1250 0h-337l87 586h-539l-87 -586h-338l218 1456h338l-92 -610h539l92 610h337zM1559 -48l-211 -318h-233l119 327l40 263h326z" />
    <glyph glyph-name="uni04CA" unicode="&#x4ca;" 
d="M980 0h-338l60 401h-295l-60 -401h-337l162 1082h337l-63 -422h295l63 422h338zM1289 -48l-211 -318h-233l119 327l40 263h326z" />
    <glyph glyph-name="uni04CB" unicode="&#x4cb;" horiz-adv-x="1431" 
d="M1454 1456l-218 -1456h-338l81 543q-60 -10 -136 -16.5t-113 -6.5q-271 0 -415.5 123.5t-107.5 367.5l66 445h338l-66 -445q-21 -136 32 -183.5t192 -47.5q40 0 115 6t134 16l98 654h338zM970 -356h-337l94 630h337z" />
    <glyph glyph-name="uni04CC" unicode="&#x4cc;" horiz-adv-x="1155" 
d="M987 0h-338l48 325q-30 -5 -56.5 -7.5t-44.5 -2.5q-252 0 -379 102t-95 316l52 349h337l-52 -349q-16 -100 21.5 -129t154.5 -29q24 0 49.5 2t51.5 8l75 497h338zM721 -356h-337l94 630h337z" />
    <glyph glyph-name="uni04CD" unicode="&#x4cd;" horiz-adv-x="1783" 
d="M870 438l6 -1l482 1019h447l-218 -1456h-338l140 937l-6 1l-461 -938h-227l-177 924h-6l-138 -924h-338l218 1456h443zM1896 -48l-211 -318h-233l119 327l40 263h326z" />
    <glyph glyph-name="uni04CE" unicode="&#x4ce;" horiz-adv-x="1571" 
d="M747 381l6 -1l347 702h423l-162 -1082h-337l87 583l-5 1l-300 -584h-225l-117 552l-6 -1l-83 -551h-337l162 1082h413zM1670 -48l-211 -318h-233l119 327l40 263h326z" />
    <glyph glyph-name="uni04CF" unicode="&#x4cf;" horiz-adv-x="611" 
d="M394 0h-337l218 1456h337z" />
    <glyph glyph-name="uni04D0" unicode="&#x4d0;" horiz-adv-x="1307" 
d="M840 283h-432l-127 -283h-356l693 1456h181v-1l1 1h181l258 -1456h-356zM524 543h277l-67 451l-6 1zM1213 1908l2 -6q-15 -138 -125 -219.5t-280 -81.5q-163 0 -254 84.5t-67 216.5l2 6h244q-7 -49 17.5 -78t85.5 -29q57 0 91 30.5t41 76.5h243z" />
    <glyph glyph-name="uni04D1" unicode="&#x4d1;" horiz-adv-x="1086" 
d="M641 1q-13 34 -20.5 77t-7.5 90q-57 -86 -129 -137.5t-176 -51.5q-164 0 -248 88.5t-62 237.5q25 167 157 251.5t381 84.5h139l12 77q10 72 -17 107.5t-96 35.5q-57 0 -91 -28t-42 -85l-328 1l-1 6q17 154 160.5 250.5t359.5 96.5q194 0 307 -101t85 -285l-61 -408
q-14 -89 -10 -160.5t22 -147.5zM436 220q59 0 112.5 29.5t78.5 69.5l21 142h-136q-77 0 -121 -39.5t-53 -98.5q-7 -48 20.5 -75.5t77.5 -27.5zM1051 1586l2 -6q-15 -138 -125 -219.5t-280 -81.5q-163 0 -254 84.5t-67 216.5l2 6h244q-7 -49 17.5 -78t85.5 -29q57 0 91 30.5
t41 76.5h243z" />
    <glyph glyph-name="uni04D2" unicode="&#x4d2;" horiz-adv-x="1307" 
d="M840 283h-432l-127 -283h-356l693 1456h181v-1l1 1h181l258 -1456h-356zM524 543h277l-67 451l-6 1zM1210 1601h-290l29 204h290zM695 1601h-290l29 204h290z" />
    <glyph glyph-name="uni04D3" unicode="&#x4d3;" horiz-adv-x="1086" 
d="M641 1q-13 34 -20.5 77t-7.5 90q-57 -86 -129 -137.5t-176 -51.5q-164 0 -248 88.5t-62 237.5q25 167 157 251.5t381 84.5h139l12 77q10 72 -17 107.5t-96 35.5q-57 0 -91 -28t-42 -85l-328 1l-1 6q17 154 160.5 250.5t359.5 96.5q194 0 307 -101t85 -285l-61 -408
q-14 -89 -10 -160.5t22 -147.5zM436 220q59 0 112.5 29.5t78.5 69.5l21 142h-136q-77 0 -121 -39.5t-53 -98.5q-7 -48 20.5 -75.5t77.5 -27.5zM1049 1279h-290l29 204h290zM534 1279h-290l29 204h290z" />
    <glyph glyph-name="uni04D4" unicode="&#x4d4;" horiz-adv-x="1916" 
d="M1767 0h-897l35 329h-382l-202 -329h-390l953 1456h1040l-39 -264h-550l-34 -316h455l-39 -264h-444l-38 -348h572zM934 599l52 473l-6 2l-292 -475h246z" />
    <glyph glyph-name="uni04D5" unicode="&#x4d5;" horiz-adv-x="1763" 
d="M1192 -21q-121 0 -213.5 38.5t-151.5 110.5q-70 -66 -173.5 -107.5t-235.5 -41.5q-195 0 -296 93.5t-76 251.5q24 165 167.5 248t401.5 83h157l7 46q10 68 -19 104.5t-93 36.5q-67 0 -112.5 -29.5t-51.5 -72.5l-325 18l-2 6q17 152 163 245t371 93q93 0 170.5 -23
t132.5 -66q68 44 152.5 66.5t183.5 22.5q203 0 310.5 -133.5t74.5 -356.5l-27 -177h-621l-2 -6q-9 -91 36.5 -140.5t156.5 -49.5q84 0 150 16.5t145 50.5l50 -206q-74 -51 -192 -86t-238 -35zM517 211q47 0 104.5 24t95.5 58l24 158h-154q-84 0 -140.5 -39t-63.5 -92
q-8 -54 25 -81.5t109 -27.5zM1310 842q-82 0 -128.5 -50.5t-64.5 -139.5l2 -6h291l4 26q12 83 -15 126.5t-89 43.5z" />
    <glyph glyph-name="uni04D6" unicode="&#x4d6;" horiz-adv-x="1143" 
d="M980 623h-513l-54 -363h615l-39 -260h-953l218 1456h954l-39 -260h-616l-47 -313h513zM1151 1908l2 -6q-15 -138 -125 -219.5t-280 -81.5q-163 0 -254 84.5t-67 216.5l2 6h244q-7 -49 17.5 -78t85.5 -29q57 0 91 30.5t41 76.5h243z" />
    <glyph glyph-name="uni04D7" unicode="&#x4d7;" horiz-adv-x="1070" 
d="M493 -21q-236 0 -358 150.5t-88 375.5l5 38q38 257 191.5 408.5t404.5 150.5q210 0 315 -132.5t72 -357.5l-27 -177h-621l-2 -6q-5 -87 42 -138.5t151 -51.5q93 0 163 16.5t156 50.5l50 -206q-77 -51 -200.5 -86t-253.5 -35zM609 842q-78 0 -124.5 -51.5t-67.5 -138.5
l2 -6h291l4 26q13 87 -10.5 128.5t-94.5 41.5zM1049 1587l2 -6q-15 -138 -125 -219.5t-280 -81.5q-163 0 -254 84.5t-67 216.5l2 6h244q-7 -49 17.5 -78t85.5 -29q57 0 91 30.5t41 76.5h243z" />
    <glyph glyph-name="uni04D8" unicode="&#x4d8;" horiz-adv-x="1546" 
d="M796 1477q345 0 512 -201.5t119 -528.5l-6 -42q-51 -331 -266 -529t-498 -197q-305 0 -453 186t-100 503l26 172h962l3 6q11 161 -70 253.5t-272 92.5q-117 0 -224 -18t-186 -41l-9 269q56 24 179.5 49.5t282.5 25.5zM700 264q119 0 211.5 85t135.5 221l-2 6h-618l-4 -31
q-20 -132 45 -206.5t232 -74.5z" />
    <glyph glyph-name="uni04D9" unicode="&#x4d9;" horiz-adv-x="1077" 
d="M792.03 1103q235.985 0 357.978 -150.491q121.993 -150.49 87.9951 -375.477l-5 -37.998q-37.9971 -256.984 -191.488 -408.476q-153.49 -151.49 -404.476 -150.49q-209.986 0 -314.98 132.492q-104.993 132.491 -71.9951 357.478l26.998 176.989h620.962l2 6
q5 86.9941 -41.9971 138.491t-150.991 51.4971q-92.9941 0 -162.99 -16.499q-69.9951 -16.499 -155.99 -50.4971l-49.9971 205.987q76.9951 50.9971 200.488 85.9951q123.492 34.998 253.484 34.998zM676.037 240.052q77.9951 0 124.492 51.4961
q46.4971 51.4971 67.4961 138.492l-2 5.99902h-290.982l-3.99902 -25.998q-13 -86.9951 10.499 -128.492q23.498 -41.4971 94.4941 -41.4971z" />
    <glyph glyph-name="uni04DA" unicode="&#x4da;" horiz-adv-x="1546" 
d="M796 1477q345 0 512 -201.5t119 -528.5l-6 -42q-51 -331 -266 -529t-498 -197q-305 0 -453 186t-100 503l26 172h962l3 6q11 161 -70 253.5t-272 92.5q-117 0 -224 -18t-186 -41l-9 269q56 24 179.5 49.5t282.5 25.5zM700 264q119 0 211.5 85t135.5 221l-2 6h-618l-4 -31
q-20 -132 45 -206.5t232 -74.5zM1253 1542h-290l29 204h290zM738 1542h-290l29 204h290z" />
    <glyph glyph-name="uni04DB" unicode="&#x4db;" horiz-adv-x="1077" 
d="M792.03 1103q235.985 0 357.978 -150.491q121.993 -150.49 87.9951 -375.477l-5 -37.998q-37.9971 -256.984 -191.488 -408.476q-153.49 -151.49 -404.476 -150.49q-209.986 0 -314.98 132.492q-104.993 132.491 -71.9951 357.478l26.998 176.989h620.962l2 6
q5 86.9941 -41.9971 138.491t-150.991 51.4971q-92.9941 0 -162.99 -16.499q-69.9951 -16.499 -155.99 -50.4971l-49.9971 205.987q76.9951 50.9971 200.488 85.9951q123.492 34.998 253.484 34.998zM676.037 240.052q77.9951 0 124.492 51.4961
q46.4971 51.4971 67.4961 138.492l-2 5.99902h-290.982l-3.99902 -25.998q-13 -86.9951 10.499 -128.492q23.498 -41.4971 94.4941 -41.4971zM1068 1279h-290l29 204h290zM553 1279h-290l29 204h290z" />
    <glyph glyph-name="uni04DC" unicode="&#x4dc;" horiz-adv-x="1961" 
d="M1272 578h-110l-86 -578h-338l86 578h-112l-375 -578h-420l560 793l-328 663h426l217 -576h77l87 576h338l-87 -576h77l378 576h424l-515 -660l313 -796h-421zM1535 1601h-290l29 204h290zM1020 1601h-290l29 204h290z" />
    <glyph glyph-name="uni04DD" unicode="&#x4dd;" horiz-adv-x="1755" 
d="M1111 378h-91l-56 -378h-336l56 378h-88l-229 -378h-434l409 582l14 -7l5 4l-257 503h433l134 -389h60l59 389h336l-59 -389h65l250 389h425l3 -5l-401 -496l4 -5l13 6l234 -582h-434zM1381 1258h-290l29 204h290zM866 1258h-290l29 204h290z" />
    <glyph glyph-name="uni04DE" unicode="&#x4de;" horiz-adv-x="1325" 
d="M1307 1061q-16 -105 -92 -187.5t-196 -128.5q119 -44 175 -130t38 -207q-32 -209 -215 -319t-459 -110q-224 0 -381 108t-120 311l2 6h330q-12 -74 46.5 -119.5t161.5 -45.5q120 0 203.5 50.5t94.5 125.5q16 111 -39.5 157t-185.5 46h-204l22 149l15 102h204
q115 0 181.5 48.5t80.5 136.5q11 72 -46 117.5t-179 45.5q-89 0 -158.5 -43t-79.5 -114h-327l-2 6q23 192 197.5 301.5t408.5 109.5q261 0 407 -109t117 -307zM1219 1622h-290l29 204h290zM704 1622h-290l29 204h290z" />
    <glyph glyph-name="uni04DF" unicode="&#x4df;" horiz-adv-x="1159" 
d="M429 652h159q68 0 113 28t52 75q6 46 -22.5 76t-102.5 30q-68 0 -112.5 -23.5t-51.5 -69.5h-326l-2 6q17 155 160 241t345 86q219 0 348 -83.5t107 -231.5q-12 -75 -69.5 -135.5t-148.5 -95.5q91 -33 134.5 -96.5t30.5 -152.5q-24 -157 -181.5 -241.5t-388.5 -84.5
q-190 0 -321.5 86.5t-101.5 247.5l2 6h328q-8 -46 29.5 -73t123.5 -27q76 0 123.5 34.5t54.5 81.5q10 63 -30.5 91.5t-122.5 28.5h-159l9 60l11 72zM1082 1278h-290l29 204h290zM567 1278h-290l29 204h290z" />
    <glyph glyph-name="uni04E0" unicode="&#x4e0;" horiz-adv-x="1181" 
d="M470 874l365 316l-3 6h-591l39 260h984l-31 -215l-401 -370q165 -40 244 -159t51 -304q-32 -209 -199 -319t-415 -110q-208 0 -349.5 107.5t-105.5 311.5l2 6h330q-12 -75 31.5 -120t130.5 -45q93 0 160.5 50.5t78.5 125.5q21 144 -34 204.5t-187 60.5h-129l10 69l9 57
l9 63z" />
    <glyph glyph-name="uni04E1" unicode="&#x4e1;" horiz-adv-x="1181" 
d="M415 499l367 317l-3 6h-605l39 260h995l-31 -216l-402 -369q166 -41 244.5 -160.5t51.5 -303.5q-32 -207 -199 -317.5t-415 -110.5q-208 0 -349 108t-107 310l2 6h330q-11 -73 32.5 -118.5t130.5 -45.5q93 0 160 51t79 125q21 144 -34 204.5t-187 60.5h-128l10 68l3 19
l15 102z" />
    <glyph glyph-name="uni04E2" unicode="&#x4e2;" horiz-adv-x="1426" 
d="M1114 1456h338l-218 -1456h-338l134 901l-5 2l-668 -903h-338l218 1456h338l-135 -900l5 -2zM1225 1601h-734l24 173h734z" />
    <glyph glyph-name="uni04E3" unicode="&#x4e3;" 
d="M808 1082h337l-162 -1082h-337l89 593l-6 2l-381 -595h-338l162 1082h338l-89 -592l6 -2zM1044 1259h-734l24 173h734z" />
    <glyph glyph-name="uni04E4" unicode="&#x4e4;" horiz-adv-x="1426" 
d="M1114 1456h338l-218 -1456h-338l134 901l-5 2l-668 -903h-338l218 1456h338l-135 -900l5 -2zM1261 1601h-290l29 204h290zM746 1601h-290l29 204h290z" />
    <glyph glyph-name="uni04E5" unicode="&#x4e5;" 
d="M808 1082h337l-162 -1082h-337l89 593l-6 2l-381 -595h-338l162 1082h338l-89 -592l6 -2zM1080 1258h-290l29 204h290zM565 1258h-290l29 204h290z" />
    <glyph glyph-name="uni04E6" unicode="&#x4e6;" horiz-adv-x="1416" 
d="M1336 597q-43 -280 -237 -449t-472 -169q-266 0 -417.5 176.5t-110.5 441.5l39 262q41 278 236.5 448t475.5 170q264 0 414 -176.5t111 -441.5zM1038 861q24 162 -34 259t-193 97q-132 0 -222.5 -100.5t-113.5 -255.5l-39 -264q-25 -164 33.5 -261t196.5 -97
q128 0 218.5 101t114.5 257zM1267 1622h-290l29 204h290zM752 1622h-290l29 204h290z" />
    <glyph glyph-name="uni04E7" unicode="&#x4e7;" 
d="M54 551q37 253 196 402t409 149q238 0 357.5 -155t84.5 -396l-3 -21q-39 -254 -197.5 -402.5t-407.5 -148.5q-239 0 -359 154.5t-83 396.5zM389 530q-22 -140 9 -215.5t134 -75.5q95 0 151.5 79t77.5 212l3 21q20 136 -11 213.5t-133 77.5q-96 0 -153 -81t-75 -210z
M1082 1279h-290l29 204h290zM567 1279h-290l29 204h290z" />
    <glyph glyph-name="uni04E8" unicode="&#x4e8;" horiz-adv-x="1416" 
d="M1336 597q-43 -280 -237 -449t-472 -169q-266 0 -417.5 176.5t-110.5 441.5l39 262q41 278 236.5 448t475.5 170q264 0 414 -176.5t111 -441.5zM916 771q24 0 58.5 19t60.5 49l3 22q24 162 -34 259t-193 97q-132 0 -222.5 -100.5t-113.5 -255.5l-13 -84q34 47 81 73.5
t108 26.5q54 0 133 -53t132 -53zM1002 616q-34 -33 -75.5 -50t-90.5 -17q-66 0 -138 53.5t-126 53.5q-38 0 -85.5 -41t-57.5 -93q-4 -132 55.5 -207.5t181.5 -75.5q128 0 218.5 101t114.5 257z" />
    <glyph glyph-name="uni04E9" unicode="&#x4e9;" horiz-adv-x="1152" 
d="M54 551q37 253 196 402t409 149q238 0 357.5 -155t84.5 -396l-3 -21q-39 -254 -197.5 -402.5t-407.5 -148.5q-239 0 -359 154.5t-83 396.5zM706 570q17 0 34.5 14.5t30.5 39.5q5 103 -30 160.5t-121 57.5q-89 0 -143.5 -69.5t-67.5 -173.5l4 -4q13 23 40 38.5t57 15.5
q39 0 98 -39.5t98 -39.5zM460 485q-25 0 -48 -27.5t-31 -66.5q5 -74 41 -113t110 -39q77 0 127.5 52t69.5 137l-3 5q-9 -12 -29 -20t-40 -8q-49 0 -103.5 40t-93.5 40z" />
    <glyph glyph-name="uni04EA" unicode="&#x4ea;" horiz-adv-x="1416" 
d="M1336 597q-43 -280 -237 -449t-472 -169q-266 0 -417.5 176.5t-110.5 441.5l39 262q41 278 236.5 448t475.5 170q264 0 414 -176.5t111 -441.5zM916 771q24 0 58.5 19t60.5 49l3 22q24 162 -34 259t-193 97q-132 0 -222.5 -100.5t-113.5 -255.5l-13 -84q34 47 81 73.5
t108 26.5q54 0 133 -53t132 -53zM1002 616q-34 -33 -75.5 -50t-90.5 -17q-66 0 -138 53.5t-126 53.5q-38 0 -85.5 -41t-57.5 -93q-4 -132 55.5 -207.5t181.5 -75.5q128 0 218.5 101t114.5 257zM1287 1596h-290l29 204h290zM772 1596h-290l29 204h290z" />
    <glyph glyph-name="uni04EB" unicode="&#x4eb;" horiz-adv-x="1152" 
d="M54 551q37 253 196 402t409 149q238 0 357.5 -155t84.5 -396l-3 -21q-39 -254 -197.5 -402.5t-407.5 -148.5q-239 0 -359 154.5t-83 396.5zM706 570q17 0 34.5 14.5t30.5 39.5q5 103 -30 160.5t-121 57.5q-89 0 -143.5 -69.5t-67.5 -173.5l4 -4q13 23 40 38.5t57 15.5
q39 0 98 -39.5t98 -39.5zM460 485q-25 0 -48 -27.5t-31 -66.5q5 -74 41 -113t110 -39q77 0 127.5 52t69.5 137l-3 5q-9 -12 -29 -20t-40 -8q-49 0 -103.5 40t-93.5 40zM1070 1307h-290l29 204h290zM555 1307h-290l29 204h290z" />
    <glyph glyph-name="uni04EC" unicode="&#x4ec;" horiz-adv-x="1238" 
d="M113 966l-2 6q34 259 189.5 382.5t423.5 123.5q246 0 379.5 -167t94.5 -430l-45 -304q-42 -278 -218.5 -437.5t-435.5 -159.5q-256 0 -380 129.5t-83 375.5l2 5h330q-22 -142 15 -196t155 -54q107 0 179.5 91.5t95.5 243.5l3 23h-383l39 261h383l4 22q23 160 -19 248.5
t-155 88.5q-110 0 -167 -59t-77 -193h-328zM1177 1623h-290l29 204h290zM662 1623h-290l29 204h290z" />
    <glyph glyph-name="uni04ED" unicode="&#x4ed;" horiz-adv-x="1044" 
d="M543 842q-68 0 -108 -38t-49 -107h-307l-2 6q22 183 163 291t342 108q236 0 352 -155t80 -395l-4 -23q-38 -254 -192.5 -402t-401.5 -148q-199 0 -308 115.5t-76 314.5l2 5h309q-12 -82 14.5 -128.5t97.5 -46.5q79 0 127 56t70 150l-3 6h-230l27 183h239q5 100 -26.5 154
t-115.5 54zM1035 1279h-290l29 204h290zM520 1279h-290l29 204h290z" />
    <glyph glyph-name="uni04EE" unicode="&#x4ee;" horiz-adv-x="1317" 
d="M714 821l3 -25l6 -2l382 662h348l-708 -1160q-90 -150 -195 -233.5t-268 -83.5q-57 0 -101.5 10.5t-109.5 33.5l75 241q46 -14 74 -19.5t63 -5.5q80 0 127.5 32.5t81.5 103.5l21 41l-373 1040h361zM1177 1601h-734l24 173h734z" />
    <glyph glyph-name="uni04EF" unicode="&#x4ef;" horiz-adv-x="1053" 
d="M507 477v-5l6 -2l270 612h360l-617 -1243q-67 -120 -158.5 -198t-263.5 -78q-42 0 -71 6t-85 20l78 241q12 -3 19.5 -4.5t18.5 -1.5q76 0 118.5 24t67.5 70l37 70l-210 1094h359zM996 1259h-734l24 173h734z" />
    <glyph glyph-name="uni04F0" unicode="&#x4f0;" horiz-adv-x="1317" 
d="M714 821l3 -25l6 -2l382 662h348l-708 -1160q-90 -150 -195 -233.5t-268 -83.5q-57 0 -101.5 10.5t-109.5 33.5l75 241q46 -14 74 -19.5t63 -5.5q80 0 127.5 32.5t81.5 103.5l21 41l-373 1040h361zM1213 1601h-290l29 204h290zM698 1601h-290l29 204h290z" />
    </font>
</defs>
</svg>
