<?xml version="1.0" standalone="no"?>
<!DOCTYPE svg PUBLIC "-//W3C//DTD SVG 1.1//EN" "http://www.w3.org/Graphics/SVG/1.1/DTD/svg11.dtd" >
<svg xmlns="http://www.w3.org/2000/svg" xmlns:xlink="http://www.w3.org/1999/xlink" version="1.1">
<metadata>
Created by FontForge 20170731 at Wed Nov 30 09:13:41 2011
 By Aleksey,,,
Font data copyright Google 2011
</metadata>
<defs>
<font id="Roboto-BoldItalic" horiz-adv-x="1156" >
  <font-face 
    font-family="Roboto"
    font-weight="700"
    font-style="italic"
    font-stretch="normal"
    units-per-em="2048"
    panose-1="0 0 0 0 0 0 0 0 0 0"
    ascent="1536"
    descent="-512"
    x-height="1082"
    cap-height="1456"
    bbox="-895 -555 2532 2172"
    underline-thickness="100"
    underline-position="-300"
    unicode-range="U+0009-FFFD"
  />
<missing-glyph horiz-adv-x="748" 
d="M68 0v1365h544v-1365h-544zM136 68h408v1229h-408v-1229z" />
    <glyph glyph-name="fi" unicode="fi" horiz-adv-x="1249" 
d="M101 0l131 877h-160l30 205h161l11 74q32 212 171 318.5t368 106.5q74 0 150.5 -15.5t170.5 -44.5l-76 -230q-71 22 -128 34t-134 12q-97 0 -157 -46.5t-73 -134.5l-11 -74h213l-30 -205h-214l-131 -877h-292zM1041 0h-292l162 1082h292z" />
    <glyph glyph-name=".notdef" horiz-adv-x="748" 
d="M68 0v1365h544v-1365h-544zM136 68h408v1229h-408v-1229z" />
    <glyph glyph-name=".null" horiz-adv-x="0" 
 />
    <glyph glyph-name="nonmarkingreturn" unicode="&#xd;" horiz-adv-x="510" 
 />
    <glyph glyph-name="uni0002" horiz-adv-x="0" 
 />
    <glyph glyph-name="uni0002" horiz-adv-x="0" 
 />
    <glyph glyph-name="uni0009" unicode="&#x9;" horiz-adv-x="0" 
 />
    <glyph glyph-name="space" unicode=" " horiz-adv-x="510" 
 />
    <glyph glyph-name="exclam" unicode="!" horiz-adv-x="557" 
d="M421 502h-292l143 954h292zM346 0h-292l38 256h292z" />
    <glyph glyph-name="quotedbl" unicode="&#x22;" horiz-adv-x="832" 
d="M462 1181l-137 -249h-129l34 236l40 288h231zM803 1181l-137 -249h-128l35 245l39 279h230z" />
    <glyph glyph-name="numbersign" unicode="#" horiz-adv-x="1219" 
d="M631 410h-191l-133 -410h-184l133 410h-226l25 169h256l94 290h-232l26 171h261l136 416h183l-135 -416h192l136 416h183l-136 -416h221l-26 -171h-250l-94 -290h225l-25 -169h-255l-133 -410h-184zM495 579h191l95 290h-192z" />
    <glyph glyph-name="dollar" unicode="$" horiz-adv-x="1216" 
d="M795 383q11 85 -28 132.5t-155 94.5q-215 76 -310 177t-69 284q24 175 147 280.5t314 122.5l30 214h159l-30 -218q171 -25 260 -142t64 -303h-292q15 113 -26 169.5t-131 56.5t-141 -49.5t-62 -131.5q-12 -80 26 -124t158 -98q211 -72 306.5 -176.5t70.5 -286.5
q-26 -182 -147.5 -283.5t-313.5 -118.5l-28 -197h-159l28 197q-185 18 -295.5 129t-76.5 324l3 5h285q-19 -133 35.5 -185t156.5 -52q94 0 151.5 48.5t69.5 130.5z" />
    <glyph glyph-name="percent" unicode="%" horiz-adv-x="1513" 
d="M191 1176q20 133 116 217t246 84q145 0 217.5 -86.5t53.5 -214.5l-11 -77q-21 -134 -115 -216.5t-245 -82.5q-144 0 -218.5 86t-54.5 213zM374 1099q-9 -60 16.5 -98.5t86.5 -38.5q56 0 94.5 40t47.5 97l11 77q9 61 -16.5 100t-85.5 39q-57 0 -96 -41t-47 -98zM765 357
q19 132 115.5 216t246.5 84q144 0 217 -86.5t55 -213.5l-12 -77q-21 -134 -115.5 -217t-244.5 -83q-144 0 -219 86.5t-55 213.5zM947 280q-9 -59 19.5 -98.5t84.5 -39.5q63 0 97.5 38.5t44.5 99.5l12 77q8 60 -18 99t-85 39q-57 0 -96.5 -41t-46.5 -97zM397 109l-130 75
l881 1138l131 -75z" />
    <glyph glyph-name="ampersand" unicode="&#x26;" horiz-adv-x="1346" 
d="M356 781q-52 90 -73.5 164.5t-8.5 151.5q28 189 147.5 284.5t306.5 95.5q152 0 239.5 -99.5t67.5 -237.5q-17 -108 -69.5 -181.5t-146.5 -139.5l-113 -73l221 -313q46 59 76.5 128.5t42.5 147.5h233q-23 -147 -75 -264t-140 -206l169 -239h-331l-64 89
q-92 -55 -186 -82.5t-198 -27.5q-209 0 -325.5 116t-88.5 297q18 126 92 208t224 181zM502 203q51 0 106 14t109 42l-242 339l-10 -6q-66 -48 -95 -93.5t-36 -91.5q-14 -93 32 -148.5t136 -55.5zM535 1100q-7 -43 7 -86t46 -96l84 49q62 36 86.5 73.5t32.5 83.5
q8 53 -19 90.5t-86 37.5q-58 0 -100 -44.5t-51 -107.5z" />
    <glyph glyph-name="quotesingle" unicode="'" horiz-adv-x="442" 
d="M443 1187l-141 -283h-159l37 268l40 284h261z" />
    <glyph glyph-name="parenleft" unicode="(" horiz-adv-x="711" 
d="M132 592q57 408 244.5 672.5t394.5 347.5l6 -1l32 -145q-145 -98 -264.5 -316t-166.5 -556l-3 -26q-50 -354 8 -563t178 -312l-74 -143h-5q-181 81 -295 354t-58 666z" />
    <glyph glyph-name="parenright" unicode=")" horiz-adv-x="713" 
d="M607 570q-56 -399 -250 -669t-404 -352l-6 1l-34 143q143 98 263.5 317t168.5 558l3 26q49 350 -10.5 562.5t-175.5 313.5l75 142h6q183 -80 301.5 -359t65.5 -661z" />
    <glyph glyph-name="asterisk" unicode="*" horiz-adv-x="857" 
d="M298 665l-218 76l80 170l228 -79l39 249h176l-31 -257l241 78l28 -171l-245 -79l108 -202l-160 -106l-118 208l-175 -199l-130 102z" />
    <glyph glyph-name="plus" unicode="+" horiz-adv-x="1117" 
d="M736 812h360l-38 -252h-360l-62 -414h-276l62 414h-362l38 252h362l59 394h276z" />
    <glyph glyph-name="comma" unicode="," horiz-adv-x="528" 
d="M339 13l-206 -315h-195l118 324l35 228h284z" />
    <glyph glyph-name="hyphen" unicode="-" horiz-adv-x="892" 
d="M732 510h-589l33 225h589z" />
    <glyph glyph-name="period" unicode="." horiz-adv-x="596" 
d="M356 0h-292l38 256h292z" />
    <glyph glyph-name="slash" unicode="/" horiz-adv-x="825" 
d="M171 -125h-284l771 1581h284z" />
    <glyph glyph-name="zero" unicode="0" horiz-adv-x="1175" 
d="M1079 527q-40 -266 -194 -407t-379 -141q-215 0 -333 147.5t-79 400.5l60 401q40 265 194.5 407t380.5 142q214 0 331 -148.5t79 -400.5zM853 958q21 145 -20.5 219.5t-137.5 74.5q-93 0 -159 -78t-86 -216l-69 -459q-23 -149 18.5 -222.5t139.5 -73.5q92 0 157.5 77
t87.5 219z" />
    <glyph glyph-name="one" unicode="1" horiz-adv-x="1175" 
d="M716 0h-291l180 1202h-301l34 223l600 52z" />
    <glyph glyph-name="two" unicode="2" horiz-adv-x="1175" 
d="M1019 0h-977l27 191l522 510q118 119 171.5 201.5t64.5 151.5q12 93 -25 145.5t-128 52.5t-155 -70t-78 -174h-283l-2 6q23 201 173.5 332t376.5 131q215 0 327 -115.5t86 -306.5q-20 -136 -100.5 -238t-284.5 -300l-281 -287l3 -6h594z" />
    <glyph glyph-name="three" unicode="3" horiz-adv-x="1175" 
d="M1155 1065q-17 -105 -86.5 -188t-176.5 -129q106 -44 155.5 -131t31.5 -209q-32 -208 -191 -318.5t-388 -110.5q-192 0 -328.5 108.5t-102.5 302.5l2 6h285q-13 -85 36.5 -139t140.5 -54q96 0 169 59.5t87 148.5q17 120 -32 173t-162 53h-161l9 63l6 44l7 45l10 67h161
q101 0 161.5 55t74.5 151q13 84 -31.5 137t-140.5 53q-77 0 -141 -49.5t-74 -124.5h-281l-2 6q21 177 173.5 285t358.5 108q217 0 338 -107.5t92 -304.5z" />
    <glyph glyph-name="four" unicode="4" horiz-adv-x="1175" 
d="M956 542h164l-34 -226h-164l-47 -316h-292l47 316h-593l13 175l748 965h295zM326 547l3 -5h335l79 528l-6 2l-39 -65z" />
    <glyph glyph-name="five" unicode="5" horiz-adv-x="1175" 
d="M155 642l206 814h812l-35 -234h-573l-91 -340q46 30 111 49.5t138 21.5q204 3 295.5 -125.5t57.5 -360.5q-34 -221 -173.5 -354.5t-390.5 -133.5q-194 0 -324 107.5t-98 291.5l2 5l283 13q-14 -94 32.5 -143.5t137.5 -49.5q100 0 160 69t79 193q19 130 -21.5 202.5
t-143.5 72.5q-80 0 -131.5 -31t-77.5 -84z" />
    <glyph glyph-name="six" unicode="6" horiz-adv-x="1175" 
d="M811 1477q82 0 154 -16t137 -45l-84 -214q-64 23 -116.5 34.5t-123.5 11.5q-124 0 -219.5 -99t-120.5 -272l-7 -43q66 56 151 86t185 30q179 0 267.5 -134t57.5 -344q-35 -227 -189.5 -360t-375.5 -133q-219 0 -343.5 157t-84.5 426l46 305q43 288 228 449t438 161z
M636 729q-76 0 -136.5 -26.5t-99.5 -72.5l-11 -75q-27 -174 20.5 -263t150.5 -89q88 0 155 77t85 192q18 124 -26 190.5t-138 66.5z" />
    <glyph glyph-name="seven" unicode="7" horiz-adv-x="1175" 
d="M1200 1231q-291 -289 -415 -520.5t-168 -530.5l-27 -180h-292l27 180q47 317 193 558.5t401 492.5h-743l33 225h1024z" />
    <glyph glyph-name="eight" unicode="8" horiz-adv-x="1175" 
d="M1138 1078q-18 -113 -86 -196t-172 -129q109 -50 165.5 -141t40.5 -206q-32 -210 -187 -318.5t-377 -108.5q-221 0 -355.5 113.5t-103.5 313.5q18 124 104 215t219 138q-95 48 -142.5 131t-30.5 188q30 200 174.5 299.5t357.5 99.5q194 0 307.5 -104.5t85.5 -294.5z
M796 420q15 101 -35.5 161.5t-141.5 60.5q-95 0 -171 -63t-90 -159q-16 -103 39.5 -160t157.5 -57q86 0 156 60t85 157zM845 1065q13 89 -24 138t-110 49q-79 0 -137 -50t-71 -137q-15 -93 27 -145.5t125 -52.5q69 0 122.5 54.5t67.5 143.5z" />
    <glyph glyph-name="nine" unicode="9" horiz-adv-x="1175" 
d="M482 203q104 0 187.5 82t105.5 227l13 89q-57 -61 -128.5 -91.5t-149.5 -30.5q-195 0 -294.5 133.5t-65.5 357.5q33 227 190.5 367t372.5 140q212 0 332.5 -149.5t81.5 -408.5l-59 -392q-40 -262 -211 -405t-408 -143q-73 0 -153.5 16.5t-145.5 46.5l81 211
q59 -26 117 -38t134 -12zM591 693q70 0 129 30.5t99 80.5l25 166q20 142 -24.5 212t-139.5 70q-84 0 -152.5 -82.5t-85.5 -199.5q-20 -129 17.5 -203t131.5 -74z" />
    <glyph glyph-name="colon" unicode=":" horiz-adv-x="582" 
d="M356 0h-292l38 256h292zM487 876h-292l38 256h292z" />
    <glyph glyph-name="semicolon" unicode=";" horiz-adv-x="562" 
d="M488 876h-292l38 256h292zM390 13l-206 -315h-195l118 324l35 228h284z" />
    <glyph glyph-name="less" unicode="&#x3c;" horiz-adv-x="1043" 
d="M341 550v-6l546 -203l-41 -272l-807 367l12 78l22 149l917 366l-40 -272z" />
    <glyph glyph-name="equal" unicode="=" horiz-adv-x="1181" 
d="M1066 763h-896l35 229h896zM1002 332h-896l34 229h896z" />
    <glyph glyph-name="greater" unicode="&#x3e;" horiz-adv-x="1058" 
d="M706 539v6l-554 206l40 269l817 -366l-22 -149h-1l-11 -78l-927 -367l41 270z" />
    <glyph glyph-name="question" unicode="?" horiz-adv-x="1021" 
d="M306 414q22 140 72.5 205t185.5 158q79 58 131.5 125t65.5 150q14 95 -26.5 145.5t-131.5 50.5q-72 0 -131 -44t-73 -129h-284l-1 6q26 192 171 294t353 102q216 0 330 -114.5t85 -307.5q-20 -132 -108.5 -236.5t-214.5 -179.5q-68 -47 -94.5 -94t-38.5 -131h-291zM537 0
h-294l38 250h294z" />
    <glyph glyph-name="at" unicode="@" horiz-adv-x="1817" 
d="M1727 513q-42 -218 -184.5 -376t-379.5 -158q-75 0 -126 44.5t-64 124.5q-57 -83 -129 -124.5t-160 -41.5q-136 0 -195.5 120t-11.5 314q64 254 205 407t310 153q110 0 181 -27t145 -79l-4 -4h5l-137 -573q-21 -95 -5.5 -130t51.5 -35q110 0 198.5 110t121.5 275
q70 353 -53.5 551t-442.5 198q-291 0 -509.5 -215t-287.5 -569q-71 -355 61.5 -560t438.5 -205q82 0 177 20t164 50l16 -147q-73 -42 -180 -65.5t-206 -23.5q-381 0 -564.5 251.5t-103.5 679.5q82 426 358 683t664 257q372 0 548.5 -245.5t98.5 -659.5zM702 416
q-28 -127 -9.5 -192.5t82.5 -65.5q54 0 104 26.5t97 95.5l3 13l118 496q-21 7 -43.5 11t-47.5 4q-106 0 -181.5 -98t-122.5 -290z" />
    <glyph glyph-name="A" unicode="A" horiz-adv-x="1303" 
d="M861 314h-473l-145 -314h-305l709 1456h299l271 -1456h-305zM495 543h328l-83 514l-6 1z" />
    <glyph glyph-name="B" unicode="B" horiz-adv-x="1305" 
d="M54 0l218 1456h477q247 0 380.5 -101.5t105.5 -297.5q-17 -104 -79 -181.5t-167 -116.5q131 -26 184.5 -119t36.5 -216q-33 -217 -185 -320.5t-408 -103.5h-563zM442 644l-63 -420h272q112 0 182.5 51t85.5 149q15 110 -35 165t-173 55h-269zM473 846h206q108 2 177 51
t83 137q16 105 -39.5 151t-183.5 46h-185z" />
    <glyph glyph-name="C" unicode="C" horiz-adv-x="1303" 
d="M1217 482l2 -6q-32 -242 -195 -369.5t-424 -127.5q-252 0 -392.5 170t-101.5 434l44 289q41 276 221.5 440.5t438.5 164.5q256 0 391 -131.5t96 -364.5l-3 -6h-284q22 145 -35 211t-199 66q-126 0 -218 -107t-117 -271l-44 -291q-26 -174 35.5 -277t200.5 -103
q126 0 203.5 69.5t98.5 209.5h282z" />
    <glyph glyph-name="D" unicode="D" horiz-adv-x="1355" 
d="M54 0l218 1456h508q257 0 409 -172t113 -436l-36 -241q-42 -278 -238 -442.5t-466 -164.5h-508zM530 1231l-151 -1007h217q138 0 245 108.5t132 274.5l37 243q25 173 -46.5 277t-216.5 104h-217z" />
    <glyph glyph-name="E" unicode="E" horiz-adv-x="1139" 
d="M982 640h-540l-63 -416h643l-34 -224h-934l218 1456h932l-33 -225h-641l-55 -366h541z" />
    <glyph glyph-name="F" unicode="F" horiz-adv-x="1139" 
d="M996 605h-560l-90 -605h-292l218 1456h953l-33 -225h-662l-60 -401h560z" />
    <glyph glyph-name="G" unicode="G" horiz-adv-x="1364" 
d="M1200 199q-82 -89 -226.5 -154.5t-357.5 -65.5q-254 0 -402.5 168t-108.5 429l46 304q41 274 227 435.5t445 161.5q256 0 384 -128t92 -336l-2 -6h-276q18 120 -39 182.5t-186 62.5t-229.5 -104.5t-124.5 -265.5l-46 -306q-26 -172 42 -272.5t211 -100.5q99 0 166.5 21.5
t103.5 52.5l42 282h-280l30 202h573z" />
    <glyph glyph-name="H" unicode="H" horiz-adv-x="1445" 
d="M1231 0h-292l90 605h-593l-90 -605h-292l218 1456h292l-94 -626h593l94 626h292z" />
    <glyph glyph-name="I" unicode="I" horiz-adv-x="601" 
d="M366 0h-292l218 1456h292z" />
    <glyph glyph-name="J" unicode="J" horiz-adv-x="1137" 
d="M852 1456h291l-150 -1005q-34 -225 -183.5 -348.5t-360.5 -123.5q-223 0 -344 115t-85 330l3 6h284q-19 -121 29 -174t146 -53q77 0 139.5 67t80.5 181z" />
    <glyph glyph-name="K" unicode="K" horiz-adv-x="1255" 
d="M536 604h-104l-90 -604h-293l218 1456h293l-89 -595h102l411 595h381l-570 -727l372 -729h-336z" />
    <glyph glyph-name="L" unicode="L" horiz-adv-x="1138" 
d="M379 224h653l-34 -224h-944l218 1456h292z" />
    <glyph glyph-name="M" unicode="M" horiz-adv-x="1782" 
d="M864 383l6 -1l535 1074h381l-218 -1456h-292l148 993l-5 1l-509 -994h-198l-211 996h-6l-149 -996h-292l218 1456h383z" />
    <glyph glyph-name="N" unicode="N" horiz-adv-x="1445" 
d="M1231 0h-292l-441 982l-6 -1l-146 -981h-292l218 1456h292l440 -981l6 1l147 980h292z" />
    <glyph glyph-name="O" unicode="O" horiz-adv-x="1409" 
d="M1322 597q-43 -279 -235.5 -448.5t-466.5 -169.5q-259 0 -406 176.5t-107 441.5l39 262q41 277 232.5 447.5t464.5 170.5q261 0 409 -177.5t109 -440.5zM1070 861q26 176 -42.5 282t-219.5 106q-143 0 -244.5 -110t-126.5 -278l-39 -264q-27 -179 39 -285t217 -106
q144 0 247 110t130 281z" />
    <glyph glyph-name="P" unicode="P" horiz-adv-x="1305" 
d="M425 528l-79 -528h-292l218 1456h557q241 0 370.5 -129.5t99.5 -335.5q-33 -217 -194 -340t-415 -123h-265zM459 753h265q117 0 192 67.5t91 168.5q16 109 -35.5 175.5t-175.5 66.5h-265z" />
    <glyph glyph-name="Q" unicode="Q" horiz-adv-x="1441" 
d="M1322 597q-18 -114 -61.5 -211t-110.5 -174l182 -214l-215 -156l-179 208q-72 -35 -152 -53t-166 -18q-259 0 -406 176.5t-107 441.5l39 262q41 277 232.5 447.5t464.5 170.5q261 0 409 -177.5t109 -440.5zM1070 861q26 176 -42.5 282t-219.5 106q-143 0 -244.5 -110
t-126.5 -278l-39 -264q-27 -179 39 -285t217 -106q144 0 247 110t130 281z" />
    <glyph glyph-name="R" unicode="R" horiz-adv-x="1305" 
d="M433 582l-87 -582h-292l218 1456h504q239 0 367.5 -114.5t98.5 -315.5q-18 -118 -89 -198t-195 -129q120 -40 165.5 -129t26.5 -216l-16 -107q-9 -63 -2.5 -128.5t41.5 -97.5l-3 -21h-301q-34 32 -35 104.5t9 144.5l16 103q17 113 -33 171.5t-161 58.5h-232zM467 807h207
q118 0 188 52.5t86 153.5q15 103 -36 160.5t-169 57.5h-212z" />
    <glyph glyph-name="S" unicode="S" horiz-adv-x="1259" 
d="M892 353q14 96 -43 148.5t-216 109.5q-250 79 -370.5 192t-92.5 297q26 176 180 276.5t374 100.5q244 0 382 -119t102 -327l-2 -6h-283q14 101 -50.5 164t-182.5 63q-87 0 -152.5 -43t-74.5 -107q-14 -94 45 -142t247 -112q236 -77 346.5 -189.5t82.5 -303.5
q-28 -184 -181 -280t-380 -96q-238 0 -402 108.5t-124 337.5l2 6h283q-19 -125 65.5 -176.5t208.5 -51.5q88 0 157 42.5t79 107.5z" />
    <glyph glyph-name="T" unicode="T" horiz-adv-x="1175" 
d="M1254 1231h-417l-184 -1231h-292l184 1231h-409l33 225h1118z" />
    <glyph glyph-name="U" unicode="U" horiz-adv-x="1407" 
d="M1426 1456l-143 -953q-38 -256 -219 -390t-445 -134q-249 0 -395 140.5t-109 383.5l143 953h293l-143 -953q-23 -151 43 -225.5t201 -74.5q130 0 223 78t115 222l143 953h293z" />
    <glyph glyph-name="V" unicode="V" horiz-adv-x="1303" 
d="M609 395l6 -81l6 -1l29 79l476 1064h308l-713 -1456h-300l-276 1456h308z" />
    <glyph glyph-name="W" unicode="W" horiz-adv-x="1804" 
d="M1272 468h6l342 988h301l-558 -1456h-271l-124 958l-5 1l-412 -959h-271l-122 1456h301l46 -987l6 -1l410 988h236z" />
    <glyph glyph-name="X" unicode="X" horiz-adv-x="1303" 
d="M710 940l350 516h340l-540 -722l347 -734h-353l-202 525l-360 -525h-341l553 734l-324 722h338z" />
    <glyph glyph-name="Y" unicode="Y" horiz-adv-x="1303" 
d="M685 786l6 -1l419 671h320l-640 -943l-77 -513h-292l79 527l-352 929h320z" />
    <glyph glyph-name="Z" unicode="Z" horiz-adv-x="1155" 
d="M387 224h667l-34 -224h-996l-13 152l746 1079h-576l33 225h945l-21 -146z" />
    <glyph glyph-name="bracketleft" unicode="[" horiz-adv-x="570" 
d="M685 1475h-141l-224 -1595h141l-30 -216h-434l284 2027h434z" />
    <glyph glyph-name="backslash" unicode="\" horiz-adv-x="863" 
d="M140 1456h289l371 -1581h-289z" />
    <glyph glyph-name="bracketright" unicode="]" horiz-adv-x="570" 
d="M175 1691h434l-284 -2027h-434l30 216h142l224 1595h-142z" />
    <glyph glyph-name="asciicircum" unicode="^" horiz-adv-x="896" 
d="M304 729h-231l408 727h212l190 -727h-231l-103 413l-2 33l-6 1l-13 -34z" />
    <glyph glyph-name="underscore" unicode="_" horiz-adv-x="914" 
d="M798 -219h-910l33 219h910z" />
    <glyph glyph-name="grave" unicode="`" horiz-adv-x="678" 
d="M677 1252h-251l-235 261l2 5h326z" />
    <glyph glyph-name="a" unicode="a" horiz-adv-x="1100" 
d="M670 0q-11 37 -16 78.5t-4 84.5q-57 -80 -138.5 -132t-183.5 -52q-164 0 -246 88.5t-59 237.5q24 165 158 249.5t372 84.5h164l13 86q12 81 -22.5 122.5t-116.5 41.5q-68 0 -113.5 -34.5t-53.5 -94.5h-281l-1 6q15 142 154.5 239t345.5 97q188 0 297 -99t82 -280
l-67 -447q-12 -79 -10 -144t17 -132h-291zM432 195q73 0 140 38.5t97 88.5l23 152h-164q-89 0 -145.5 -47t-66.5 -112q-9 -57 22 -88.5t94 -31.5z" />
    <glyph glyph-name="b" unicode="b" 
d="M1085 511q-38 -251 -166 -391.5t-334 -140.5q-93 0 -157.5 42t-102.5 121l-46 -142h-247l234 1560h291l-89 -592q58 65 128 99.5t155 34.5q198 0 286.5 -157.5t50.5 -412.5zM797 532q24 162 -8.5 252.5t-145.5 90.5q-66 0 -118 -30t-88 -84l-68 -453q20 -50 63 -76
t113 -26q108 0 167 81t82 224z" />
    <glyph glyph-name="c" unicode="c" horiz-adv-x="1056" 
d="M514 203q73 0 126.5 46t65.5 121h265l2 -6q-22 -170 -162.5 -277.5t-329.5 -107.5q-231 0 -343.5 155.5t-76.5 390.5l4 30q37 247 189 397t393 150q191 0 298.5 -115t75.5 -300l-2 -5h-267q13 86 -22.5 140.5t-115.5 54.5q-109 0 -172.5 -92t-84.5 -230l-4 -30
q-23 -149 11 -235.5t150 -86.5z" />
    <glyph glyph-name="d" unicode="d" 
d="M67 532q39 265 171.5 417.5t335.5 152.5q79 0 138.5 -36.5t100.5 -104.5l90 599h293l-234 -1560h-249l-5 133q-62 -75 -138 -114.5t-166 -39.5q-191 0 -283.5 148t-56.5 384zM355 511q-23 -147 13 -226t145 -79q62 0 113.5 26.5t88.5 76.5l69 458q-22 51 -64.5 79.5
t-104.5 28.5q-102 0 -168.5 -96.5t-88.5 -246.5z" />
    <glyph glyph-name="e" unicode="e" horiz-adv-x="1071" 
d="M498 -21q-232 0 -351 150.5t-83 380.5l6 40q37 252 190.5 402.5t386.5 149.5q210 0 310.5 -135t66.5 -358l-22 -151h-646l-2 -5q-12 -115 38 -182.5t170 -67.5q94 0 169 20.5t152 60.5l52 -180q-74 -53 -190 -89t-247 -36zM614 877q-84 0 -141.5 -61t-83.5 -159l2 -6h354
l3 22q15 98 -15.5 151t-118.5 53z" />
    <glyph glyph-name="f" unicode="f" horiz-adv-x="714" 
d="M108 0l131 877h-160l30 205h161l18 120q28 189 146 284t311 95q35 0 74.5 -6t82.5 -15l-58 -217q-23 4 -45 7t-52 3q-68 0 -112 -39.5t-55 -111.5l-18 -120h208l-30 -205h-209l-131 -877h-292z" />
    <glyph glyph-name="g" unicode="g" 
d="M69 532q39 266 172 418t336 152q88 0 151 -43t102 -121l45 144h251l-161 -1077q-34 -219 -187 -330.5t-403 -111.5q-79 0 -169 23t-162 61l82 218q62 -32 131 -48.5t152 -16.5q115 0 181.5 50.5t82.5 155.5l14 98q-58 -62 -127 -93.5t-153 -31.5q-191 0 -284 148t-57 384
zM358 511q-23 -147 12.5 -226t144.5 -79q65 0 115.5 25.5t87.5 73.5l70 465q-21 51 -63.5 78t-107.5 27q-102 0 -168 -96.5t-88 -246.5z" />
    <glyph glyph-name="h" unicode="h" 
d="M459 951q63 72 142.5 111.5t169.5 39.5q163 0 245.5 -113.5t47.5 -346.5l-96 -642h-292l97 644q19 131 -13.5 181t-114.5 50q-66 0 -118.5 -23t-91.5 -65l-118 -787h-292l234 1560h292z" />
    <glyph glyph-name="i" unicode="i" horiz-adv-x="547" 
d="M339 0h-292l162 1082h292zM540 1341h-292l33 219h292z" />
    <glyph glyph-name="j" unicode="j" horiz-adv-x="543" 
d="M509 1082l-168 -1122q-30 -198 -145 -297.5t-297 -99.5q-38 0 -71.5 4t-68.5 13l47 223q22 -6 45 -9t49 -3q58 0 96 41.5t52 127.5l168 1122h293zM542 1343h-293l33 217h293z" />
    <glyph glyph-name="k" unicode="k" horiz-adv-x="1097" 
d="M466 453h-74l-68 -453h-292l234 1560h292l-133 -885h65l320 407h331l2 -5l-421 -488l312 -589h-336z" />
    <glyph glyph-name="l" unicode="l" horiz-adv-x="547" 
d="M339 0h-292l234 1560h292z" />
    <glyph glyph-name="m" unicode="m" horiz-adv-x="1772" 
d="M457 945q63 76 147.5 116.5t187.5 40.5q98 0 166.5 -46t93.5 -138q63 88 150.5 136t197.5 48q155 0 233 -114.5t43 -345.5l-96 -642h-292l96 643q20 135 -11.5 183.5t-112.5 48.5q-60 0 -110 -28.5t-86 -78.5q-1 -14 -2.5 -28t-3.5 -29l-107 -711h-291l96 643
q20 132 -12 182t-113 50q-58 0 -106 -23.5t-84 -66.5l-118 -785h-291l162 1082h271z" />
    <glyph glyph-name="n" unicode="n" 
d="M452 933q65 81 151 125t184 44q158 0 237 -107t45 -332l-99 -663h-293l99 662q18 120 -14.5 166.5t-115.5 46.5q-64 0 -117.5 -25.5t-92.5 -70.5l-117 -779h-292l162 1082h272z" />
    <glyph glyph-name="o" unicode="o" 
d="M70 551q37 251 193.5 401t397.5 150q231 0 348 -156t82 -395l-3 -21q-39 -253 -195 -402t-398 -149q-231 0 -348 155.5t-80 395.5zM358 530q-24 -153 15 -240t155 -87q108 0 177 91t91 236l3 21q21 149 -17.5 237.5t-153.5 88.5q-109 0 -178 -92.5t-89 -233.5z" />
    <glyph glyph-name="p" unicode="p" 
d="M1085 511q-38 -249 -169 -390.5t-332 -141.5q-83 0 -144.5 33.5t-100.5 97.5l-78 -526h-291l224 1498h263l-2 -128q59 72 132 110t163 38q193 0 284 -158.5t54 -411.5zM796 532q23 157 -13.5 250t-142.5 93q-64 0 -115 -28.5t-87 -80.5l-71 -468q20 -47 63 -71t111 -24
q102 0 166 84t86 224z" />
    <glyph glyph-name="q" unicode="q" 
d="M67 532q39 265 171.5 417.5t335.5 152.5q87 0 149.5 -41t101.5 -117l48 138h248l-224 -1498h-292l77 517q-57 -60 -126 -91t-152 -31q-191 0 -283.5 148t-56.5 384zM355 511q-23 -147 12.5 -227.5t144.5 -80.5q63 0 113 25t87 73l71 476q-21 48 -62.5 74t-104.5 26
q-102 0 -169 -97.5t-89 -247.5z" />
    <glyph glyph-name="r" unicode="r" horiz-adv-x="721" 
d="M726 831l-107 3q-63 0 -110 -28.5t-78 -80.5l-108 -725h-291l162 1082h271l-10 -155q50 84 117 129.5t147 45.5q21 0 40.5 -3.5t36.5 -8.5z" />
    <glyph glyph-name="s" unicode="s" horiz-adv-x="1056" 
d="M664 300q7 50 -34.5 83t-164.5 60q-184 38 -272 115t-70 209q20 144 150.5 239.5t328.5 95.5q197 0 310.5 -99t88.5 -243l-2 -6h-282q9 67 -27 107t-116 40q-67 0 -114.5 -35t-54.5 -86q-7 -52 30.5 -82t165.5 -56q193 -40 279.5 -117.5t68.5 -213.5
q-22 -152 -158.5 -242t-343.5 -90q-208 0 -322 111t-89 248l3 6h267q-9 -87 39.5 -126t135.5 -39q77 0 126 33t57 88z" />
    <glyph glyph-name="t" unicode="t" horiz-adv-x="713" 
d="M584 1347l-40 -265h183l-30 -205h-184l-82 -551q-10 -66 12 -91.5t66 -25.5q22 0 40.5 2.5t40.5 8.5l-8 -211q-46 -15 -88.5 -22.5t-91.5 -7.5q-146 0 -217.5 84t-44.5 262l82 552h-157l30 205h158l40 265h291z" />
    <glyph glyph-name="u" unicode="u" 
d="M719 155q-62 -86 -146 -131t-187 -45q-165 0 -247 117t-46 359l94 627h291l-94 -629q-22 -147 8.5 -197t112.5 -50q68 0 122.5 24t93.5 69l117 783h292l-162 -1082h-242z" />
    <glyph glyph-name="v" unicode="v" horiz-adv-x="1046" 
d="M483 403l4 -99l6 -1l35 100l280 679h305l-530 -1082h-279l-206 1082h305z" />
    <glyph glyph-name="w" unicode="w" horiz-adv-x="1507" 
d="M1034 404h6l232 678h284l-437 -1082h-244l-107 623l-6 1l-295 -624h-243l-113 1082h284l31 -675l6 -1l304 676h195z" />
    <glyph glyph-name="x" unicode="x" horiz-adv-x="1046" 
d="M550 739l6 -1l217 344h330l-406 -535l255 -547h-329l-123 359l-231 -359h-330l419 547l-247 535h328z" />
    <glyph glyph-name="y" unicode="y" horiz-adv-x="1046" 
d="M490 454l2 -59l6 -1l311 688h314l-625 -1244q-63 -116 -154.5 -195.5t-249.5 -79.5q-35 0 -66.5 6t-74.5 17l66 213q12 -2 27 -4t27 -2q69 0 115 36.5t75 87.5l46 83l-222 1082h314z" />
    <glyph glyph-name="z" unicode="z" horiz-adv-x="1046" 
d="M396 229l2 -5h530l-34 -224h-899l26 172l612 679l-2 5h-492l34 226h866l-25 -167z" />
    <glyph glyph-name="braceleft" unicode="{" horiz-adv-x="676" 
d="M460 -360q-188 55 -254 175t-41 291l28 203q14 102 -21 155.5t-126 53.5l6 48l10 71l5 35l7 47q87 0 139.5 55t66.5 155l28 203q24 177 122.5 293.5t303.5 171.5l34 -157q-90 -31 -136 -110.5t-63 -197.5l-28 -203q-16 -109 -71.5 -189t-152.5 -124q82 -47 116 -127.5
t21 -179.5l-28 -203q-17 -122 7 -199t105 -109z" />
    <glyph glyph-name="bar" unicode="|" horiz-adv-x="519" 
d="M254 -270h-231l258 1726h231z" />
    <glyph glyph-name="braceright" unicode="}" horiz-adv-x="676" 
d="M-69 -202q89 31 135 110.5t63 197.5l28 203q15 110 72 189.5t159 122.5q-87 45 -123 125.5t-21 182.5l28 203q17 121 -7 198.5t-104 109.5l78 157q187 -55 252.5 -174.5t41.5 -290.5l-28 -203q-15 -104 20.5 -157t128.5 -53l-21 -149l-7 -52q-88 0 -141.5 -56t-66.5 -153
l-28 -203q-25 -177 -123.5 -294t-301.5 -172z" />
    <glyph glyph-name="asciitilde" unicode="~" horiz-adv-x="1327" 
d="M1251 758q-24 -168 -126 -274t-239 -106q-82 0 -151.5 32t-136.5 101q-46 44 -81 64t-79 20q-50 0 -93.5 -51t-53.5 -122l-198 26q23 168 124 272.5t239 104.5q79 0 152 -34t139 -99q42 -45 77 -64.5t79 -19.5q49 0 93.5 52t55.5 125z" />
    <glyph glyph-name="nonbreakingspace" unicode="&#xa0;" horiz-adv-x="510" 
 />
    <glyph glyph-name="exclamdown" unicode="&#xa1;" horiz-adv-x="580" 
d="M298 -374h-292l143 953h292zM478 825h-292l38 257h292z" />
    <glyph glyph-name="cent" unicode="&#xa2;" horiz-adv-x="1181" 
d="M514 203q73 0 126.5 46t65.5 121h266l3 -6q-18 -136 -116 -234.5t-240 -133.5l-36 -241h-200l34 228q-200 22 -295 173t-61 369l4 30q34 230 169.5 377t350.5 167l33 219h200l-36 -234q132 -38 199 -144.5t45 -257.5h-274q13 86 -22.5 140.5t-115.5 54.5
q-109 0 -172.5 -92t-84.5 -230l-4 -30q-23 -149 11 -235.5t150 -86.5z" />
    <glyph glyph-name="sterling" unicode="&#xa3;" horiz-adv-x="1216" 
d="M559 588l-9 -85q-13 -80 -52.5 -151.5t-103.5 -127.5h712l-34 -224h-996l34 224h10q48 12 83.5 94.5t50.5 171.5l11 98h-165l34 225h155l24 214q32 218 169 334t342 116q207 0 312.5 -112.5t74.5 -293.5l-3 -6h-284q14 100 -24.5 143.5t-110.5 43.5q-68 0 -118 -59.5
t-66 -165.5l-23 -214h356l-34 -225h-345z" />
    <glyph glyph-name="currency" unicode="&#xa4;" horiz-adv-x="1417" 
d="M1011 105q-85 -61 -183 -93t-200 -32q-98 0 -184.5 33t-154.5 96l-152 -135l-119 144l158 140q-38 76 -51.5 165t1.5 185q15 105 56.5 198t104.5 170l-119 144l163 144l118 -142q82 54 176 83t191 29q93 0 177 -31.5t151 -88.5l170 151l120 -145l-173 -153
q40 -78 54.5 -169t0.5 -190q-16 -100 -54 -188.5t-94 -163.5l116 -138l-164 -145zM312 608q-29 -192 70.5 -315.5t273.5 -123.5q163 0 305 128.5t170 310.5q28 190 -71.5 313.5t-271.5 123.5q-166 0 -307.5 -128t-168.5 -309z" />
    <glyph glyph-name="yen" unicode="&#xa5;" horiz-adv-x="1253" 
d="M671 849l6 -1l371 608h320l-489 -714h244l-24 -165h-324l-19 -125h324l-25 -164h-324l-43 -288h-292l43 288h-339l25 164h339l19 125h-339l24 165h268l-276 714h321z" />
    <glyph glyph-name="brokenbar" unicode="&#xa6;" horiz-adv-x="517" 
d="M7 -270l119 795h262l-119 -795h-262zM414 698h-262l113 758h262z" />
    <glyph glyph-name="section" unicode="&#xa7;" horiz-adv-x="1287" 
d="M1171 475q-14 -94 -65.5 -161.5t-134.5 -110.5q59 -51 81.5 -121t8.5 -166q-28 -184 -180.5 -280.5t-392.5 -96.5q-225 0 -369 100.5t-107 316.5l2 6l284 1q-17 -111 48 -154.5t176 -43.5q103 0 170.5 42t77.5 108q10 69 -43.5 108t-217.5 90q-235 64 -338 157.5
t-77 265.5q14 92 65.5 161t136.5 112q-60 51 -83.5 120.5t-8.5 166.5q27 179 182.5 280t395.5 101q234 0 359 -112.5t90 -309.5l-2 -6h-284q13 91 -37.5 147t-159.5 56q-110 0 -176 -44t-75 -110q-12 -78 37 -115t221 -85q237 -64 339.5 -157.5t76.5 -265.5zM618 663
q-35 9 -67.5 19.5t-62.5 22.5q-42 -22 -67.5 -59t-31.5 -84q-12 -83 36 -122.5t220 -92.5q33 -10 65 -20t65 -21q43 23 70.5 60t35.5 84q11 74 -43.5 117t-219.5 96z" />
    <glyph glyph-name="dieresis" unicode="&#xa8;" horiz-adv-x="1090" 
d="M1022 1252h-266l29 204h266zM522 1252h-266l29 204h266z" />
    <glyph glyph-name="copyright" unicode="&#xa9;" horiz-adv-x="1606" 
d="M1117 596l2 -6q-19 -156 -117.5 -232t-257.5 -76q-154 0 -235.5 107.5t-55.5 279.5l18 119q26 179 135.5 283t271.5 104q152 0 231 -80.5t53 -228.5l-2 -5h-149q14 97 -24 138t-129 41t-153.5 -69.5t-78.5 -181.5l-18 -120q-18 -119 22 -185.5t135 -66.5q87 0 139 42
t66 137h147zM237 729q-41 -274 103 -449.5t392 -175.5q235 0 437.5 182t242.5 443q41 273 -102.5 447.5t-390.5 174.5q-237 0 -440 -181t-242 -441zM115 729q49 327 285.5 537t536.5 210q283 0 464 -218t134 -529q-49 -328 -286.5 -539t-535.5 -211q-284 0 -464.5 218.5
t-133.5 531.5z" />
    <glyph glyph-name="ordfeminine" unicode="&#xaa;" horiz-adv-x="909" 
d="M630 706q-5 21 -6.5 44.5t-0.5 49.5q-40 -47 -100.5 -77.5t-137.5 -30.5q-114 0 -172.5 62t-42.5 166q17 114 109.5 172.5t256.5 58.5h136l8 51q9 64 -15 95.5t-82 31.5q-63 0 -104.5 -26t-47.5 -73l-162 13l-1 6q9 102 102.5 165t235.5 63q129 0 199 -72t50 -204
l-47 -314q-8 -52 -8.5 -95.5t7.5 -85.5h-177zM449 836q48 0 107.5 29.5t82.5 64.5l16 104h-136q-71 0 -119 -32.5t-54 -77.5q-7 -44 18 -66t85 -22z" />
    <glyph glyph-name="guillemotleft" unicode="&#xab;" horiz-adv-x="1025" 
d="M322 515l180 -399h-187l-222 390l1 6l1 7l1 6l339 390h187zM657 515l180 -399h-187l-222 390l1 6l1 7l1 6l339 390h187z" />
    <glyph glyph-name="logicalnot" unicode="&#xac;" horiz-adv-x="1129" 
d="M976 634l-39 -260h-200l39 260h-635l26 171h835z" />
    <glyph glyph-name="uni00AD" unicode="&#xad;" horiz-adv-x="892" 
d="M732 510h-589l33 225h589z" />
    <glyph glyph-name="registered" unicode="&#xae;" horiz-adv-x="1606" 
d="M115 729q49 327 285.5 537t536.5 210q283 0 464 -218t134 -529q-49 -328 -286.5 -539t-535.5 -211q-284 0 -464.5 218.5t-133.5 531.5zM237 729q-41 -274 103 -449.5t392 -175.5q235 0 437.5 182t242.5 443q41 273 -102.5 447.5t-390.5 174.5q-237 0 -440 -181t-242 -441
zM670 653l-51 -337h-151l128 850h281q145 0 224.5 -68.5t61.5 -193.5q-9 -61 -45 -104.5t-98 -72.5q53 -31 72 -85.5t9 -126.5l-8 -56q-7 -43 -8 -74.5t6 -52.5l-3 -16h-155q-5 21 -1.5 59t10.5 85l8 54q11 74 -17 106.5t-105 32.5h-158zM690 787h135q69 0 124 30.5t63 85.5
q11 75 -22.5 102.5t-132.5 27.5h-130z" />
    <glyph glyph-name="macron" unicode="&#xaf;" horiz-adv-x="1028" 
d="M985 1292h-731l23 165h731z" />
    <glyph glyph-name="macron" unicode="&#x2c9;" horiz-adv-x="1028" 
d="M985 1292h-731l23 165h731z" />
    <glyph glyph-name="degree" unicode="&#xb0;" horiz-adv-x="796" 
d="M226 1203q17 117 109 195.5t206 78.5q106 0 174.5 -81.5t51.5 -192.5q-17 -118 -106.5 -194.5t-201.5 -76.5q-109 0 -179.5 79.5t-53.5 191.5zM373 1203q-9 -55 23 -89.5t85 -34.5q49 0 90 35t49 89q8 56 -21 92t-80 36t-94.5 -37.5t-51.5 -90.5z" />
    <glyph glyph-name="plusminus" unicode="&#xb1;" horiz-adv-x="1101" 
d="M736 947h328l-33 -232h-328l-53 -383h-256l53 383h-332l33 232h332l51 363h256zM868 -43h-834l34 228h834z" />
    <glyph glyph-name="twosuperior" unicode="&#xb2;" horiz-adv-x="860" 
d="M756 667h-622l23 155l347 252q67 50 89.5 83.5t29.5 74.5q5 41 -14 66.5t-68 25.5q-52 0 -86.5 -30t-40.5 -77h-200l-2 6q10 110 109 183t248 73q138 0 210 -66t55 -182q-13 -85 -73 -144t-206 -166l-123 -93l2 -6h345z" />
    <glyph glyph-name="threesuperior" unicode="&#xb3;" horiz-adv-x="856" 
d="M388 1139h111q60 0 94.5 25t41.5 70q5 39 -19 64t-80 25q-49 0 -82 -22t-37 -53h-200l-1 6q10 105 106 164.5t232 59.5q146 0 228 -60t66 -169q-9 -57 -50.5 -102.5t-106.5 -70.5q64 -24 95 -71.5t22 -113.5q-18 -117 -115.5 -176.5t-251.5 -59.5q-141 0 -228 63t-64 175
l2 6h202q-7 -43 21 -66t89 -23q54 0 92 24t45 68q8 52 -23 78t-98 26h-111l14 93z" />
    <glyph glyph-name="acute" unicode="&#xb4;" horiz-adv-x="727" 
d="M452 1518h324l2 -6l-314 -260h-242l-2 5z" />
    <glyph glyph-name="mu" unicode="&#xb5;" horiz-adv-x="1264" 
d="M512 1082l-97 -648q-17 -138 20 -183t126 -45q74 0 129 29t91 84l114 763h292l-162 -1082h-272l4 63q-50 -42 -109.5 -63t-127.5 -21q-49 0 -91 11t-75 34l-66 -440h-291l224 1498h291z" />
    <glyph glyph-name="paragraph" unicode="&#xb6;" horiz-adv-x="1078" 
d="M556 0l78 520h-83q-224 0 -338.5 131t-83.5 337q32 214 179.5 341t382.5 127h375l-218 -1456h-292z" />
    <glyph glyph-name="periodcentered" unicode="&#xb7;" horiz-adv-x="619" 
d="M456 568h-292l39 260h292z" />
    <glyph glyph-name="cedilla" unicode="&#xb8;" horiz-adv-x="549" 
d="M268 6l-20 -57q62 -11 99 -52t25 -121q-17 -111 -116.5 -173t-269.5 -62l17 161q49 0 83 20.5t41 62.5q6 43 -22.5 58.5t-107.5 20.5l52 142h219z" />
    <glyph glyph-name="onesuperior" unicode="&#xb9;" horiz-adv-x="573" 
d="M436 665h-211l94 630h-127l24 159l342 23z" />
    <glyph glyph-name="ordmasculine" unicode="&#xba;" horiz-adv-x="937" 
d="M209 1142q23 153 130.5 244t266.5 91q152 0 235 -94.5t61 -240.5l-17 -117q-24 -155 -130 -244.5t-265 -89.5q-153 0 -236.5 93.5t-61.5 240.5zM367 1025q-14 -88 22.5 -138t122.5 -50q79 0 132 52t66 136l17 117q13 86 -23.5 136.5t-120.5 50.5q-80 0 -133.5 -53
t-65.5 -134z" />
    <glyph glyph-name="guillemotright" unicode="&#xbb;" horiz-adv-x="1025" 
d="M344 551l-179 399h188l221 -390l-2 -13l-1 -6l-338 -390h-188zM690 551l-179 399h188l221 -390l-2 -13l-1 -6l-338 -390h-188z" />
    <glyph glyph-name="onequarter" unicode="&#xbc;" horiz-adv-x="1493" 
d="M525 664h-211l95 630h-127l23 159l342 23zM388 117l-130 75l881 1138l131 -75zM1361 296h101l-23 -157h-101l-21 -139h-211l21 139h-410l5 126l504 536h211zM947 302l3 -6h200l38 257l-5 2l-16 -20z" />
    <glyph glyph-name="onehalf" unicode="&#xbd;" horiz-adv-x="1553" 
d="M401 117l-130 75l881 1138l131 -75zM525 664h-211l95 630h-127l23 159l342 23zM1467 0h-622l23 155l347 252q67 50 89.5 83.5t29.5 74.5q5 41 -14 66.5t-68 25.5q-52 0 -86.5 -30t-40.5 -77h-200l-2 6q10 110 109 183t248 73q138 0 210 -66t55 -182q-13 -85 -72.5 -143.5
t-206.5 -166.5l-123 -93l2 -6h345z" />
    <glyph glyph-name="threequarters" unicode="&#xbe;" horiz-adv-x="1717" 
d="M571 117l-130 75l881 1138l131 -75zM1550 296h101l-23 -157h-101l-21 -139h-211l21 139h-410l5 126l504 536h211zM1136 302l3 -6h200l38 257l-5 2l-16 -20zM404 1140h111q60 0 94.5 25t41.5 70q6 39 -18 64t-80 25q-49 0 -82.5 -22t-37.5 -53h-200l-1 6q10 105 106 164.5
t232 59.5q146 0 228 -60t66 -169q-9 -57 -50.5 -102.5t-106.5 -70.5q64 -24 95 -71.5t22 -113.5q-18 -117 -115.5 -176.5t-251.5 -59.5q-141 0 -228 63t-64 175l2 6h202q-7 -43 21 -66t89 -23q54 0 92.5 24.5t44.5 67.5q8 52 -23 78t-98 26h-111l14 93z" />
    <glyph glyph-name="questiondown" unicode="&#xbf;" horiz-adv-x="1037" 
d="M746 668q-23 -141 -73 -206.5t-183 -157.5q-81 -58 -134 -125.5t-65 -149.5q-14 -94 26.5 -144t132.5 -50q71 0 130 43.5t74 127.5h283l1 -6q-27 -191 -171.5 -292.5t-350.5 -101.5q-217 0 -331.5 114t-85.5 307q19 130 108 235t215 181q67 45 93.5 92.5t39.5 132.5h291z
M515 1082h294l-37 -251h-294z" />
    <glyph glyph-name="Agrave" unicode="&#xc0;" horiz-adv-x="1303" 
d="M861 314h-473l-145 -314h-305l709 1456h299l271 -1456h-305zM495 543h328l-83 514l-6 1zM945 1600h-251l-235 261l2 5h326z" />
    <glyph glyph-name="Aacute" unicode="&#xc1;" horiz-adv-x="1303" 
d="M861 314h-473l-145 -314h-305l709 1456h299l271 -1456h-305zM495 543h328l-83 514l-6 1zM901 1866h324l2 -6l-314 -260h-242l-2 5z" />
    <glyph glyph-name="Acircumflex" unicode="&#xc2;" horiz-adv-x="1303" 
d="M861 314h-473l-145 -314h-305l709 1456h299l271 -1456h-305zM495 543h328l-83 514l-6 1zM1187 1615l-3 -23h-232l-120 133l-159 -133h-227l4 26l318 240h169z" />
    <glyph glyph-name="Atilde" unicode="&#xc3;" horiz-adv-x="1303" 
d="M861 314h-473l-145 -314h-305l709 1456h299l271 -1456h-305zM495 543h328l-83 514l-6 1zM1216 1856q-14 -99 -82.5 -165t-160.5 -66q-66 0 -150 43.5t-136 43.5q-35 0 -64.5 -32.5t-35.5 -77.5l-150 42q13 97 82 165t160 68q53 0 144 -43.5t144 -43.5q33 0 63.5 32.5
t37.5 78.5z" />
    <glyph glyph-name="Adieresis" unicode="&#xc4;" horiz-adv-x="1303" 
d="M861 314h-473l-145 -314h-305l709 1456h299l271 -1456h-305zM495 543h328l-83 514l-6 1zM1188 1601h-266l29 204h266zM688 1601h-266l29 204h266z" />
    <glyph glyph-name="Aring" unicode="&#xc5;" horiz-adv-x="1303" 
d="M861 314h-473l-145 -314h-305l709 1456h299l271 -1456h-305zM495 543h328l-83 514l-6 1zM648 1746q11 75 72 123.5t142 48.5q75 0 122 -50t37 -122q-12 -77 -72 -123t-139 -46q-77 0 -125.5 48t-36.5 121zM764 1746q-6 -32 11.5 -52t49.5 -20q28 0 51 20t29 52
q5 33 -11.5 53t-46.5 20t-54.5 -21t-28.5 -52z" />
    <glyph glyph-name="AE" unicode="&#xc6;" horiz-adv-x="1945" 
d="M1794 0h-898l36 335h-440l-218 -335h-342l1002 1456h1016l-34 -228h-596l-39 -366h499l-34 -227h-490l-44 -408h616zM958 575l60 557l-6 2l-364 -559h310z" />
    <glyph glyph-name="Ccedilla" unicode="&#xc7;" horiz-adv-x="1303" 
d="M1217 482l2 -6q-32 -242 -195 -369.5t-424 -127.5q-252 0 -392.5 170t-101.5 434l44 289q41 276 221.5 440.5t438.5 164.5q256 0 391 -131.5t96 -364.5l-3 -6h-284q22 145 -35 211t-199 66q-126 0 -218 -107t-117 -271l-44 -291q-26 -174 35.5 -277t200.5 -103
q126 0 203.5 69.5t98.5 209.5h282zM701 4l-20 -57q62 -11 99 -52t25 -121q-17 -111 -116.5 -173t-269.5 -62l17 161q49 0 83 20.5t41 62.5q6 43 -22.5 58.5t-107.5 20.5l52 142h219z" />
    <glyph glyph-name="Egrave" unicode="&#xc8;" horiz-adv-x="1139" 
d="M982 640h-540l-63 -416h643l-34 -224h-934l218 1456h932l-33 -225h-641l-55 -366h541zM893 1600h-251l-235 261l2 5h326z" />
    <glyph glyph-name="Eacute" unicode="&#xc9;" horiz-adv-x="1139" 
d="M982 640h-540l-63 -416h643l-34 -224h-934l218 1456h932l-33 -225h-641l-55 -366h541zM849 1866h324l2 -6l-314 -260h-242l-2 5z" />
    <glyph glyph-name="Ecircumflex" unicode="&#xca;" horiz-adv-x="1139" 
d="M982 640h-540l-63 -416h643l-34 -224h-934l218 1456h932l-33 -225h-641l-55 -366h541zM1135 1615l-3 -23h-232l-120 133l-159 -133h-227l4 26l318 240h169z" />
    <glyph glyph-name="Edieresis" unicode="&#xcb;" horiz-adv-x="1139" 
d="M982 640h-540l-63 -416h643l-34 -224h-934l218 1456h932l-33 -225h-641l-55 -366h541zM1136 1601h-266l29 204h266zM636 1601h-266l29 204h266z" />
    <glyph glyph-name="Igrave" unicode="&#xcc;" horiz-adv-x="601" 
d="M366 0h-292l218 1456h292zM593 1600h-251l-235 261l2 5h326z" />
    <glyph glyph-name="Iacute" unicode="&#xcd;" horiz-adv-x="601" 
d="M366 0h-292l218 1456h292zM548 1866h324l2 -6l-314 -260h-242l-2 5z" />
    <glyph glyph-name="Icircumflex" unicode="&#xce;" horiz-adv-x="601" 
d="M366 0h-292l218 1456h292zM835 1615l-3 -23h-232l-120 133l-159 -133h-227l4 26l318 240h169z" />
    <glyph glyph-name="Idieresis" unicode="&#xcf;" horiz-adv-x="601" 
d="M366 0h-292l218 1456h292zM836 1601h-266l29 204h266zM336 1601h-266l29 204h266z" />
    <glyph glyph-name="Eth" unicode="&#xd0;" horiz-adv-x="1355" 
d="M54 0l97 652h-135l27 181h135l94 623h508q257 0 409 -172t113 -436l-36 -241q-42 -278 -238 -442.5t-466 -164.5h-508zM687 652h-244l-64 -428h217q138 0 245 108.5t132 274.5l37 243q25 173 -46.5 277t-216.5 104h-217l-60 -398h244z" />
    <glyph glyph-name="Ntilde" unicode="&#xd1;" horiz-adv-x="1445" 
d="M1231 0h-292l-441 982l-6 -1l-146 -981h-292l218 1456h292l440 -981l6 1l147 980h292zM1285 1856q-14 -99 -82.5 -165t-160.5 -66q-66 0 -150 43.5t-136 43.5q-35 0 -64.5 -32.5t-35.5 -77.5l-150 42q13 97 82 165t160 68q53 0 144 -43.5t144 -43.5q33 0 63.5 32.5
t37.5 78.5z" />
    <glyph glyph-name="Ograve" unicode="&#xd2;" horiz-adv-x="1409" 
d="M1322 597q-43 -279 -235.5 -448.5t-466.5 -169.5q-259 0 -406 176.5t-107 441.5l39 262q41 277 232.5 447.5t464.5 170.5q261 0 409 -177.5t109 -440.5zM1070 861q26 176 -42.5 282t-219.5 106q-143 0 -244.5 -110t-126.5 -278l-39 -264q-27 -179 39 -285t217 -106
q144 0 247 110t130 281zM1000 1621h-251l-235 261l2 5h326z" />
    <glyph glyph-name="Oacute" unicode="&#xd3;" horiz-adv-x="1409" 
d="M1322 597q-43 -279 -235.5 -448.5t-466.5 -169.5q-259 0 -406 176.5t-107 441.5l39 262q41 277 232.5 447.5t464.5 170.5q261 0 409 -177.5t109 -440.5zM1070 861q26 176 -42.5 282t-219.5 106q-143 0 -244.5 -110t-126.5 -278l-39 -264q-27 -179 39 -285t217 -106
q144 0 247 110t130 281zM956 1887h324l2 -6l-314 -260h-242l-2 5z" />
    <glyph glyph-name="Ocircumflex" unicode="&#xd4;" horiz-adv-x="1409" 
d="M1322 597q-43 -279 -235.5 -448.5t-466.5 -169.5q-259 0 -406 176.5t-107 441.5l39 262q41 277 232.5 447.5t464.5 170.5q261 0 409 -177.5t109 -440.5zM1070 861q26 176 -42.5 282t-219.5 106q-143 0 -244.5 -110t-126.5 -278l-39 -264q-27 -179 39 -285t217 -106
q144 0 247 110t130 281zM1242 1636l-3 -23h-232l-120 133l-159 -133h-227l4 26l318 240h169z" />
    <glyph glyph-name="Otilde" unicode="&#xd5;" horiz-adv-x="1409" 
d="M1322 597q-43 -279 -235.5 -448.5t-466.5 -169.5q-259 0 -406 176.5t-107 441.5l39 262q41 277 232.5 447.5t464.5 170.5q261 0 409 -177.5t109 -440.5zM1070 861q26 176 -42.5 282t-219.5 106q-143 0 -244.5 -110t-126.5 -278l-39 -264q-27 -179 39 -285t217 -106
q144 0 247 110t130 281zM1271 1877q-14 -99 -82.5 -165t-160.5 -66q-66 0 -150 43.5t-136 43.5q-35 0 -64.5 -32.5t-35.5 -77.5l-150 42q13 97 82 165t160 68q53 0 144 -43.5t144 -43.5q33 0 63.5 32.5t37.5 78.5z" />
    <glyph glyph-name="Odieresis" unicode="&#xd6;" horiz-adv-x="1409" 
d="M1322 597q-43 -279 -235.5 -448.5t-466.5 -169.5q-259 0 -406 176.5t-107 441.5l39 262q41 277 232.5 447.5t464.5 170.5q261 0 409 -177.5t109 -440.5zM1070 861q26 176 -42.5 282t-219.5 106q-143 0 -244.5 -110t-126.5 -278l-39 -264q-27 -179 39 -285t217 -106
q144 0 247 110t130 281zM1244 1622h-266l29 204h266zM744 1622h-266l29 204h266z" />
    <glyph glyph-name="multiply" unicode="&#xd7;" horiz-adv-x="1088" 
d="M40 371l356 315l-262 315l197 164l257 -310l350 310l147 -164l-356 -315l262 -315l-197 -164l-257 309l-350 -309z" />
    <glyph glyph-name="Oslash" unicode="&#xd8;" horiz-adv-x="1410" 
d="M1322 597q-43 -279 -235.5 -448.5t-466.5 -169.5q-78 0 -148 17.5t-129 51.5l-104 -143h-143l155 211q-90 85 -128.5 209.5t-15.5 271.5l39 262q41 277 232.5 447.5t464.5 170.5q96 0 179 -26.5t151 -75.5l105 143h143l-164 -224q67 -85 95 -196.5t9 -238.5zM398 597
q-12 -76 -6.5 -138t26.5 -104l6 -2l591 807q-35 42 -87 65.5t-120 23.5q-143 0 -244.5 -110t-126.5 -278zM1070 861q7 49 7 92t-8 75l-6 2l-570 -778q31 -23 71.5 -34.5t89.5 -11.5q144 0 247 110t130 281z" />
    <glyph glyph-name="Ugrave" unicode="&#xd9;" horiz-adv-x="1407" 
d="M1426 1456l-143 -953q-38 -256 -219 -390t-445 -134q-249 0 -395 140.5t-109 383.5l143 953h293l-143 -953q-23 -151 43 -225.5t201 -74.5q130 0 223 78t115 222l143 953h293zM996 1600h-251l-235 261l2 5h326z" />
    <glyph glyph-name="Uacute" unicode="&#xda;" horiz-adv-x="1407" 
d="M1426 1456l-143 -953q-38 -256 -219 -390t-445 -134q-249 0 -395 140.5t-109 383.5l143 953h293l-143 -953q-23 -151 43 -225.5t201 -74.5q130 0 223 78t115 222l143 953h293zM952 1866h324l2 -6l-314 -260h-242l-2 5z" />
    <glyph glyph-name="Ucircumflex" unicode="&#xdb;" horiz-adv-x="1407" 
d="M1426 1456l-143 -953q-38 -256 -219 -390t-445 -134q-249 0 -395 140.5t-109 383.5l143 953h293l-143 -953q-23 -151 43 -225.5t201 -74.5q130 0 223 78t115 222l143 953h293zM1238 1615l-3 -23h-232l-120 133l-159 -133h-227l4 26l318 240h169z" />
    <glyph glyph-name="Udieresis" unicode="&#xdc;" horiz-adv-x="1407" 
d="M1426 1456l-143 -953q-38 -256 -219 -390t-445 -134q-249 0 -395 140.5t-109 383.5l143 953h293l-143 -953q-23 -151 43 -225.5t201 -74.5q130 0 223 78t115 222l143 953h293zM1239 1601h-266l29 204h266zM739 1601h-266l29 204h266z" />
    <glyph glyph-name="Yacute" unicode="&#xdd;" horiz-adv-x="1303" 
d="M685 786l6 -1l419 671h320l-640 -943l-77 -513h-292l79 527l-352 929h320zM905 1866h324l2 -6l-314 -260h-242l-2 5z" />
    <glyph glyph-name="Thorn" unicode="&#xde;" horiz-adv-x="1247" 
d="M562 1456l-41 -270h222q244 0 372 -125.5t99 -322.5q-32 -208 -190.5 -328.5t-415.5 -120.5h-221l-43 -289h-292l218 1456h292zM488 961l-67 -447h221q118 0 191.5 64.5t87.5 157.5q15 98 -36.5 161.5t-175.5 63.5h-221z" />
    <glyph glyph-name="germandbls" unicode="&#xdf;" horiz-adv-x="1294" 
d="M346 0h-291l165 1101q35 235 180.5 353.5t371.5 118.5q174 0 281.5 -96.5t81.5 -270.5q-18 -114 -85.5 -209t-77.5 -162q-10 -61 119 -200.5t109 -278.5q-30 -196 -156.5 -286.5t-346.5 -90.5q-78 0 -157 15t-114 41l89 223q35 -22 89.5 -38.5t119.5 -16.5q74 0 124 38.5
t60 102.5q11 76 -119.5 208.5t-108.5 273.5q14 96 83.5 193.5t80.5 171.5q10 71 -28 114.5t-97 43.5q-73 0 -132 -68t-76 -184z" />
    <glyph glyph-name="agrave" unicode="&#xe0;" horiz-adv-x="1100" 
d="M670 0q-11 37 -16 78.5t-4 84.5q-57 -80 -138.5 -132t-183.5 -52q-164 0 -246 88.5t-59 237.5q24 165 158 249.5t372 84.5h164l13 86q12 81 -22.5 122.5t-116.5 41.5q-68 0 -113.5 -34.5t-53.5 -94.5h-281l-1 6q15 142 154.5 239t345.5 97q188 0 297 -99t82 -280
l-67 -447q-12 -79 -10 -144t17 -132h-291zM432 195q73 0 140 38.5t97 88.5l23 152h-164q-89 0 -145.5 -47t-66.5 -112q-9 -57 22 -88.5t94 -31.5zM790 1278h-251l-235 261l2 5h326z" />
    <glyph glyph-name="aacute" unicode="&#xe1;" horiz-adv-x="1100" 
d="M670 0q-11 37 -16 78.5t-4 84.5q-57 -80 -138.5 -132t-183.5 -52q-164 0 -246 88.5t-59 237.5q24 165 158 249.5t372 84.5h164l13 86q12 81 -22.5 122.5t-116.5 41.5q-68 0 -113.5 -34.5t-53.5 -94.5h-281l-1 6q15 142 154.5 239t345.5 97q188 0 297 -99t82 -280
l-67 -447q-12 -79 -10 -144t17 -132h-291zM432 195q73 0 140 38.5t97 88.5l23 152h-164q-89 0 -145.5 -47t-66.5 -112q-9 -57 22 -88.5t94 -31.5zM746 1544h324l2 -6l-314 -260h-242l-2 5z" />
    <glyph glyph-name="acircumflex" unicode="&#xe2;" horiz-adv-x="1100" 
d="M670 0q-11 37 -16 78.5t-4 84.5q-57 -80 -138.5 -132t-183.5 -52q-164 0 -246 88.5t-59 237.5q24 165 158 249.5t372 84.5h164l13 86q12 81 -22.5 122.5t-116.5 41.5q-68 0 -113.5 -34.5t-53.5 -94.5h-281l-1 6q15 142 154.5 239t345.5 97q188 0 297 -99t82 -280
l-67 -447q-12 -79 -10 -144t17 -132h-291zM432 195q73 0 140 38.5t97 88.5l23 152h-164q-89 0 -145.5 -47t-66.5 -112q-9 -57 22 -88.5t94 -31.5zM1032 1293l-3 -23h-232l-120 133l-159 -133h-227l4 26l318 240h169z" />
    <glyph glyph-name="atilde" unicode="&#xe3;" horiz-adv-x="1100" 
d="M670 0q-11 37 -16 78.5t-4 84.5q-57 -80 -138.5 -132t-183.5 -52q-164 0 -246 88.5t-59 237.5q24 165 158 249.5t372 84.5h164l13 86q12 81 -22.5 122.5t-116.5 41.5q-68 0 -113.5 -34.5t-53.5 -94.5h-281l-1 6q15 142 154.5 239t345.5 97q188 0 297 -99t82 -280
l-67 -447q-12 -79 -10 -144t17 -132h-291zM432 195q73 0 140 38.5t97 88.5l23 152h-164q-89 0 -145.5 -47t-66.5 -112q-9 -57 22 -88.5t94 -31.5zM1061 1534q-14 -99 -82.5 -165t-160.5 -66q-66 0 -150 43.5t-136 43.5q-35 0 -64.5 -32.5t-35.5 -77.5l-150 42q13 97 82 165
t160 68q53 0 144 -43.5t144 -43.5q33 0 63.5 32.5t37.5 78.5z" />
    <glyph glyph-name="adieresis" unicode="&#xe4;" horiz-adv-x="1100" 
d="M670 0q-11 37 -16 78.5t-4 84.5q-57 -80 -138.5 -132t-183.5 -52q-164 0 -246 88.5t-59 237.5q24 165 158 249.5t372 84.5h164l13 86q12 81 -22.5 122.5t-116.5 41.5q-68 0 -113.5 -34.5t-53.5 -94.5h-281l-1 6q15 142 154.5 239t345.5 97q188 0 297 -99t82 -280
l-67 -447q-12 -79 -10 -144t17 -132h-291zM432 195q73 0 140 38.5t97 88.5l23 152h-164q-89 0 -145.5 -47t-66.5 -112q-9 -57 22 -88.5t94 -31.5zM1033 1279h-266l29 204h266zM533 1279h-266l29 204h266z" />
    <glyph glyph-name="aring" unicode="&#xe5;" horiz-adv-x="1100" 
d="M670 0q-11 37 -16 78.5t-4 84.5q-57 -80 -138.5 -132t-183.5 -52q-164 0 -246 88.5t-59 237.5q24 165 158 249.5t372 84.5h164l13 86q12 81 -22.5 122.5t-116.5 41.5q-68 0 -113.5 -34.5t-53.5 -94.5h-281l-1 6q15 142 154.5 239t345.5 97q188 0 297 -99t82 -280
l-67 -447q-12 -79 -10 -144t17 -132h-291zM432 195q73 0 140 38.5t97 88.5l23 152h-164q-89 0 -145.5 -47t-66.5 -112q-9 -57 22 -88.5t94 -31.5zM493 1424q11 75 72 123.5t142 48.5q75 0 122 -50t37 -122q-12 -77 -72 -123t-139 -46q-77 0 -125.5 48t-36.5 121zM609 1424
q-6 -32 11.5 -52t49.5 -20q28 0 51 20t29 52q5 33 -11.5 53t-46.5 20t-54.5 -21t-28.5 -52z" />
    <glyph glyph-name="ae" unicode="&#xe6;" horiz-adv-x="1771" 
d="M1197 -21q-124 0 -217.5 42t-151.5 120q-69 -71 -178 -116.5t-251 -45.5q-185 0 -279.5 91.5t-70.5 246.5q24 165 161.5 248t383.5 83h181l9 59q12 82 -21 126t-108 44q-78 0 -132 -38t-62 -93l-279 18l-1 6q17 150 156.5 241t353.5 91q97 0 176 -27t132 -79
q69 52 156 79t187 27q204 0 309.5 -133t72.5 -357l-24 -158h-651l-2 -5q-14 -115 37 -180.5t177 -65.5q88 0 156.5 20.5t151.5 60.5l49 -184q-70 -48 -182.5 -84.5t-238.5 -36.5zM485 185q56 0 124.5 31t111.5 73l26 175h-178q-93 0 -157 -45t-73 -106q-10 -61 26.5 -94.5
t119.5 -33.5zM1309 877q-90 0 -148.5 -62t-81.5 -165l2 -6h361l4 28q14 97 -19.5 151t-117.5 54z" />
    <glyph glyph-name="ccedilla" unicode="&#xe7;" horiz-adv-x="1056" 
d="M514 203q73 0 126.5 46t65.5 121h265l2 -6q-22 -170 -162.5 -277.5t-329.5 -107.5q-231 0 -343.5 155.5t-76.5 390.5l4 30q37 247 189 397t393 150q191 0 298.5 -115t75.5 -300l-2 -5h-267q13 86 -22.5 140.5t-115.5 54.5q-109 0 -172.5 -92t-84.5 -230l-4 -30
q-23 -149 11 -235.5t150 -86.5zM588 4l-20 -57q62 -11 99 -52t25 -121q-17 -111 -116.5 -173t-269.5 -62l17 161q49 0 83 20.5t41 62.5q6 43 -22.5 58.5t-107.5 20.5l52 142h219z" />
    <glyph glyph-name="egrave" unicode="&#xe8;" horiz-adv-x="1071" 
d="M498 -21q-232 0 -351 150.5t-83 380.5l6 40q37 252 190.5 402.5t386.5 149.5q210 0 310.5 -135t66.5 -358l-22 -151h-646l-2 -5q-12 -115 38 -182.5t170 -67.5q94 0 169 20.5t152 60.5l52 -180q-74 -53 -190 -89t-247 -36zM614 877q-84 0 -141.5 -61t-83.5 -159l2 -6h354
l3 22q15 98 -15.5 151t-118.5 53zM783 1279h-251l-235 261l2 5h326z" />
    <glyph glyph-name="eacute" unicode="&#xe9;" horiz-adv-x="1071" 
d="M498 -21q-232 0 -351 150.5t-83 380.5l6 40q37 252 190.5 402.5t386.5 149.5q210 0 310.5 -135t66.5 -358l-22 -151h-646l-2 -5q-12 -115 38 -182.5t170 -67.5q94 0 169 20.5t152 60.5l52 -180q-74 -53 -190 -89t-247 -36zM614 877q-84 0 -141.5 -61t-83.5 -159l2 -6h354
l3 22q15 98 -15.5 151t-118.5 53zM739 1545h324l2 -6l-314 -260h-242l-2 5z" />
    <glyph glyph-name="ecircumflex" unicode="&#xea;" horiz-adv-x="1071" 
d="M498 -21q-232 0 -351 150.5t-83 380.5l6 40q37 252 190.5 402.5t386.5 149.5q210 0 310.5 -135t66.5 -358l-22 -151h-646l-2 -5q-12 -115 38 -182.5t170 -67.5q94 0 169 20.5t152 60.5l52 -180q-74 -53 -190 -89t-247 -36zM614 877q-84 0 -141.5 -61t-83.5 -159l2 -6h354
l3 22q15 98 -15.5 151t-118.5 53zM1025 1294l-3 -23h-232l-120 133l-159 -133h-227l4 26l318 240h169z" />
    <glyph glyph-name="edieresis" unicode="&#xeb;" horiz-adv-x="1071" 
d="M498 -21q-232 0 -351 150.5t-83 380.5l6 40q37 252 190.5 402.5t386.5 149.5q210 0 310.5 -135t66.5 -358l-22 -151h-646l-2 -5q-12 -115 38 -182.5t170 -67.5q94 0 169 20.5t152 60.5l52 -180q-74 -53 -190 -89t-247 -36zM614 877q-84 0 -141.5 -61t-83.5 -159l2 -6h354
l3 22q15 98 -15.5 151t-118.5 53zM1026 1280h-266l29 204h266zM526 1280h-266l29 204h266z" />
    <glyph glyph-name="igrave" unicode="&#xec;" horiz-adv-x="562" 
d="M345 0h-292l162 1082h292zM522 1257h-251l-235 261l2 5h326z" />
    <glyph glyph-name="iacute" unicode="&#xed;" horiz-adv-x="562" 
d="M345 0h-292l162 1082h292zM477 1523h324l2 -6l-314 -260h-242l-2 5z" />
    <glyph glyph-name="icircumflex" unicode="&#xee;" horiz-adv-x="562" 
d="M345 0h-292l162 1082h292zM764 1273l-3 -23h-232l-120 133l-159 -133h-227l4 26l318 240h169z" />
    <glyph glyph-name="idieresis" unicode="&#xef;" horiz-adv-x="562" 
d="M345 0h-292l162 1082h292zM765 1258h-266l29 204h266zM265 1258h-266l29 204h266z" />
    <glyph glyph-name="eth" unicode="&#xf0;" horiz-adv-x="1218" 
d="M1034 1290q87 -106 122 -245t11 -303l-29 -196q-39 -260 -217.5 -413.5t-416.5 -153.5q-229 0 -363 142t-103 347q35 235 188 367t387 132q79 0 148.5 -27.5t115.5 -74.5l4 4q0 89 -28.5 160.5t-80.5 126.5l-269 -138l-61 113l210 107l-1 6q-27 15 -62 28.5t-76 26.5
l125 218q86 -19 161 -52.5t137 -80.5l214 109l60 -113zM541 203q112 0 197.5 97.5t107.5 245.5l18 118q-28 39 -89 65t-148 26q-117 0 -197.5 -80t-99.5 -207q-17 -116 39 -190.5t172 -74.5z" />
    <glyph glyph-name="ntilde" unicode="&#xf1;" 
d="M452 933q65 81 151 125t184 44q158 0 237 -107t45 -332l-99 -663h-293l99 662q18 120 -14.5 166.5t-115.5 46.5q-64 0 -117.5 -25.5t-92.5 -70.5l-117 -779h-292l162 1082h272zM1092 1534q-14 -99 -82.5 -165t-160.5 -66q-66 0 -150 43.5t-136 43.5q-35 0 -64.5 -32.5
t-35.5 -77.5l-150 42q13 97 82 165t160 68q53 0 144 -43.5t144 -43.5q33 0 63.5 32.5t37.5 78.5z" />
    <glyph glyph-name="ograve" unicode="&#xf2;" 
d="M70 551q37 251 193.5 401t397.5 150q231 0 348 -156t82 -395l-3 -21q-39 -253 -195 -402t-398 -149q-231 0 -348 155.5t-80 395.5zM358 530q-24 -153 15 -240t155 -87q108 0 177 91t91 236l3 21q21 149 -17.5 237.5t-153.5 88.5q-109 0 -178 -92.5t-89 -233.5zM821 1278
h-251l-235 261l2 5h326z" />
    <glyph glyph-name="oacute" unicode="&#xf3;" 
d="M70 551q37 251 193.5 401t397.5 150q231 0 348 -156t82 -395l-3 -21q-39 -253 -195 -402t-398 -149q-231 0 -348 155.5t-80 395.5zM358 530q-24 -153 15 -240t155 -87q108 0 177 91t91 236l3 21q21 149 -17.5 237.5t-153.5 88.5q-109 0 -178 -92.5t-89 -233.5zM777 1544
h324l2 -6l-314 -260h-242l-2 5z" />
    <glyph glyph-name="ocircumflex" unicode="&#xf4;" 
d="M70 551q37 251 193.5 401t397.5 150q231 0 348 -156t82 -395l-3 -21q-39 -253 -195 -402t-398 -149q-231 0 -348 155.5t-80 395.5zM358 530q-24 -153 15 -240t155 -87q108 0 177 91t91 236l3 21q21 149 -17.5 237.5t-153.5 88.5q-109 0 -178 -92.5t-89 -233.5zM1063 1293
l-3 -23h-232l-120 133l-159 -133h-227l4 26l318 240h169z" />
    <glyph glyph-name="otilde" unicode="&#xf5;" 
d="M70 551q37 251 193.5 401t397.5 150q231 0 348 -156t82 -395l-3 -21q-39 -253 -195 -402t-398 -149q-231 0 -348 155.5t-80 395.5zM358 530q-24 -153 15 -240t155 -87q108 0 177 91t91 236l3 21q21 149 -17.5 237.5t-153.5 88.5q-109 0 -178 -92.5t-89 -233.5zM1092 1534
q-14 -99 -82.5 -165t-160.5 -66q-66 0 -150 43.5t-136 43.5q-35 0 -64.5 -32.5t-35.5 -77.5l-150 42q13 97 82 165t160 68q53 0 144 -43.5t144 -43.5q33 0 63.5 32.5t37.5 78.5z" />
    <glyph glyph-name="odieresis" unicode="&#xf6;" 
d="M70 551q37 251 193.5 401t397.5 150q231 0 348 -156t82 -395l-3 -21q-39 -253 -195 -402t-398 -149q-231 0 -348 155.5t-80 395.5zM358 530q-24 -153 15 -240t155 -87q108 0 177 91t91 236l3 21q21 149 -17.5 237.5t-153.5 88.5q-109 0 -178 -92.5t-89 -233.5zM1064 1279
h-266l29 204h266zM564 1279h-266l29 204h266z" />
    <glyph glyph-name="divide" unicode="&#xf7;" horiz-adv-x="1168" 
d="M1098 573h-1029l34 227h1029zM791 973h-293l35 233h293zM670 164h-293l35 233h293z" />
    <glyph glyph-name="oslash" unicode="&#xf8;" 
d="M70 551q37 251 193.5 401t397.5 150q50 0 96 -8.5t86 -23.5l92 145h161l-137 -215q84 -74 118 -190.5t14 -258.5l-3 -21q-39 -253 -195 -402t-398 -149q-47 0 -89.5 7t-81.5 20l-94 -147h-161l137 214q-89 73 -125.5 192t-13.5 265zM358 530q-10 -64 -9.5 -116.5
t13.5 -85.5l6 -1l341 534q-17 7 -37.5 11.5t-43.5 4.5q-109 0 -178 -92.5t-89 -233.5zM799 551q8 56 7.5 104t-9.5 80l-6 2l-334 -523q14 -6 31.5 -8.5t39.5 -2.5q108 0 177 91t91 236z" />
    <glyph glyph-name="ugrave" unicode="&#xf9;" 
d="M719 155q-62 -86 -146 -131t-187 -45q-165 0 -247 117t-46 359l94 627h291l-94 -629q-22 -147 8.5 -197t112.5 -50q68 0 122.5 24t93.5 69l117 783h292l-162 -1082h-242zM817 1257h-251l-235 261l2 5h326z" />
    <glyph glyph-name="uacute" unicode="&#xfa;" 
d="M719 155q-62 -86 -146 -131t-187 -45q-165 0 -247 117t-46 359l94 627h291l-94 -629q-22 -147 8.5 -197t112.5 -50q68 0 122.5 24t93.5 69l117 783h292l-162 -1082h-242zM773 1523h324l2 -6l-314 -260h-242l-2 5z" />
    <glyph glyph-name="ucircumflex" unicode="&#xfb;" 
d="M719 155q-62 -86 -146 -131t-187 -45q-165 0 -247 117t-46 359l94 627h291l-94 -629q-22 -147 8.5 -197t112.5 -50q68 0 122.5 24t93.5 69l117 783h292l-162 -1082h-242zM1059 1273l-3 -23h-232l-120 133l-159 -133h-227l4 26l318 240h169z" />
    <glyph glyph-name="udieresis" unicode="&#xfc;" 
d="M719 155q-62 -86 -146 -131t-187 -45q-165 0 -247 117t-46 359l94 627h291l-94 -629q-22 -147 8.5 -197t112.5 -50q68 0 122.5 24t93.5 69l117 783h292l-162 -1082h-242zM1060 1258h-266l29 204h266zM560 1258h-266l29 204h266z" />
    <glyph glyph-name="yacute" unicode="&#xfd;" horiz-adv-x="1046" 
d="M490 454l2 -59l6 -1l311 688h314l-625 -1244q-63 -116 -154.5 -195.5t-249.5 -79.5q-35 0 -66.5 6t-74.5 17l66 213q12 -2 27 -4t27 -2q69 0 115 36.5t75 87.5l46 83l-222 1082h314zM720 1523h324l2 -6l-314 -260h-242l-2 5z" />
    <glyph glyph-name="thorn" unicode="&#xfe;" horiz-adv-x="1162" 
d="M1095 511q-38 -249 -169 -390.5t-332 -141.5q-83 0 -144 33.5t-101 97.5l-16 -110l-62 -416h-291l62 416h-1l234 1560h292l-89 -591q57 64 127 98.5t155 34.5q193 0 284 -158.5t54 -411.5zM806 532q23 157 -13.5 250t-142.5 93q-64 0 -115 -28.5t-87 -80.5l-71 -468
q20 -47 63 -71t111 -24q102 0 166 84t86 224z" />
    <glyph glyph-name="ydieresis" unicode="&#xff;" horiz-adv-x="1046" 
d="M490 454l2 -59l6 -1l311 688h314l-625 -1244q-63 -116 -154.5 -195.5t-249.5 -79.5q-35 0 -66.5 6t-74.5 17l66 213q12 -2 27 -4t27 -2q69 0 115 36.5t75 87.5l46 83l-222 1082h314zM1008 1258h-266l29 204h266zM508 1258h-266l29 204h266z" />
    <glyph glyph-name="Amacron" unicode="&#x100;" horiz-adv-x="1303" 
d="M861 314h-473l-145 -314h-305l709 1456h299l271 -1456h-305zM495 543h328l-83 514l-6 1zM1174 1613h-731l23 165h731z" />
    <glyph glyph-name="amacron" unicode="&#x101;" horiz-adv-x="1100" 
d="M670 0q-11 37 -16 78.5t-4 84.5q-57 -80 -138.5 -132t-183.5 -52q-164 0 -246 88.5t-59 237.5q24 165 158 249.5t372 84.5h164l13 86q12 81 -22.5 122.5t-116.5 41.5q-68 0 -113.5 -34.5t-53.5 -94.5h-281l-1 6q15 142 154.5 239t345.5 97q188 0 297 -99t82 -280
l-67 -447q-12 -79 -10 -144t17 -132h-291zM432 195q73 0 140 38.5t97 88.5l23 152h-164q-89 0 -145.5 -47t-66.5 -112q-9 -57 22 -88.5t94 -31.5zM1019 1292h-731l23 165h731z" />
    <glyph glyph-name="Abreve" unicode="&#x102;" horiz-adv-x="1303" 
d="M861 314h-473l-145 -314h-305l709 1456h299l271 -1456h-305zM495 543h328l-83 514l-6 1zM1187 1896l1 -6q-14 -132 -117.5 -210t-262.5 -78q-153 0 -238.5 81t-62.5 207l2 6h214q-9 -55 17 -88t92 -33q61 0 97 34.5t44 86.5h214z" />
    <glyph glyph-name="abreve" unicode="&#x103;" horiz-adv-x="1100" 
d="M670 0q-11 37 -16 78.5t-4 84.5q-57 -80 -138.5 -132t-183.5 -52q-164 0 -246 88.5t-59 237.5q24 165 158 249.5t372 84.5h164l13 86q12 81 -22.5 122.5t-116.5 41.5q-68 0 -113.5 -34.5t-53.5 -94.5h-281l-1 6q15 142 154.5 239t345.5 97q188 0 297 -99t82 -280
l-67 -447q-12 -79 -10 -144t17 -132h-291zM432 195q73 0 140 38.5t97 88.5l23 152h-164q-89 0 -145.5 -47t-66.5 -112q-9 -57 22 -88.5t94 -31.5zM1032 1574l1 -6q-14 -132 -117.5 -210t-262.5 -78q-153 0 -238.5 81t-62.5 207l2 6h214q-9 -55 17 -88t92 -33q61 0 97 34.5
t44 86.5h214z" />
    <glyph glyph-name="Aogonek" unicode="&#x104;" horiz-adv-x="1303" 
d="M861 314h-473l-145 -314h-305l709 1456h299l271 -1456h-305zM495 543h328l-83 514l-6 1zM1133 0q-61 -52 -92 -89.5t-38 -86.5q-5 -28 8.5 -49t66.5 -21q27 0 50.5 6t46.5 14l12 -154q-38 -19 -85 -31.5t-108 -12.5q-104 0 -167 57t-48 157q13 80 68.5 147.5t162.5 122.5
z" />
    <glyph glyph-name="aogonek" unicode="&#x105;" horiz-adv-x="1100" 
d="M670 0q-11 37 -16 78.5t-4 84.5q-57 -80 -138.5 -132t-183.5 -52q-164 0 -246 88.5t-59 237.5q24 165 158 249.5t372 84.5h164l13 86q12 81 -22.5 122.5t-116.5 41.5q-68 0 -113.5 -34.5t-53.5 -94.5h-281l-1 6q15 142 154.5 239t345.5 97q188 0 297 -99t82 -280
l-67 -447q-12 -79 -10 -144t17 -132h-291zM432 195q73 0 140 38.5t97 88.5l23 152h-164q-89 0 -145.5 -47t-66.5 -112q-9 -57 22 -88.5t94 -31.5zM876 0q-61 -52 -92 -89.5t-38 -86.5q-5 -28 8.5 -49t66.5 -21q27 0 50.5 6t46.5 14l12 -154q-38 -19 -85 -31.5t-108 -12.5
q-104 0 -167 57t-48 157q13 80 68.5 147.5t162.5 122.5z" />
    <glyph glyph-name="Cacute" unicode="&#x106;" horiz-adv-x="1303" 
d="M1217 482l2 -6q-32 -242 -195 -369.5t-424 -127.5q-252 0 -392.5 170t-101.5 434l44 289q41 276 221.5 440.5t438.5 164.5q256 0 391 -131.5t96 -364.5l-3 -6h-284q22 145 -35 211t-199 66q-126 0 -218 -107t-117 -271l-44 -291q-26 -174 35.5 -277t200.5 -103
q126 0 203.5 69.5t98.5 209.5h282zM930 1887h324l2 -6l-314 -260h-242l-2 5z" />
    <glyph glyph-name="cacute" unicode="&#x107;" horiz-adv-x="1056" 
d="M514 203q73 0 126.5 46t65.5 121h265l2 -6q-22 -170 -162.5 -277.5t-329.5 -107.5q-231 0 -343.5 155.5t-76.5 390.5l4 30q37 247 189 397t393 150q191 0 298.5 -115t75.5 -300l-2 -5h-267q13 86 -22.5 140.5t-115.5 54.5q-109 0 -172.5 -92t-84.5 -230l-4 -30
q-23 -149 11 -235.5t150 -86.5zM734 1544h324l2 -6l-314 -260h-242l-2 5z" />
    <glyph glyph-name="Ccircumflex" unicode="&#x108;" horiz-adv-x="1303" 
d="M1217 482l2 -6q-32 -242 -195 -369.5t-424 -127.5q-252 0 -392.5 170t-101.5 434l44 289q41 276 221.5 440.5t438.5 164.5q256 0 391 -131.5t96 -364.5l-3 -6h-284q22 145 -35 211t-199 66q-126 0 -218 -107t-117 -271l-44 -291q-26 -174 35.5 -277t200.5 -103
q126 0 203.5 69.5t98.5 209.5h282zM1216 1636l-3 -23h-232l-120 133l-159 -133h-227l4 26l318 240h169z" />
    <glyph glyph-name="ccircumflex" unicode="&#x109;" horiz-adv-x="1056" 
d="M514 203q73 0 126.5 46t65.5 121h265l2 -6q-22 -170 -162.5 -277.5t-329.5 -107.5q-231 0 -343.5 155.5t-76.5 390.5l4 30q37 247 189 397t393 150q191 0 298.5 -115t75.5 -300l-2 -5h-267q13 86 -22.5 140.5t-115.5 54.5q-109 0 -172.5 -92t-84.5 -230l-4 -30
q-23 -149 11 -235.5t150 -86.5zM1020 1293l-3 -23h-232l-120 133l-159 -133h-227l4 26l318 240h169z" />
    <glyph glyph-name="uni010A" unicode="&#x10a;" horiz-adv-x="1303" 
d="M1217 482l2 -6q-32 -242 -195 -369.5t-424 -127.5q-252 0 -392.5 170t-101.5 434l44 289q41 276 221.5 440.5t438.5 164.5q256 0 391 -131.5t96 -364.5l-3 -6h-284q22 145 -35 211t-199 66q-126 0 -218 -107t-117 -271l-44 -291q-26 -174 35.5 -277t200.5 -103
q126 0 203.5 69.5t98.5 209.5h282zM1006 1622h-327l36 241h327z" />
    <glyph glyph-name="uni010B" unicode="&#x10b;" horiz-adv-x="1056" 
d="M514 203q73 0 126.5 46t65.5 121h265l2 -6q-22 -170 -162.5 -277.5t-329.5 -107.5q-231 0 -343.5 155.5t-76.5 390.5l4 30q37 247 189 397t393 150q191 0 298.5 -115t75.5 -300l-2 -5h-267q13 86 -22.5 140.5t-115.5 54.5q-109 0 -172.5 -92t-84.5 -230l-4 -30
q-23 -149 11 -235.5t150 -86.5zM810 1279h-327l36 241h327z" />
    <glyph glyph-name="Ccaron" unicode="&#x10c;" horiz-adv-x="1303" 
d="M1217 482l2 -6q-32 -242 -195 -369.5t-424 -127.5q-252 0 -392.5 170t-101.5 434l44 289q41 276 221.5 440.5t438.5 164.5q256 0 391 -131.5t96 -364.5l-3 -6h-284q22 145 -35 211t-199 66q-126 0 -218 -107t-117 -271l-44 -291q-26 -174 35.5 -277t200.5 -103
q126 0 203.5 69.5t98.5 209.5h282zM864 1767l136 127h264l-3 -17l-319 -255h-199l-243 256l3 16h264z" />
    <glyph glyph-name="ccaron" unicode="&#x10d;" horiz-adv-x="1056" 
d="M514 203q73 0 126.5 46t65.5 121h265l2 -6q-22 -170 -162.5 -277.5t-329.5 -107.5q-231 0 -343.5 155.5t-76.5 390.5l4 30q37 247 189 397t393 150q191 0 298.5 -115t75.5 -300l-2 -5h-267q13 86 -22.5 140.5t-115.5 54.5q-109 0 -172.5 -92t-84.5 -230l-4 -30
q-23 -149 11 -235.5t150 -86.5zM667 1424l136 127h264l-3 -17l-319 -255h-199l-243 256l3 16h264z" />
    <glyph glyph-name="Dcaron" unicode="&#x10e;" horiz-adv-x="1355" 
d="M54 0l218 1456h508q257 0 409 -172t113 -436l-36 -241q-42 -278 -238 -442.5t-466 -164.5h-508zM530 1231l-151 -1007h217q138 0 245 108.5t132 274.5l37 243q25 173 -46.5 277t-216.5 104h-217zM771 1746l136 127h264l-3 -17l-319 -255h-199l-243 256l3 16h264z" />
    <glyph glyph-name="dcaron" unicode="&#x10f;" 
d="M67 532q39 265 171.5 417.5t335.5 152.5q79 0 138.5 -36.5t100.5 -104.5l90 599h293l-234 -1560h-249l-5 133q-62 -75 -138 -114.5t-166 -39.5q-191 0 -283.5 148t-56.5 384zM355 511q-23 -147 13 -226t145 -79q62 0 113.5 26.5t88.5 76.5l69 458q-22 51 -64.5 79.5
t-104.5 28.5q-102 0 -168.5 -96.5t-88.5 -246.5zM1498 1398l-165 -235h-122l98 245l23 151h190z" />
    <glyph glyph-name="Dcroat" unicode="&#x110;" horiz-adv-x="1355" 
d="M54 0l97 652h-135l27 181h135l94 623h508q257 0 409 -172t113 -436l-36 -241q-42 -278 -238 -442.5t-466 -164.5h-508zM687 652h-244l-64 -428h217q138 0 245 108.5t132 274.5l37 243q25 173 -46.5 277t-216.5 104h-217l-60 -398h244z" />
    <glyph glyph-name="dcroat" unicode="&#x111;" 
d="M1289 1220h-144l-183 -1220h-249l-5 133q-62 -75 -138 -114.5t-166 -39.5q-191 0 -283.5 148t-56.5 384l3 21q39 265 171.5 417.5t335.5 152.5q79 0 138.5 -36.5t100.5 -104.5l39 259h-234l27 181h234l24 159h293l-24 -159h144zM355 511q-23 -147 13 -226t145 -79
q62 0 113.5 26.5t88.5 76.5l69 458q-22 51 -64.5 79.5t-104.5 28.5q-102 0 -168.5 -96.5t-88.5 -246.5z" />
    <glyph glyph-name="Emacron" unicode="&#x112;" horiz-adv-x="1139" 
d="M982 640h-540l-63 -416h643l-34 -224h-934l218 1456h932l-33 -225h-641l-55 -366h541zM1122 1613h-731l23 165h731z" />
    <glyph glyph-name="emacron" unicode="&#x113;" horiz-adv-x="1071" 
d="M498 -21q-232 0 -351 150.5t-83 380.5l6 40q37 252 190.5 402.5t386.5 149.5q210 0 310.5 -135t66.5 -358l-22 -151h-646l-2 -5q-12 -115 38 -182.5t170 -67.5q94 0 169 20.5t152 60.5l52 -180q-74 -53 -190 -89t-247 -36zM614 877q-84 0 -141.5 -61t-83.5 -159l2 -6h354
l3 22q15 98 -15.5 151t-118.5 53zM1012 1292h-731l23 165h731z" />
    <glyph glyph-name="Ebreve" unicode="&#x114;" horiz-adv-x="1139" 
d="M982 640h-540l-63 -416h643l-34 -224h-934l218 1456h932l-33 -225h-641l-55 -366h541zM1135 1896l1 -6q-14 -132 -117.5 -210t-262.5 -78q-153 0 -238.5 81t-62.5 207l2 6h214q-9 -55 17 -88t92 -33q61 0 97 34.5t44 86.5h214z" />
    <glyph glyph-name="ebreve" unicode="&#x115;" horiz-adv-x="1071" 
d="M498 -21q-232 0 -351 150.5t-83 380.5l6 40q37 252 190.5 402.5t386.5 149.5q210 0 310.5 -135t66.5 -358l-22 -151h-646l-2 -5q-12 -115 38 -182.5t170 -67.5q94 0 169 20.5t152 60.5l52 -180q-74 -53 -190 -89t-247 -36zM614 877q-84 0 -141.5 -61t-83.5 -159l2 -6h354
l3 22q15 98 -15.5 151t-118.5 53zM1025 1575l1 -6q-14 -132 -117.5 -210t-262.5 -78q-153 0 -238.5 81t-62.5 207l2 6h214q-9 -55 17 -88t92 -33q61 0 97 34.5t44 86.5h214z" />
    <glyph glyph-name="Edotaccent" unicode="&#x116;" horiz-adv-x="1139" 
d="M982 640h-540l-63 -416h643l-34 -224h-934l218 1456h932l-33 -225h-641l-55 -366h541zM925 1601h-327l36 241h327z" />
    <glyph glyph-name="edotaccent" unicode="&#x117;" horiz-adv-x="1071" 
d="M498 -21q-232 0 -351 150.5t-83 380.5l6 40q37 252 190.5 402.5t386.5 149.5q210 0 310.5 -135t66.5 -358l-22 -151h-646l-2 -5q-12 -115 38 -182.5t170 -67.5q94 0 169 20.5t152 60.5l52 -180q-74 -53 -190 -89t-247 -36zM614 877q-84 0 -141.5 -61t-83.5 -159l2 -6h354
l3 22q15 98 -15.5 151t-118.5 53zM815 1280h-327l36 241h327z" />
    <glyph glyph-name="Eogonek" unicode="&#x118;" horiz-adv-x="1139" 
d="M982 640h-540l-63 -416h643l-34 -224h-934l218 1456h932l-33 -225h-641l-55 -366h541zM595 0q-61 -52 -92 -89.5t-38 -86.5q-5 -28 8.5 -49t66.5 -21q27 0 50.5 6t46.5 14l12 -154q-38 -19 -85 -31.5t-108 -12.5q-104 0 -167 57t-48 157q13 80 68.5 147.5t162.5 122.5z
" />
    <glyph glyph-name="eogonek" unicode="&#x119;" horiz-adv-x="1071" 
d="M498 -21q-232 0 -351 150.5t-83 380.5l6 40q37 252 190.5 402.5t386.5 149.5q210 0 310.5 -135t66.5 -358l-22 -151h-646l-2 -5q-12 -115 38 -182.5t170 -67.5q94 0 169 20.5t152 60.5l52 -180q-74 -53 -190 -89t-247 -36zM614 877q-84 0 -141.5 -61t-83.5 -159l2 -6h354
l3 22q15 98 -15.5 151t-118.5 53zM802 42q-61 -52 -92 -89.5t-38 -86.5q-5 -28 8.5 -49t66.5 -21q27 0 50.5 6t46.5 14l12 -154q-38 -19 -85 -31.5t-108 -12.5q-104 0 -167 57t-48 157q13 80 68.5 147.5t162.5 122.5z" />
    <glyph glyph-name="Ecaron" unicode="&#x11a;" horiz-adv-x="1139" 
d="M982 640h-540l-63 -416h643l-34 -224h-934l218 1456h932l-33 -225h-641l-55 -366h541zM782 1746l136 127h264l-3 -17l-319 -255h-199l-243 256l3 16h264z" />
    <glyph glyph-name="ecaron" unicode="&#x11b;" horiz-adv-x="1071" 
d="M498 -21q-232 0 -351 150.5t-83 380.5l6 40q37 252 190.5 402.5t386.5 149.5q210 0 310.5 -135t66.5 -358l-22 -151h-646l-2 -5q-12 -115 38 -182.5t170 -67.5q94 0 169 20.5t152 60.5l52 -180q-74 -53 -190 -89t-247 -36zM614 877q-84 0 -141.5 -61t-83.5 -159l2 -6h354
l3 22q15 98 -15.5 151t-118.5 53zM672 1425l136 127h264l-3 -17l-319 -255h-199l-243 256l3 16h264z" />
    <glyph glyph-name="Gcircumflex" unicode="&#x11c;" horiz-adv-x="1364" 
d="M1200 199q-82 -89 -226.5 -154.5t-357.5 -65.5q-254 0 -402.5 168t-108.5 429l46 304q41 274 227 435.5t445 161.5q256 0 384 -128t92 -336l-2 -6h-276q18 120 -39 182.5t-186 62.5t-229.5 -104.5t-124.5 -265.5l-46 -306q-26 -172 42 -272.5t211 -100.5q99 0 166.5 21.5
t103.5 52.5l42 282h-280l30 202h573zM1211 1636l-3 -23h-232l-120 133l-159 -133h-227l4 26l318 240h169z" />
    <glyph glyph-name="gcircumflex" unicode="&#x11d;" 
d="M69 532q39 266 172 418t336 152q88 0 151 -43t102 -121l45 144h251l-161 -1077q-34 -219 -187 -330.5t-403 -111.5q-79 0 -169 23t-162 61l82 218q62 -32 131 -48.5t152 -16.5q115 0 181.5 50.5t82.5 155.5l14 98q-58 -62 -127 -93.5t-153 -31.5q-191 0 -284 148t-57 384
zM358 511q-23 -147 12.5 -226t144.5 -79q65 0 115.5 25.5t87.5 73.5l70 465q-21 51 -63.5 78t-107.5 27q-102 0 -168 -96.5t-88 -246.5zM1043 1293l-3 -23h-232l-120 133l-159 -133h-227l4 26l318 240h169z" />
    <glyph glyph-name="Gbreve" unicode="&#x11e;" horiz-adv-x="1364" 
d="M1200 199q-82 -89 -226.5 -154.5t-357.5 -65.5q-254 0 -402.5 168t-108.5 429l46 304q41 274 227 435.5t445 161.5q256 0 384 -128t92 -336l-2 -6h-276q18 120 -39 182.5t-186 62.5t-229.5 -104.5t-124.5 -265.5l-46 -306q-26 -172 42 -272.5t211 -100.5q99 0 166.5 21.5
t103.5 52.5l42 282h-280l30 202h573zM1211 1917l1 -6q-14 -132 -117.5 -210t-262.5 -78q-153 0 -238.5 81t-62.5 207l2 6h214q-9 -55 17 -88t92 -33q61 0 97 34.5t44 86.5h214z" />
    <glyph glyph-name="gbreve" unicode="&#x11f;" 
d="M69 532q39 266 172 418t336 152q88 0 151 -43t102 -121l45 144h251l-161 -1077q-34 -219 -187 -330.5t-403 -111.5q-79 0 -169 23t-162 61l82 218q62 -32 131 -48.5t152 -16.5q115 0 181.5 50.5t82.5 155.5l14 98q-58 -62 -127 -93.5t-153 -31.5q-191 0 -284 148t-57 384
zM358 511q-23 -147 12.5 -226t144.5 -79q65 0 115.5 25.5t87.5 73.5l70 465q-21 51 -63.5 78t-107.5 27q-102 0 -168 -96.5t-88 -246.5zM1043 1574l1 -6q-14 -132 -117.5 -210t-262.5 -78q-153 0 -238.5 81t-62.5 207l2 6h214q-9 -55 17 -88t92 -33q61 0 97 34.5t44 86.5
h214z" />
    <glyph glyph-name="uni0120" unicode="&#x120;" horiz-adv-x="1364" 
d="M1200 199q-82 -89 -226.5 -154.5t-357.5 -65.5q-254 0 -402.5 168t-108.5 429l46 304q41 274 227 435.5t445 161.5q256 0 384 -128t92 -336l-2 -6h-276q18 120 -39 182.5t-186 62.5t-229.5 -104.5t-124.5 -265.5l-46 -306q-26 -172 42 -272.5t211 -100.5q99 0 166.5 21.5
t103.5 52.5l42 282h-280l30 202h573zM1001 1622h-327l36 241h327z" />
    <glyph glyph-name="uni0121" unicode="&#x121;" 
d="M69 532q39 266 172 418t336 152q88 0 151 -43t102 -121l45 144h251l-161 -1077q-34 -219 -187 -330.5t-403 -111.5q-79 0 -169 23t-162 61l82 218q62 -32 131 -48.5t152 -16.5q115 0 181.5 50.5t82.5 155.5l14 98q-58 -62 -127 -93.5t-153 -31.5q-191 0 -284 148t-57 384
zM358 511q-23 -147 12.5 -226t144.5 -79q65 0 115.5 25.5t87.5 73.5l70 465q-21 51 -63.5 78t-107.5 27q-102 0 -168 -96.5t-88 -246.5zM833 1279h-327l36 241h327z" />
    <glyph glyph-name="Gcommaaccent" unicode="&#x122;" horiz-adv-x="1364" 
d="M1200 199q-82 -89 -226.5 -154.5t-357.5 -65.5q-254 0 -402.5 168t-108.5 429l46 304q41 274 227 435.5t445 161.5q256 0 384 -128t92 -336l-2 -6h-276q18 120 -39 182.5t-186 62.5t-229.5 -104.5t-124.5 -265.5l-46 -306q-26 -172 42 -272.5t211 -100.5q99 0 166.5 21.5
t103.5 52.5l42 282h-280l30 202h573zM658 -267l-165 -235h-122l98 245l23 151h190z" />
    <glyph glyph-name="gcommaaccent" unicode="&#x123;" 
d="M69 532q39 266 172 418t336 152q88 0 151 -43t102 -121l45 144h251l-161 -1077q-34 -219 -187 -330.5t-403 -111.5q-79 0 -169 23t-162 61l82 218q62 -32 131 -48.5t152 -16.5q115 0 181.5 50.5t82.5 155.5l14 98q-58 -62 -127 -93.5t-153 -31.5q-191 0 -284 148t-57 384
zM358 511q-23 -147 12.5 -226t144.5 -79q65 0 115.5 25.5t87.5 73.5l70 465q-21 51 -63.5 78t-107.5 27q-102 0 -168 -96.5t-88 -246.5zM567 1433l154 260h159l-76 -270l-24 -165h-239z" />
    <glyph glyph-name="Hcircumflex" unicode="&#x124;" horiz-adv-x="1445" 
d="M1231 0h-292l90 605h-593l-90 -605h-292l218 1456h292l-94 -626h593l94 626h292zM1254 1615l-3 -23h-232l-120 133l-159 -133h-227l4 26l318 240h169z" />
    <glyph glyph-name="hcircumflex" unicode="&#x125;" 
d="M459 951q63 72 142.5 111.5t169.5 39.5q163 0 245.5 -113.5t47.5 -346.5l-96 -642h-292l97 644q19 131 -13.5 181t-114.5 50q-66 0 -118.5 -23t-91.5 -65l-118 -787h-292l234 1560h292zM1052 1616l-3 -23h-232l-120 133l-159 -133h-227l4 26l318 240h169z" />
    <glyph glyph-name="Hbar" unicode="&#x126;" horiz-adv-x="1445" 
d="M1418 1199h120l-26 -171h-119l-154 -1028h-292l90 605h-593l-90 -605h-292l154 1028h-126l26 171h125l39 257h292l-39 -257h593l39 257h292zM478 830h593l29 198h-592z" />
    <glyph glyph-name="hbar" unicode="&#x127;" 
d="M761 1217h-262l-40 -266q63 72 142.5 111.5t169.5 39.5q163 0 245.5 -113.5t47.5 -346.5l-96 -642h-292l97 644q19 131 -13.5 181t-114.5 50q-66 0 -118.5 -23t-91.5 -65l-118 -787h-292l182 1217h-117l27 181h117l25 162h292l-25 -162h262z" />
    <glyph glyph-name="Itilde" unicode="&#x128;" horiz-adv-x="601" 
d="M366 0h-292l218 1456h292zM864 1856q-14 -99 -82.5 -165t-160.5 -66q-66 0 -150 43.5t-136 43.5q-35 0 -64.5 -32.5t-35.5 -77.5l-150 42q13 97 82 165t160 68q53 0 144 -43.5t144 -43.5q33 0 63.5 32.5t37.5 78.5z" />
    <glyph glyph-name="itilde" unicode="&#x129;" horiz-adv-x="562" 
d="M345 0h-292l162 1082h292zM792 1513q-14 -99 -82.5 -165t-160.5 -66q-66 0 -150 43.5t-136 43.5q-35 0 -64.5 -32.5t-35.5 -77.5l-150 42q13 97 82 165t160 68q53 0 144 -43.5t144 -43.5q33 0 63.5 32.5t37.5 78.5z" />
    <glyph glyph-name="Imacron" unicode="&#x12a;" horiz-adv-x="601" 
d="M366 0h-292l218 1456h292zM822 1613h-731l23 165h731z" />
    <glyph glyph-name="imacron" unicode="&#x12b;" horiz-adv-x="562" 
d="M345 0h-292l162 1082h292zM751 1271h-731l23 165h731z" />
    <glyph glyph-name="Ibreve" unicode="&#x12c;" horiz-adv-x="601" 
d="M366 0h-292l218 1456h292zM835 1896l1 -6q-14 -132 -117.5 -210t-262.5 -78q-153 0 -238.5 81t-62.5 207l2 6h214q-9 -55 17 -88t92 -33q61 0 97 34.5t44 86.5h214z" />
    <glyph glyph-name="ibreve" unicode="&#x12d;" horiz-adv-x="562" 
d="M345 0h-292l162 1082h292zM764 1553l1 -6q-14 -132 -117.5 -210t-262.5 -78q-153 0 -238.5 81t-62.5 207l2 6h214q-9 -55 17 -88t92 -33q61 0 97 34.5t44 86.5h214z" />
    <glyph glyph-name="Iogonek" unicode="&#x12e;" horiz-adv-x="601" 
d="M366 0h-292l218 1456h292zM282 0q-61 -52 -92 -89.5t-38 -86.5q-5 -28 8.5 -49t66.5 -21q27 0 50.5 6t46.5 14l12 -154q-38 -19 -85 -31.5t-108 -12.5q-104 0 -167 57t-48 157q13 80 68.5 147.5t162.5 122.5z" />
    <glyph glyph-name="iogonek" unicode="&#x12f;" horiz-adv-x="547" 
d="M339 0h-292l162 1082h292zM540 1341h-292l33 219h292zM255 0q-61 -52 -92 -89.5t-38 -86.5q-5 -28 8.5 -49t66.5 -21q27 0 50.5 6t46.5 14l12 -154q-38 -19 -85 -31.5t-108 -12.5q-104 0 -167 57t-48 157q13 80 68.5 147.5t162.5 122.5z" />
    <glyph glyph-name="Idotaccent" unicode="&#x130;" horiz-adv-x="601" 
d="M366 0h-292l218 1456h292zM624 1601h-327l36 241h327z" />
    <glyph glyph-name="dotlessi" unicode="&#x131;" horiz-adv-x="562" 
d="M345 0h-292l162 1082h292z" />
    <glyph glyph-name="IJ" unicode="&#x132;" horiz-adv-x="1738" 
d="M366 0h-292l218 1456h292zM1453 1456h291l-150 -1005q-34 -225 -183.5 -348.5t-360.5 -123.5q-223 0 -344 115t-85 330l3 6h284q-19 -121 29 -174t146 -53q77 0 139.5 67t80.5 181z" />
    <glyph glyph-name="ij" unicode="&#x133;" horiz-adv-x="1090" 
d="M339 0h-292l162 1082h292zM540 1341h-292l33 219h292zM1056 1082l-168 -1122q-30 -198 -145 -297.5t-297 -99.5q-38 0 -71.5 4t-68.5 13l47 223q22 -6 45 -9t49 -3q58 0 96 41.5t52 127.5l168 1122h293zM1089 1343h-293l33 217h293z" />
    <glyph glyph-name="Jcircumflex" unicode="&#x134;" horiz-adv-x="1137" 
d="M852 1456h291l-150 -1005q-34 -225 -183.5 -348.5t-360.5 -123.5q-223 0 -344 115t-85 330l3 6h284q-19 -121 29 -174t146 -53q77 0 139.5 67t80.5 181zM1375 1611l-3 -23h-232l-120 133l-159 -133h-227l4 26l318 240h169z" />
    <glyph glyph-name="jcircumflex" unicode="&#x135;" horiz-adv-x="578" 
d="M523 1082l-168 -1122q-30 -198 -144.5 -297.5t-296.5 -99.5q-38 0 -71.5 4t-69.5 13l48 221q22 -6 46.5 -9.5t49.5 -3.5q56 0 95 45t52 127l168 1122h291zM756 1265l-3 -23h-232l-120 133l-159 -133h-227l4 26l318 240h169z" />
    <glyph glyph-name="Kcommaaccent" unicode="&#x136;" horiz-adv-x="1305" 
d="M536 604h-104l-90 -604h-293l218 1456h293l-89 -595h102l411 595h381l-570 -727l372 -729h-336zM614 -255l-165 -235h-122l98 245l23 151h190z" />
    <glyph glyph-name="kcommaaccent" unicode="&#x137;" horiz-adv-x="1097" 
d="M466 453h-74l-68 -453h-292l234 1560h292l-133 -885h65l320 407h331l2 -5l-421 -488l312 -589h-336zM536 -254l-165 -235h-122l98 245l23 151h190z" />
    <glyph glyph-name="kgreenlandic" unicode="&#x138;" horiz-adv-x="1210" 
d="M517 405h-116l-60 -405h-292l162 1082h292l-62 -412h88l340 412h361l2 -5l-455 -502l315 -575h-374z" />
    <glyph glyph-name="Lacute" unicode="&#x139;" horiz-adv-x="1138" 
d="M379 224h653l-34 -224h-944l218 1456h292zM527 1843h324l2 -6l-314 -260h-242l-2 5z" />
    <glyph glyph-name="lacute" unicode="&#x13a;" horiz-adv-x="547" 
d="M339 0h-292l234 1560h292zM525 1894h324l2 -6l-314 -260h-242l-2 5z" />
    <glyph glyph-name="Lcommaaccent" unicode="&#x13b;" horiz-adv-x="1138" 
d="M379 224h653l-34 -224h-944l218 1456h292zM575 -254l-165 -235h-122l98 245l23 151h190z" />
    <glyph glyph-name="lcommaaccent" unicode="&#x13c;" horiz-adv-x="547" 
d="M339 0h-292l234 1560h292zM244 -254l-165 -235h-122l98 245l23 151h190z" />
    <glyph glyph-name="Lcaron" unicode="&#x13d;" horiz-adv-x="1138" 
d="M379 224h653l-34 -224h-944l218 1456h292zM979 1297l-165 -235h-122l98 245l23 151h190z" />
    <glyph glyph-name="lcaron" unicode="&#x13e;" horiz-adv-x="547" 
d="M339 0h-292l234 1560h292zM892 1398l-165 -235h-122l98 245l23 151h190z" />
    <glyph glyph-name="Ldot" unicode="&#x13f;" horiz-adv-x="1138" 
d="M379 224h653l-34 -224h-944l218 1456h292zM947 680h-327l36 241h327z" />
    <glyph glyph-name="ldot" unicode="&#x140;" horiz-adv-x="547" 
d="M339 0h-292l234 1560h292zM734 628h-327l36 241h327z" />
    <glyph glyph-name="Lslash" unicode="&#x141;" horiz-adv-x="1040" 
d="M471 884l254 70l-29 -195l-254 -70l-70 -465h653l-34 -224h-944l90 605l-119 -33l29 195l119 33l99 656h292z" />
    <glyph glyph-name="lslash" unicode="&#x142;" horiz-adv-x="594" 
d="M495 907l148 47l-29 -195l-148 -47l-107 -712h-292l92 615l-138 -43l29 195l139 44l112 749h292z" />
    <glyph glyph-name="Nacute" unicode="&#x143;" horiz-adv-x="1445" 
d="M1231 0h-292l-441 982l-6 -1l-146 -981h-292l218 1456h292l440 -981l6 1l147 980h292zM970 1866h324l2 -6l-314 -260h-242l-2 5z" />
    <glyph glyph-name="nacute" unicode="&#x144;" 
d="M452 933q65 81 151 125t184 44q158 0 237 -107t45 -332l-99 -663h-293l99 662q18 120 -14.5 166.5t-115.5 46.5q-64 0 -117.5 -25.5t-92.5 -70.5l-117 -779h-292l162 1082h272zM777 1544h324l2 -6l-314 -260h-242l-2 5z" />
    <glyph glyph-name="Ncommaaccent" unicode="&#x145;" horiz-adv-x="1445" 
d="M1231 0h-292l-441 982l-6 -1l-146 -981h-292l218 1456h292l440 -981l6 1l147 980h292zM692 -254l-165 -235h-122l98 245l23 151h190z" />
    <glyph glyph-name="ncommaaccent" unicode="&#x146;" 
d="M452 933q65 81 151 125t184 44q158 0 237 -107t45 -332l-99 -663h-293l99 662q18 120 -14.5 166.5t-115.5 46.5q-64 0 -117.5 -25.5t-92.5 -70.5l-117 -779h-292l162 1082h272zM547 -254l-165 -235h-122l98 245l23 151h190z" />
    <glyph glyph-name="Ncaron" unicode="&#x147;" horiz-adv-x="1445" 
d="M1231 0h-292l-441 982l-6 -1l-146 -981h-292l218 1456h292l440 -981l6 1l147 980h292zM903 1746l136 127h264l-3 -17l-319 -255h-199l-243 256l3 16h264z" />
    <glyph glyph-name="ncaron" unicode="&#x148;" 
d="M452 933q65 81 151 125t184 44q158 0 237 -107t45 -332l-99 -663h-293l99 662q18 120 -14.5 166.5t-115.5 46.5q-64 0 -117.5 -25.5t-92.5 -70.5l-117 -779h-292l162 1082h272zM710 1424l136 127h264l-3 -17l-319 -255h-199l-243 256l3 16h264z" />
    <glyph glyph-name="napostrophe" unicode="&#x149;" 
d="M452 933q65 81 151 125t184 44q158 0 237 -107t45 -332l-99 -663h-293l99 662q18 120 -14.5 166.5t-115.5 46.5q-64 0 -117.5 -25.5t-92.5 -70.5l-117 -779h-292l162 1082h272zM353 1398l-165 -235h-122l98 245l23 151h190z" />
    <glyph glyph-name="Eng" unicode="&#x14a;" horiz-adv-x="1438" 
d="M1446 1456l-224 -1496q-30 -198 -144.5 -297.5t-296.5 -99.5q-39 0 -73 4t-69 13l47 221q22 -6 46.5 -9.5t51.5 -3.5q55 0 94.5 45t52.5 127l6 40l-441 982l-6 -1l-146 -981h-293l218 1456h293l440 -981l6 1l147 980h291z" />
    <glyph glyph-name="eng" unicode="&#x14b;" 
d="M452 936q65 79 150 122.5t183 43.5q158 0 237 -107t45 -332l-105 -703q-30 -198 -145 -297.5t-297 -99.5q-39 0 -72.5 4t-68.5 13l48 224q20 -5 44.5 -8.5t52.5 -3.5q55 0 93.5 43.5t51.5 124.5l105 702q18 120 -14.5 166.5t-115.5 46.5q-63 0 -116 -24.5t-92 -68.5
l-117 -782h-292l162 1082h272z" />
    <glyph glyph-name="Omacron" unicode="&#x14c;" horiz-adv-x="1409" 
d="M1322 597q-43 -279 -235.5 -448.5t-466.5 -169.5q-259 0 -406 176.5t-107 441.5l39 262q41 277 232.5 447.5t464.5 170.5q261 0 409 -177.5t109 -440.5zM1070 861q26 176 -42.5 282t-219.5 106q-143 0 -244.5 -110t-126.5 -278l-39 -264q-27 -179 39 -285t217 -106
q144 0 247 110t130 281zM1229 1634h-731l23 165h731z" />
    <glyph glyph-name="omacron" unicode="&#x14d;" 
d="M70 551q37 251 193.5 401t397.5 150q231 0 348 -156t82 -395l-3 -21q-39 -253 -195 -402t-398 -149q-231 0 -348 155.5t-80 395.5zM358 530q-24 -153 15 -240t155 -87q108 0 177 91t91 236l3 21q21 149 -17.5 237.5t-153.5 88.5q-109 0 -178 -92.5t-89 -233.5zM1050 1292
h-731l23 165h731z" />
    <glyph glyph-name="Obreve" unicode="&#x14e;" horiz-adv-x="1409" 
d="M1322 597q-43 -279 -235.5 -448.5t-466.5 -169.5q-259 0 -406 176.5t-107 441.5l39 262q41 277 232.5 447.5t464.5 170.5q261 0 409 -177.5t109 -440.5zM1070 861q26 176 -42.5 282t-219.5 106q-143 0 -244.5 -110t-126.5 -278l-39 -264q-27 -179 39 -285t217 -106
q144 0 247 110t130 281zM1242 1917l1 -6q-14 -132 -117.5 -210t-262.5 -78q-153 0 -238.5 81t-62.5 207l2 6h214q-9 -55 17 -88t92 -33q61 0 97 34.5t44 86.5h214z" />
    <glyph glyph-name="obreve" unicode="&#x14f;" 
d="M70 551q37 251 193.5 401t397.5 150q231 0 348 -156t82 -395l-3 -21q-39 -253 -195 -402t-398 -149q-231 0 -348 155.5t-80 395.5zM358 530q-24 -153 15 -240t155 -87q108 0 177 91t91 236l3 21q21 149 -17.5 237.5t-153.5 88.5q-109 0 -178 -92.5t-89 -233.5zM1063 1574
l1 -6q-14 -132 -117.5 -210t-262.5 -78q-153 0 -238.5 81t-62.5 207l2 6h214q-9 -55 17 -88t92 -33q61 0 97 34.5t44 86.5h214z" />
    <glyph glyph-name="Ohungarumlaut" unicode="&#x150;" horiz-adv-x="1409" 
d="M1322 597q-43 -279 -235.5 -448.5t-466.5 -169.5q-259 0 -406 176.5t-107 441.5l39 262q41 277 232.5 447.5t464.5 170.5q261 0 409 -177.5t109 -440.5zM1070 861q26 176 -42.5 282t-219.5 106q-143 0 -244.5 -110t-126.5 -278l-39 -264q-27 -179 39 -285t217 -106
q144 0 247 110t130 281zM1186 1888h278l2 -6l-324 -260h-233l-2 6zM798 1888h274l2 -6l-279 -260h-228l-2 5z" />
    <glyph glyph-name="ohungarumlaut" unicode="&#x151;" 
d="M70 551q37 251 193.5 401t397.5 150q231 0 348 -156t82 -395l-3 -21q-39 -253 -195 -402t-398 -149q-231 0 -348 155.5t-80 395.5zM358 530q-24 -153 15 -240t155 -87q108 0 177 91t91 236l3 21q21 149 -17.5 237.5t-153.5 88.5q-109 0 -178 -92.5t-89 -233.5zM1006 1545
h278l2 -6l-324 -260h-233l-2 6zM618 1545h274l2 -6l-279 -260h-228l-2 5z" />
    <glyph glyph-name="OE" unicode="&#x152;" horiz-adv-x="1984" 
d="M1723 0h-812q-92 -10 -158 -15.5t-133 -5.5q-260 0 -408.5 167.5t-108.5 429.5l46 304q41 275 231 436t463 161q66 0 138.5 -6t147.5 -15h810l-33 -225h-641l-55 -366h541l-34 -225h-540l-63 -416h643zM654 204q39 0 81 2.5t86 7.5l154 1028q-43 4 -84 7t-82 3
q-142 0 -242.5 -95.5t-126.5 -274.5l-46 -306q-28 -189 41 -280.5t219 -91.5z" />
    <glyph glyph-name="oe" unicode="&#x153;" horiz-adv-x="1848" 
d="M1278 -21q-123 0 -216 44t-149 125q-78 -82 -184 -125.5t-234 -43.5q-231 0 -348 155.5t-80 395.5l3 21q37 251 193.5 401t397.5 150q119 0 210.5 -45t148.5 -126q76 83 179 127t228 44q210 0 310.5 -135t66.5 -358l-22 -151h-646l-2 -5q-12 -115 38 -182.5t170 -67.5
q94 0 169 20.5t152 60.5l52 -180q-74 -53 -190 -89t-247 -36zM358 530q-24 -153 15 -240t155 -87q108 0 177 91t91 236l3 21q21 149 -17.5 237.5t-153.5 88.5q-109 0 -178 -92.5t-89 -233.5zM1394 877q-84 0 -141.5 -61t-83.5 -159l2 -6h354l3 22q15 98 -15.5 151t-118.5 53
z" />
    <glyph glyph-name="Racute" unicode="&#x154;" horiz-adv-x="1305" 
d="M433 582l-87 -582h-292l218 1456h504q239 0 367.5 -114.5t98.5 -315.5q-18 -118 -89 -198t-195 -129q120 -40 165.5 -129t26.5 -216l-16 -107q-9 -63 -2.5 -128.5t41.5 -97.5l-3 -21h-301q-34 32 -35 104.5t9 144.5l16 103q17 113 -33 171.5t-161 58.5h-232zM467 807h207
q118 0 188 52.5t86 153.5q15 103 -36 160.5t-169 57.5h-212zM876 1866h324l2 -6l-314 -260h-242l-2 5z" />
    <glyph glyph-name="racute" unicode="&#x155;" horiz-adv-x="721" 
d="M726 831l-107 3q-63 0 -110 -28.5t-78 -80.5l-108 -725h-291l162 1082h271l-10 -155q50 84 117 129.5t147 45.5q21 0 40.5 -3.5t36.5 -8.5zM612 1544h324l2 -6l-314 -260h-242l-2 5z" />
    <glyph glyph-name="Rcommaaccent" unicode="&#x156;" horiz-adv-x="1305" 
d="M433 582l-87 -582h-292l218 1456h504q239 0 367.5 -114.5t98.5 -315.5q-18 -118 -89 -198t-195 -129q120 -40 165.5 -129t26.5 -216l-16 -107q-9 -63 -2.5 -128.5t41.5 -97.5l-3 -21h-301q-34 32 -35 104.5t9 144.5l16 103q17 113 -33 171.5t-161 58.5h-232zM467 807h207
q118 0 188 52.5t86 153.5q15 103 -36 160.5t-169 57.5h-212zM598 -254l-165 -235h-122l98 245l23 151h190z" />
    <glyph glyph-name="rcommaaccent" unicode="&#x157;" horiz-adv-x="721" 
d="M726 831l-107 3q-63 0 -110 -28.5t-78 -80.5l-108 -725h-291l162 1082h271l-10 -155q50 84 117 129.5t147 45.5q21 0 40.5 -3.5t36.5 -8.5zM242 -254l-165 -235h-122l98 245l23 151h190z" />
    <glyph glyph-name="Rcaron" unicode="&#x158;" horiz-adv-x="1305" 
d="M433 582l-87 -582h-292l218 1456h504q239 0 367.5 -114.5t98.5 -315.5q-18 -118 -89 -198t-195 -129q120 -40 165.5 -129t26.5 -216l-16 -107q-9 -63 -2.5 -128.5t41.5 -97.5l-3 -21h-301q-34 32 -35 104.5t9 144.5l16 103q17 113 -33 171.5t-161 58.5h-232zM467 807h207
q118 0 188 52.5t86 153.5q15 103 -36 160.5t-169 57.5h-212zM809 1746l136 127h264l-3 -17l-319 -255h-199l-243 256l3 16h264z" />
    <glyph glyph-name="rcaron" unicode="&#x159;" horiz-adv-x="721" 
d="M726 831l-107 3q-63 0 -110 -28.5t-78 -80.5l-108 -725h-291l162 1082h271l-10 -155q50 84 117 129.5t147 45.5q21 0 40.5 -3.5t36.5 -8.5zM546 1424l136 127h264l-3 -17l-319 -255h-199l-243 256l3 16h264z" />
    <glyph glyph-name="Sacute" unicode="&#x15a;" horiz-adv-x="1266" 
d="M892 353q14 96 -43 148.5t-216 109.5q-250 79 -370.5 192t-92.5 297q26 176 180 276.5t374 100.5q244 0 382 -119t102 -327l-2 -6h-283q14 101 -50.5 164t-182.5 63q-87 0 -152.5 -43t-74.5 -107q-14 -94 45 -142t247 -112q236 -77 346.5 -189.5t82.5 -303.5
q-28 -184 -181 -280t-380 -96q-238 0 -402 108.5t-124 337.5l2 6h283q-19 -125 65.5 -176.5t208.5 -51.5q88 0 157 42.5t79 107.5zM883 1887h324l2 -6l-314 -260h-242l-2 5z" />
    <glyph glyph-name="sacute" unicode="&#x15b;" horiz-adv-x="1056" 
d="M664 300q7 50 -34.5 83t-164.5 60q-184 38 -272 115t-70 209q20 144 150.5 239.5t328.5 95.5q197 0 310.5 -99t88.5 -243l-2 -6h-282q9 67 -27 107t-116 40q-67 0 -114.5 -35t-54.5 -86q-7 -52 30.5 -82t165.5 -56q193 -40 279.5 -117.5t68.5 -213.5
q-22 -152 -158.5 -242t-343.5 -90q-208 0 -322 111t-89 248l3 6h267q-9 -87 39.5 -126t135.5 -39q77 0 126 33t57 88zM720 1544h324l2 -6l-314 -260h-242l-2 5z" />
    <glyph glyph-name="Scircumflex" unicode="&#x15c;" horiz-adv-x="1266" 
d="M892 353q14 96 -43 148.5t-216 109.5q-250 79 -370.5 192t-92.5 297q26 176 180 276.5t374 100.5q244 0 382 -119t102 -327l-2 -6h-283q14 101 -50.5 164t-182.5 63q-87 0 -152.5 -43t-74.5 -107q-14 -94 45 -142t247 -112q236 -77 346.5 -189.5t82.5 -303.5
q-28 -184 -181 -280t-380 -96q-238 0 -402 108.5t-124 337.5l2 6h283q-19 -125 65.5 -176.5t208.5 -51.5q88 0 157 42.5t79 107.5zM1169 1636l-3 -23h-232l-120 133l-159 -133h-227l4 26l318 240h169z" />
    <glyph glyph-name="scircumflex" unicode="&#x15d;" horiz-adv-x="1056" 
d="M664 300q7 50 -34.5 83t-164.5 60q-184 38 -272 115t-70 209q20 144 150.5 239.5t328.5 95.5q197 0 310.5 -99t88.5 -243l-2 -6h-282q9 67 -27 107t-116 40q-67 0 -114.5 -35t-54.5 -86q-7 -52 30.5 -82t165.5 -56q193 -40 279.5 -117.5t68.5 -213.5
q-22 -152 -158.5 -242t-343.5 -90q-208 0 -322 111t-89 248l3 6h267q-9 -87 39.5 -126t135.5 -39q77 0 126 33t57 88zM1006 1293l-3 -23h-232l-120 133l-159 -133h-227l4 26l318 240h169z" />
    <glyph glyph-name="Scedilla" unicode="&#x15e;" horiz-adv-x="1266" 
d="M892 353q14 96 -43 148.5t-216 109.5q-250 79 -370.5 192t-92.5 297q26 176 180 276.5t374 100.5q244 0 382 -119t102 -327l-2 -6h-283q14 101 -50.5 164t-182.5 63q-87 0 -152.5 -43t-74.5 -107q-14 -94 45 -142t247 -112q236 -77 346.5 -189.5t82.5 -303.5
q-28 -184 -181 -280t-380 -96q-238 0 -402 108.5t-124 337.5l2 6h283q-19 -125 65.5 -176.5t208.5 -51.5q88 0 157 42.5t79 107.5zM665 -3l-20 -57q62 -11 99 -52t25 -121q-17 -111 -116.5 -173t-269.5 -62l17 161q49 0 83 20.5t41 62.5q6 43 -22.5 58.5t-107.5 20.5l52 142
h219z" />
    <glyph glyph-name="scedilla" unicode="&#x15f;" horiz-adv-x="1056" 
d="M664 300q7 50 -34.5 83t-164.5 60q-184 38 -272 115t-70 209q20 144 150.5 239.5t328.5 95.5q197 0 310.5 -99t88.5 -243l-2 -6h-282q9 67 -27 107t-116 40q-67 0 -114.5 -35t-54.5 -86q-7 -52 30.5 -82t165.5 -56q193 -40 279.5 -117.5t68.5 -213.5
q-22 -152 -158.5 -242t-343.5 -90q-208 0 -322 111t-89 248l3 6h267q-9 -87 39.5 -126t135.5 -39q77 0 126 33t57 88zM553 -3l-20 -57q62 -11 99 -52t25 -121q-17 -111 -116.5 -173t-269.5 -62l17 161q49 0 83 20.5t41 62.5q6 43 -22.5 58.5t-107.5 20.5l52 142h219z" />
    <glyph glyph-name="Scaron" unicode="&#x160;" horiz-adv-x="1266" 
d="M892 353q14 96 -43 148.5t-216 109.5q-250 79 -370.5 192t-92.5 297q26 176 180 276.5t374 100.5q244 0 382 -119t102 -327l-2 -6h-283q14 101 -50.5 164t-182.5 63q-87 0 -152.5 -43t-74.5 -107q-14 -94 45 -142t247 -112q236 -77 346.5 -189.5t82.5 -303.5
q-28 -184 -181 -280t-380 -96q-238 0 -402 108.5t-124 337.5l2 6h283q-19 -125 65.5 -176.5t208.5 -51.5q88 0 157 42.5t79 107.5zM817 1767l136 127h264l-3 -17l-319 -255h-199l-243 256l3 16h264z" />
    <glyph glyph-name="scaron" unicode="&#x161;" horiz-adv-x="1056" 
d="M664 300q7 50 -34.5 83t-164.5 60q-184 38 -272 115t-70 209q20 144 150.5 239.5t328.5 95.5q197 0 310.5 -99t88.5 -243l-2 -6h-282q9 67 -27 107t-116 40q-67 0 -114.5 -35t-54.5 -86q-7 -52 30.5 -82t165.5 -56q193 -40 279.5 -117.5t68.5 -213.5
q-22 -152 -158.5 -242t-343.5 -90q-208 0 -322 111t-89 248l3 6h267q-9 -87 39.5 -126t135.5 -39q77 0 126 33t57 88zM653 1424l136 127h264l-3 -17l-319 -255h-199l-243 256l3 16h264z" />
    <glyph glyph-name="Tcommaaccent" unicode="&#x162;" horiz-adv-x="1175" 
d="M1254 1231h-417l-184 -1231h-292l184 1231h-409l33 225h1118zM559 -254l-165 -235h-122l98 245l23 151h190z" />
    <glyph glyph-name="tcommaaccent" unicode="&#x163;" horiz-adv-x="713" 
d="M584 1347l-40 -265h183l-30 -205h-184l-82 -551q-10 -66 12 -91.5t66 -25.5q22 0 40.5 2.5t40.5 8.5l-8 -211q-46 -15 -88.5 -22.5t-91.5 -7.5q-146 0 -217.5 84t-44.5 262l82 552h-157l30 205h158l40 265h291zM404 -264l-165 -235h-122l98 245l23 151h190z" />
    <glyph glyph-name="Tcaron" unicode="&#x164;" horiz-adv-x="1175" 
d="M1254 1231h-417l-184 -1231h-292l184 1231h-409l33 225h1118zM770 1746l136 127h264l-3 -17l-319 -255h-199l-243 256l3 16h264z" />
    <glyph glyph-name="tcaron" unicode="&#x165;" horiz-adv-x="713" 
d="M584 1347l-40 -265h183l-30 -205h-184l-82 -551q-10 -66 12 -91.5t66 -25.5q22 0 40.5 2.5t40.5 8.5l-8 -211q-46 -15 -88.5 -22.5t-91.5 -7.5q-146 0 -217.5 84t-44.5 262l82 552h-157l30 205h158l40 265h291zM973 1428l-165 -235h-122l98 245l23 151h190z" />
    <glyph glyph-name="Tbar" unicode="&#x166;" horiz-adv-x="1175" 
d="M964 757h-198l-113 -757h-292l113 757h-181l27 181h181l44 293h-409l33 225h1118l-33 -225h-417l-44 -293h198z" />
    <glyph glyph-name="tbar" unicode="&#x167;" horiz-adv-x="713" 
d="M584 1347l-40 -265h183l-30 -205h-184l-23 -157h199l-27 -181h-199l-32 -213q-10 -66 12 -91.5t66 -25.5q22 0 40.5 2.5t40.5 8.5l-8 -211q-46 -15 -88.5 -22.5t-91.5 -7.5q-146 0 -217.5 84t-44.5 262l32 214h-181l27 181h181l23 157h-157l30 205h158l40 265h291z" />
    <glyph glyph-name="Utilde" unicode="&#x168;" horiz-adv-x="1407" 
d="M1426 1456l-143 -953q-38 -256 -219 -390t-445 -134q-249 0 -395 140.5t-109 383.5l143 953h293l-143 -953q-23 -151 43 -225.5t201 -74.5q130 0 223 78t115 222l143 953h293zM1267 1856q-14 -99 -82.5 -165t-160.5 -66q-66 0 -150 43.5t-136 43.5q-35 0 -64.5 -32.5
t-35.5 -77.5l-150 42q13 97 82 165t160 68q53 0 144 -43.5t144 -43.5q33 0 63.5 32.5t37.5 78.5z" />
    <glyph glyph-name="utilde" unicode="&#x169;" 
d="M719 155q-62 -86 -146 -131t-187 -45q-165 0 -247 117t-46 359l94 627h291l-94 -629q-22 -147 8.5 -197t112.5 -50q68 0 122.5 24t93.5 69l117 783h292l-162 -1082h-242zM1087 1513q-14 -99 -82.5 -165t-160.5 -66q-66 0 -150 43.5t-136 43.5q-35 0 -64.5 -32.5
t-35.5 -77.5l-150 42q13 97 82 165t160 68q53 0 144 -43.5t144 -43.5q33 0 63.5 32.5t37.5 78.5z" />
    <glyph glyph-name="Umacron" unicode="&#x16a;" horiz-adv-x="1407" 
d="M1426 1456l-143 -953q-38 -256 -219 -390t-445 -134q-249 0 -395 140.5t-109 383.5l143 953h293l-143 -953q-23 -151 43 -225.5t201 -74.5q130 0 223 78t115 222l143 953h293zM1225 1613h-731l23 165h731z" />
    <glyph glyph-name="umacron" unicode="&#x16b;" 
d="M719 155q-62 -86 -146 -131t-187 -45q-165 0 -247 117t-46 359l94 627h291l-94 -629q-22 -147 8.5 -197t112.5 -50q68 0 122.5 24t93.5 69l117 783h292l-162 -1082h-242zM1046 1271h-731l23 165h731z" />
    <glyph glyph-name="Ubreve" unicode="&#x16c;" horiz-adv-x="1407" 
d="M1426 1456l-143 -953q-38 -256 -219 -390t-445 -134q-249 0 -395 140.5t-109 383.5l143 953h293l-143 -953q-23 -151 43 -225.5t201 -74.5q130 0 223 78t115 222l143 953h293zM1238 1896l1 -6q-14 -132 -117.5 -210t-262.5 -78q-153 0 -238.5 81t-62.5 207l2 6h214
q-9 -55 17 -88t92 -33q61 0 97 34.5t44 86.5h214z" />
    <glyph glyph-name="ubreve" unicode="&#x16d;" 
d="M719 155q-62 -86 -146 -131t-187 -45q-165 0 -247 117t-46 359l94 627h291l-94 -629q-22 -147 8.5 -197t112.5 -50q68 0 122.5 24t93.5 69l117 783h292l-162 -1082h-242zM1059 1553l1 -6q-14 -132 -117.5 -210t-262.5 -78q-153 0 -238.5 81t-62.5 207l2 6h214
q-9 -55 17 -88t92 -33q61 0 97 34.5t44 86.5h214z" />
    <glyph glyph-name="Uring" unicode="&#x16e;" horiz-adv-x="1407" 
d="M1426 1456l-143 -953q-38 -256 -219 -390t-445 -134q-249 0 -395 140.5t-109 383.5l143 953h293l-143 -953q-23 -151 43 -225.5t201 -74.5q130 0 223 78t115 222l143 953h293zM699 1746q11 75 72 123.5t142 48.5q75 0 122 -50t37 -122q-12 -77 -72 -123t-139 -46
q-77 0 -125.5 48t-36.5 121zM815 1746q-6 -32 11.5 -52t49.5 -20q28 0 51 20t29 52q5 33 -11.5 53t-46.5 20t-54.5 -21t-28.5 -52z" />
    <glyph glyph-name="uring" unicode="&#x16f;" 
d="M719 155q-62 -86 -146 -131t-187 -45q-165 0 -247 117t-46 359l94 627h291l-94 -629q-22 -147 8.5 -197t112.5 -50q68 0 122.5 24t93.5 69l117 783h292l-162 -1082h-242zM520 1403q11 75 72 123.5t142 48.5q75 0 122 -50t37 -122q-12 -77 -72 -123t-139 -46
q-77 0 -125.5 48t-36.5 121zM636 1403q-6 -32 11.5 -52t49.5 -20q28 0 51 20t29 52q5 33 -11.5 53t-46.5 20t-54.5 -21t-28.5 -52z" />
    <glyph glyph-name="Uhungarumlaut" unicode="&#x170;" horiz-adv-x="1407" 
d="M1426 1456l-143 -953q-38 -256 -219 -390t-445 -134q-249 0 -395 140.5t-109 383.5l143 953h293l-143 -953q-23 -151 43 -225.5t201 -74.5q130 0 223 78t115 222l143 953h293zM1181 1867h278l2 -6l-324 -260h-233l-2 6zM793 1867h274l2 -6l-279 -260h-228l-2 5z" />
    <glyph glyph-name="uhungarumlaut" unicode="&#x171;" 
d="M719 155q-62 -86 -146 -131t-187 -45q-165 0 -247 117t-46 359l94 627h291l-94 -629q-22 -147 8.5 -197t112.5 -50q68 0 122.5 24t93.5 69l117 783h292l-162 -1082h-242zM1002 1524h278l2 -6l-324 -260h-233l-2 6zM614 1524h274l2 -6l-279 -260h-228l-2 5z" />
    <glyph glyph-name="Uogonek" unicode="&#x172;" horiz-adv-x="1407" 
d="M1426 1456l-143 -953q-38 -256 -219 -390t-445 -134q-249 0 -395 140.5t-109 383.5l143 953h293l-143 -953q-23 -151 43 -225.5t201 -74.5q130 0 223 78t115 222l143 953h293zM729 0q-61 -52 -92 -89.5t-38 -86.5q-5 -28 8.5 -49t66.5 -21q27 0 50.5 6t46.5 14l12 -154
q-38 -19 -85 -31.5t-108 -12.5q-104 0 -167 57t-48 157q13 80 68.5 147.5t162.5 122.5z" />
    <glyph glyph-name="uogonek" unicode="&#x173;" 
d="M719 155q-62 -86 -146 -131t-187 -45q-165 0 -247 117t-46 359l94 627h291l-94 -629q-22 -147 8.5 -197t112.5 -50q68 0 122.5 24t93.5 69l117 783h292l-162 -1082h-242zM882 0q-61 -52 -92 -89.5t-38 -86.5q-5 -28 8.5 -49t66.5 -21q27 0 50.5 6t46.5 14l12 -154
q-38 -19 -85 -31.5t-108 -12.5q-104 0 -167 57t-48 157q13 80 68.5 147.5t162.5 122.5z" />
    <glyph glyph-name="Wcircumflex" unicode="&#x174;" horiz-adv-x="1804" 
d="M1272 468h6l342 988h301l-558 -1456h-271l-124 958l-5 1l-412 -959h-271l-122 1456h301l46 -987l6 -1l410 988h236zM1436 1615l-3 -23h-232l-120 133l-159 -133h-227l4 26l318 240h169z" />
    <glyph glyph-name="wcircumflex" unicode="&#x175;" horiz-adv-x="1507" 
d="M1034 404h6l232 678h284l-437 -1082h-244l-107 623l-6 1l-295 -624h-243l-113 1082h284l31 -675l6 -1l304 676h195zM1235 1273l-3 -23h-232l-120 133l-159 -133h-227l4 26l318 240h169z" />
    <glyph glyph-name="Ycircumflex" unicode="&#x176;" horiz-adv-x="1303" 
d="M685 786l6 -1l419 671h320l-640 -943l-77 -513h-292l79 527l-352 929h320zM1191 1615l-3 -23h-232l-120 133l-159 -133h-227l4 26l318 240h169z" />
    <glyph glyph-name="ycircumflex" unicode="&#x177;" horiz-adv-x="1046" 
d="M490 454l2 -59l6 -1l311 688h314l-625 -1244q-63 -116 -154.5 -195.5t-249.5 -79.5q-35 0 -66.5 6t-74.5 17l66 213q12 -2 27 -4t27 -2q69 0 115 36.5t75 87.5l46 83l-222 1082h314zM1006 1273l-3 -23h-232l-120 133l-159 -133h-227l4 26l318 240h169z" />
    <glyph glyph-name="Ydieresis" unicode="&#x178;" horiz-adv-x="1303" 
d="M685 786l6 -1l419 671h320l-640 -943l-77 -513h-292l79 527l-352 929h320zM1192 1601h-266l29 204h266zM692 1601h-266l29 204h266z" />
    <glyph glyph-name="Zacute" unicode="&#x179;" horiz-adv-x="1163" 
d="M387 224h667l-34 -224h-996l-13 152l746 1079h-576l33 225h945l-21 -146zM849 1867h324l2 -6l-314 -260h-242l-2 5z" />
    <glyph glyph-name="zacute" unicode="&#x17a;" horiz-adv-x="1046" 
d="M396 229l2 -5h530l-34 -224h-899l26 172l612 679l-2 5h-492l34 226h866l-25 -167zM721 1523h324l2 -6l-314 -260h-242l-2 5z" />
    <glyph glyph-name="Zdotaccent" unicode="&#x17b;" horiz-adv-x="1163" 
d="M387 224h667l-34 -224h-996l-13 152l746 1079h-576l33 225h945l-21 -146zM925 1602h-327l36 241h327z" />
    <glyph glyph-name="zdotaccent" unicode="&#x17c;" horiz-adv-x="1046" 
d="M396 229l2 -5h530l-34 -224h-899l26 172l612 679l-2 5h-492l34 226h866l-25 -167zM797 1258h-327l36 241h327z" />
    <glyph glyph-name="Zcaron" unicode="&#x17d;" horiz-adv-x="1163" 
d="M387 224h667l-34 -224h-996l-13 152l746 1079h-576l33 225h945l-21 -146zM783 1747l136 127h264l-3 -17l-319 -255h-199l-243 256l3 16h264z" />
    <glyph glyph-name="zcaron" unicode="&#x17e;" horiz-adv-x="1046" 
d="M396 229l2 -5h530l-34 -224h-899l26 172l612 679l-2 5h-492l34 226h866l-25 -167zM654 1403l136 127h264l-3 -17l-319 -255h-199l-243 256l3 16h264z" />
    <glyph glyph-name="longs" unicode="&#x17f;" horiz-adv-x="532" 
d="M36 0l180 1202q28 189 146 284t311 95q35 0 73.5 -6t83.5 -15l-57 -215q-25 5 -46 8t-50 3q-68 0 -113.5 -41t-56.5 -113l-180 -1202h-291z" />
    <glyph glyph-name="florin" unicode="&#x192;" horiz-adv-x="740" 
d="M731 877h-207l-130 -917q-28 -198 -141.5 -297.5t-295.5 -99.5q-38 0 -72 4t-69 13l46 221q22 -6 46 -9.5t50 -3.5q55 0 93.5 45.5t50.5 126.5l129 917h-160l28 205h160l17 120q26 189 143.5 284t310.5 95q35 0 73.5 -6t83.5 -15l-55 -217q-23 4 -46 7t-52 3
q-68 0 -111.5 -39.5t-53.5 -111.5l-17 -120h207z" />
    <glyph glyph-name="Ohorn" unicode="&#x1a0;" horiz-adv-x="1435" 
d="M1317 597q-43 -279 -235.5 -448.5t-466.5 -169.5q-259 0 -406 176.5t-107 441.5l39 262q41 277 232.5 447.5t464.5 170.5q128 0 233 -46.5t176 -130.5q106 27 174.5 109t87.5 208h216q-31 -199 -128.5 -324t-254.5 -175q16 -60 20 -125.5t-6 -133.5zM1065 861
q26 176 -42.5 282t-219.5 106q-143 0 -244.5 -110t-126.5 -278l-39 -264q-27 -179 39 -285t217 -106q144 0 247 110t130 281z" />
    <glyph glyph-name="ohorn" unicode="&#x1a1;" horiz-adv-x="1191" 
d="M70 551q37 251 193.5 401t397.5 150q107 0 192 -36.5t143 -102.5q62 35 103 104t57 164h211q-24 -152 -99 -253.5t-197 -147.5q21 -61 26 -131.5t-6 -147.5l-3 -21q-39 -253 -195 -402t-398 -149q-231 0 -348 155.5t-80 395.5zM358 530q-24 -153 15 -240t155 -87
q108 0 177 91t91 236l3 21q21 149 -17.5 237.5t-153.5 88.5q-109 0 -178 -92.5t-89 -233.5z" />
    <glyph glyph-name="Uhorn" unicode="&#x1af;" horiz-adv-x="1460" 
d="M1426 1456l-27 -179l6 -2q84 21 133.5 106t71.5 226h208l2 -5q-32 -236 -141.5 -365t-308.5 -156l-87 -578q-38 -256 -219 -390t-445 -134q-249 0 -395 140.5t-109 383.5l143 953h293l-143 -953q-23 -151 43 -225.5t201 -74.5q130 0 223 78t115 222l143 953h293z" />
    <glyph glyph-name="uhorn" unicode="&#x1b0;" horiz-adv-x="1166" 
d="M1492 1196l2 -6q-24 -182 -122.5 -278t-284.5 -116l-119 -796h-242l-7 155q-62 -86 -146 -131t-187 -45q-165 0 -247 117t-46 359l94 627h291l-94 -629q-22 -147 8.5 -197t112.5 -50q68 0 122.5 24t93.5 69l117 783h292l-18 -122l5 -3q82 13 127.5 72.5t61.5 166.5h186z
" />
    <glyph glyph-name="uni01F0" unicode="&#x1f0;" horiz-adv-x="578" 
d="M523 1082l-168 -1122q-30 -198 -144.5 -297.5t-296.5 -99.5q-38 0 -71.5 4t-69.5 13l48 221q22 -6 46.5 -9.5t49.5 -3.5q56 0 95 45t52 127l168 1122h291zM404 1396l136 127h264l-3 -17l-319 -255h-199l-243 256l3 16h264z" />
    <glyph glyph-name="Aringacute" unicode="&#x1fa;" horiz-adv-x="1303" 
d="M861 314h-473l-145 -314h-305l709 1456h299l271 -1456h-305zM495 543h328l-83 514l-6 1zM996 2140h255l2 -6l-294 -205h-176l-2 6zM626 1696q11 81 77 132.5t153 51.5q80 0 131.5 -53.5t40.5 -130.5q-13 -83 -77.5 -132.5t-149.5 -49.5q-83 0 -135 52t-40 130zM739 1696
q-7 -40 14.5 -64t61.5 -24q36 0 65 25t35 63q5 41 -15 65.5t-58 24.5t-68 -26t-35 -64z" />
    <glyph glyph-name="aringacute" unicode="&#x1fb;" horiz-adv-x="1100" 
d="M670 0q-11 37 -16 78.5t-4 84.5q-57 -80 -138.5 -132t-183.5 -52q-164 0 -246 88.5t-59 237.5q24 165 158 249.5t372 84.5h164l13 86q12 81 -22.5 122.5t-116.5 41.5q-68 0 -113.5 -34.5t-53.5 -94.5h-281l-1 6q15 142 154.5 239t345.5 97q188 0 297 -99t82 -280
l-67 -447q-12 -79 -10 -144t17 -132h-291zM432 195q73 0 140 38.5t97 88.5l23 152h-164q-89 0 -145.5 -47t-66.5 -112q-9 -57 22 -88.5t94 -31.5zM841 1818h255l2 -6l-294 -205h-176l-2 6zM471 1374q11 81 77 132.5t153 51.5q80 0 131.5 -53.5t40.5 -130.5
q-13 -83 -77.5 -132.5t-149.5 -49.5q-83 0 -135 52t-40 130zM584 1374q-7 -40 14.5 -64t61.5 -24q36 0 65 25t35 63q5 41 -15 65.5t-58 24.5t-68 -26t-35 -64z" />
    <glyph glyph-name="AEacute" unicode="&#x1fc;" horiz-adv-x="1945" 
d="M1794 0h-898l36 335h-440l-218 -335h-342l1002 1456h1016l-34 -228h-596l-39 -366h499l-34 -227h-490l-44 -408h616zM958 575l60 557l-6 2l-364 -559h310zM1191 1866h324l2 -6l-314 -260h-242l-2 5z" />
    <glyph glyph-name="aeacute" unicode="&#x1fd;" horiz-adv-x="1771" 
d="M1197 -21q-124 0 -217.5 42t-151.5 120q-69 -71 -178 -116.5t-251 -45.5q-185 0 -279.5 91.5t-70.5 246.5q24 165 161.5 248t383.5 83h181l9 59q12 82 -21 126t-108 44q-78 0 -132 -38t-62 -93l-279 18l-1 6q17 150 156.5 241t353.5 91q97 0 176 -27t132 -79
q69 52 156 79t187 27q204 0 309.5 -133t72.5 -357l-24 -158h-651l-2 -5q-14 -115 37 -180.5t177 -65.5q88 0 156.5 20.5t151.5 60.5l49 -184q-70 -48 -182.5 -84.5t-238.5 -36.5zM485 185q56 0 124.5 31t111.5 73l26 175h-178q-93 0 -157 -45t-73 -106q-10 -61 26.5 -94.5
t119.5 -33.5zM1309 877q-90 0 -148.5 -62t-81.5 -165l2 -6h361l4 28q14 97 -19.5 151t-117.5 54zM1096 1545h324l2 -6l-314 -260h-242l-2 5z" />
    <glyph glyph-name="Oslashacute" unicode="&#x1fe;" horiz-adv-x="1410" 
d="M1322 597q-43 -279 -235.5 -448.5t-466.5 -169.5q-78 0 -148 17.5t-129 51.5l-104 -143h-143l155 211q-90 85 -128.5 209.5t-15.5 271.5l39 262q41 277 232.5 447.5t464.5 170.5q96 0 179 -26.5t151 -75.5l105 143h143l-164 -224q67 -85 95 -196.5t9 -238.5zM398 597
q-12 -76 -6.5 -138t26.5 -104l6 -2l591 807q-35 42 -87 65.5t-120 23.5q-143 0 -244.5 -110t-126.5 -278zM1070 861q7 49 7 92t-8 75l-6 2l-570 -778q31 -23 71.5 -34.5t89.5 -11.5q144 0 247 110t130 281zM971 1928h324l2 -6l-314 -260h-242l-2 5z" />
    <glyph glyph-name="oslashacute" unicode="&#x1ff;" 
d="M70 551q37 251 193.5 401t397.5 150q50 0 96 -8.5t86 -23.5l92 145h161l-137 -215q84 -74 118 -190.5t14 -258.5l-3 -21q-39 -253 -195 -402t-398 -149q-47 0 -89.5 7t-81.5 20l-94 -147h-161l137 214q-89 73 -125.5 192t-13.5 265zM358 530q-10 -64 -9.5 -116.5
t13.5 -85.5l6 -1l341 534q-17 7 -37.5 11.5t-43.5 4.5q-109 0 -178 -92.5t-89 -233.5zM799 551q8 56 7.5 104t-9.5 80l-6 2l-334 -523q14 -6 31.5 -8.5t39.5 -2.5q108 0 177 91t91 236zM738 1540h324l2 -6l-314 -260h-242l-2 5z" />
    <glyph glyph-name="Scommaaccent" unicode="&#x218;" horiz-adv-x="1266" 
d="M892 353q14 96 -43 148.5t-216 109.5q-250 79 -370.5 192t-92.5 297q26 176 180 276.5t374 100.5q244 0 382 -119t102 -327l-2 -6h-283q14 101 -50.5 164t-182.5 63q-87 0 -152.5 -43t-74.5 -107q-14 -94 45 -142t247 -112q236 -77 346.5 -189.5t82.5 -303.5
q-28 -184 -181 -280t-380 -96q-238 0 -402 108.5t-124 337.5l2 6h283q-19 -125 65.5 -176.5t208.5 -51.5q88 0 157 42.5t79 107.5zM599 -274l-165 -235h-122l98 245l23 151h190z" />
    <glyph glyph-name="scommaaccent" unicode="&#x219;" horiz-adv-x="1056" 
d="M664 300q7 50 -34.5 83t-164.5 60q-184 38 -272 115t-70 209q20 144 150.5 239.5t328.5 95.5q197 0 310.5 -99t88.5 -243l-2 -6h-282q9 67 -27 107t-116 40q-67 0 -114.5 -35t-54.5 -86q-7 -52 30.5 -82t165.5 -56q193 -40 279.5 -117.5t68.5 -213.5
q-22 -152 -158.5 -242t-343.5 -90q-208 0 -322 111t-89 248l3 6h267q-9 -87 39.5 -126t135.5 -39q77 0 126 33t57 88zM487 -274l-165 -235h-122l98 245l23 151h190z" />
    <glyph glyph-name="uni0237" unicode="&#x237;" horiz-adv-x="578" 
d="M523 1082l-168 -1122q-30 -198 -144.5 -297.5t-296.5 -99.5q-38 0 -71.5 4t-69.5 13l48 221q22 -6 46.5 -9.5t49.5 -3.5q56 0 95 45t52 127l168 1122h291z" />
    <glyph glyph-name="uni02BC" unicode="&#x2bc;" horiz-adv-x="557" 
d="M505 1197l-145 -285h-144l42 284l39 260h246z" />
    <glyph glyph-name="circumflex" unicode="&#x2c6;" horiz-adv-x="1016" 
d="M986 1275l-3 -23h-232l-120 133l-159 -133h-227l4 26l318 240h169z" />
    <glyph glyph-name="caron" unicode="&#x2c7;" horiz-adv-x="965" 
d="M609 1397l136 127h264l-3 -17l-319 -255h-199l-243 256l3 16h264z" />
    <glyph glyph-name="breve" unicode="&#x2d8;" horiz-adv-x="910" 
d="M920 1456l1 -6q-14 -132 -117.5 -210t-262.5 -78q-153 0 -238.5 81t-62.5 207l2 6h214q-9 -55 17 -88t92 -33q61 0 97 34.5t44 86.5h214z" />
    <glyph glyph-name="dotaccent" unicode="&#x2d9;" horiz-adv-x="629" 
d="M569 1227h-327l36 241h327z" />
    <glyph glyph-name="ring" unicode="&#x2da;" horiz-adv-x="682" 
d="M270 1305q11 75 72 123.5t142 48.5q75 0 122 -50t37 -122q-12 -77 -72 -123t-139 -46q-77 0 -125.5 48t-36.5 121zM386 1305q-6 -32 11.5 -52t49.5 -20q28 0 51 20t29 52q5 33 -11.5 53t-46.5 20t-54.5 -21t-28.5 -52z" />
    <glyph glyph-name="ogonek" unicode="&#x2db;" horiz-adv-x="618" 
d="M325 0q-61 -52 -92 -89.5t-38 -86.5q-5 -28 8.5 -49t66.5 -21q27 0 50.5 6t46.5 14l12 -154q-38 -19 -85 -31.5t-108 -12.5q-104 0 -167 57t-48 157q13 80 68.5 147.5t162.5 122.5z" />
    <glyph glyph-name="tilde" unicode="&#x2dc;" horiz-adv-x="986" 
d="M1001 1484q-14 -99 -82.5 -165t-160.5 -66q-66 0 -150 43.5t-136 43.5q-35 0 -64.5 -32.5t-35.5 -77.5l-150 42q13 97 82 165t160 68q53 0 144 -43.5t144 -43.5q33 0 63.5 32.5t37.5 78.5z" />
    <glyph glyph-name="hungarumlaut" unicode="&#x2dd;" horiz-adv-x="876" 
d="M875 1518h278l2 -6l-324 -260h-233l-2 6zM487 1518h274l2 -6l-279 -260h-228l-2 5z" />
    <glyph glyph-name="uni02F3" unicode="&#x2f3;" horiz-adv-x="664" 
d="M44 -228q11 74 70.5 119.5t138.5 45.5q73 0 119 -47.5t36 -117.5q-12 -73 -69.5 -117.5t-134.5 -44.5q-76 0 -123.5 46.5t-36.5 115.5zM158 -228q-5 -30 12 -49t48 -19q28 0 49.5 19.5t26.5 48.5q4 33 -11.5 52t-44.5 19q-30 0 -53 -20t-27 -51z" />
    <glyph glyph-name="gravecomb" unicode="&#x300;" horiz-adv-x="0" 
d="M-438.116 1264.03h-174.952l-163.801 344.602l1.39453 6.60156h227.229z" />
    <glyph glyph-name="acutecomb" unicode="&#x301;" horiz-adv-x="0" 
d="M-478.43 1616.16h221.188l1.36621 -7.94531l-214.361 -344.297h-165.208l-1.36523 6.62109z" />
    <glyph glyph-name="tildecomb" unicode="&#x303;" horiz-adv-x="0" 
d="M-18 1484q-14 -99 -82.5 -165t-160.5 -66q-66 0 -150 43.5t-136 43.5q-35 0 -64.5 -32.5t-35.5 -77.5l-150 42q13 97 82 165t160 68q53 0 144 -43.5t144 -43.5q33 0 63.5 32.5t37.5 78.5z" />
    <glyph glyph-name="hook" unicode="&#x309;" horiz-adv-x="0" 
d="M-609 1264l4 137q76 3 109.5 17.5t38.5 48.5q6 37 -30.5 53t-101.5 16l27 133q187 0 277 -50.5t75 -144.5q-9 -64 -58 -100t-114 -45l-9 -65h-218z" />
    <glyph glyph-name="uni030F" unicode="&#x30f;" horiz-adv-x="0" 
d="M-402 1252h-240l-246 260l3 6h278zM-60 1252h-236l-205 266h282z" />
    <glyph glyph-name="dotbelow" unicode="&#x323;" horiz-adv-x="0" 
d="M-568 -354h-327l36 241h327z" />
    <glyph glyph-name="tonos" unicode="&#x384;" horiz-adv-x="695" 
d="M455 1553h271l2 -5l-234 -278h-142z" />
    <glyph glyph-name="dieresistonos" unicode="&#x385;" horiz-adv-x="1125" 
d="M1063 1252h-254l30 204h254zM514 1252h-253l30 204h253zM704 1757h282l-218 -279h-148z" />
    <glyph glyph-name="Alphatonos" unicode="&#x386;" horiz-adv-x="1303" 
d="M861 314h-473l-145 -314h-305l709 1456h299l271 -1456h-305zM495 543h328l-83 514l-6 1zM306 1553h271l2 -5l-234 -278h-142z" />
    <glyph glyph-name="anoteleia" unicode="&#x387;" horiz-adv-x="619" 
d="M456 568h-292l39 260h292z" />
    <glyph glyph-name="Epsilontonos" unicode="&#x388;" horiz-adv-x="1139" 
d="M982 640h-540l-63 -416h643l-34 -224h-934l218 1456h932l-33 -225h-641l-55 -366h541zM-25 1555h271l2 -5l-234 -278h-142z" />
    <glyph glyph-name="Etatonos" unicode="&#x389;" horiz-adv-x="1445" 
d="M1231 0h-292l90 605h-593l-90 -605h-292l218 1456h292l-94 -626h593l94 626h292zM17 1552h271l2 -5l-234 -278h-142z" />
    <glyph glyph-name="Iotatonos" unicode="&#x38a;" horiz-adv-x="601" 
d="M366 0h-292l218 1456h292zM28 1555h271l2 -5l-234 -278h-142z" />
    <glyph glyph-name="Omicrontonos" unicode="&#x38c;" horiz-adv-x="1409" 
d="M1322 597q-43 -279 -235.5 -448.5t-466.5 -169.5q-259 0 -406 176.5t-107 441.5l39 262q41 277 232.5 447.5t464.5 170.5q261 0 409 -177.5t109 -440.5zM1070 861q26 176 -42.5 282t-219.5 106q-143 0 -244.5 -110t-126.5 -278l-39 -264q-27 -179 39 -285t217 -106
q144 0 247 110t130 281zM186 1553h271l2 -5l-234 -278h-142z" />
    <glyph glyph-name="Upsilontonos" unicode="&#x38e;" horiz-adv-x="1303" 
d="M685 786l6 -1l419 671h320l-640 -943l-77 -513h-292l79 527l-352 929h320zM-73 1553h271l2 -5l-234 -278h-142z" />
    <glyph glyph-name="Omegatonos" unicode="&#x38f;" horiz-adv-x="1376" 
d="M673 123l8 55l8 49l1 4q97 33 169 164.5t109 368.5l14 94q29 198 -23 294.5t-174 96.5q-114 0 -198 -101.5t-112 -289.5l-14 -94q-38 -248 -3.5 -374t127.5 -159l-9 -53l-26 -178h-504l34 227h251q-109 90 -163 232.5t-29 304.5l13 92q43 284 226.5 452.5t441.5 168.5
q246 0 384.5 -175.5t98.5 -445.5l-13 -92q-26 -167 -120.5 -308t-227.5 -229h252l-34 -227h-505zM170 1553h271l2 -5l-234 -278h-142z" />
    <glyph glyph-name="iotadieresistonos" unicode="&#x390;" horiz-adv-x="681" 
d="M511 1081l-114 -760q-10 -67 8.5 -91t65.5 -24q27 0 46 3.5t55 14.5l-2 -210q-50 -20 -93.5 -27.5t-98.5 -7.5q-151 0 -225 86.5t-47 259.5l113 756h292zM786 1188h-254l30 204h254zM237 1188h-253l30 204h253zM427 1693h282l-218 -279h-148z" />
    <glyph glyph-name="Alpha" unicode="&#x391;" horiz-adv-x="1303" 
d="M861 314h-473l-145 -314h-305l709 1456h299l271 -1456h-305zM495 543h328l-83 514l-6 1z" />
    <glyph glyph-name="Beta" unicode="&#x392;" horiz-adv-x="1305" 
d="M54 0l218 1456h477q247 0 380.5 -101.5t105.5 -297.5q-17 -104 -79 -181.5t-167 -116.5q131 -26 184.5 -119t36.5 -216q-33 -217 -185 -320.5t-408 -103.5h-563zM442 644l-63 -420h272q112 0 182.5 51t85.5 149q15 110 -35 165t-173 55h-269zM473 846h206q108 2 177 51
t83 137q16 105 -39.5 151t-183.5 46h-185z" />
    <glyph glyph-name="Gamma" unicode="&#x393;" horiz-adv-x="1137" 
d="M1186 1231h-657l-185 -1231h-292l218 1456h949z" />
    <glyph glyph-name="Delta" unicode="&#x394;" horiz-adv-x="1494" 
d="M743 1456h300l354 -1456h-1455zM366 224h676l-199 885h-6z" />
    <glyph glyph-name="Delta" unicode="&#x2206;" horiz-adv-x="1494" 
d="M743 1456h300l354 -1456h-1455zM366 224h676l-199 885h-6z" />
    <glyph glyph-name="Epsilon" unicode="&#x395;" horiz-adv-x="1139" 
d="M982 640h-540l-63 -416h643l-34 -224h-934l218 1456h932l-33 -225h-641l-55 -366h541z" />
    <glyph glyph-name="Zeta" unicode="&#x396;" horiz-adv-x="1163" 
d="M387 224h667l-34 -224h-996l-13 152l746 1079h-576l33 225h945l-21 -146z" />
    <glyph glyph-name="Eta" unicode="&#x397;" horiz-adv-x="1445" 
d="M1231 0h-292l90 605h-593l-90 -605h-292l218 1456h292l-94 -626h593l94 626h292z" />
    <glyph glyph-name="Theta" unicode="&#x398;" horiz-adv-x="1410" 
d="M912 613h-380l34 224h380zM1322 597q-43 -279 -235.5 -448.5t-466.5 -169.5q-259 0 -406 176.5t-107 441.5l39 262q41 277 232.5 447.5t464.5 170.5q261 0 409 -177.5t109 -440.5zM1070 861q26 176 -42.5 282t-219.5 106q-143 0 -244.5 -110t-126.5 -278l-39 -264
q-27 -179 39 -285t217 -106q144 0 247 110t130 281z" />
    <glyph glyph-name="Iota" unicode="&#x399;" horiz-adv-x="601" 
d="M366 0h-292l218 1456h292z" />
    <glyph glyph-name="Kappa" unicode="&#x39a;" horiz-adv-x="1305" 
d="M536 604h-104l-90 -604h-293l218 1456h293l-89 -595h102l411 595h381l-570 -727l372 -729h-336z" />
    <glyph glyph-name="Lambda" unicode="&#x39b;" horiz-adv-x="1328" 
d="M757 1135l-6 1l-506 -1136h-306l712 1456h299l276 -1456h-305z" />
    <glyph glyph-name="Mu" unicode="&#x39c;" horiz-adv-x="1782" 
d="M864 383l6 -1l535 1074h381l-218 -1456h-292l148 993l-5 1l-509 -994h-198l-211 996h-6l-149 -996h-292l218 1456h383z" />
    <glyph glyph-name="Nu" unicode="&#x39d;" horiz-adv-x="1445" 
d="M1231 0h-292l-441 982l-6 -1l-146 -981h-292l218 1456h292l440 -981l6 1l147 980h292z" />
    <glyph glyph-name="Xi" unicode="&#x39e;" horiz-adv-x="1163" 
d="M52 224h981l-34 -224h-981zM257 849h756l-32 -217h-756zM258 1456h918l-33 -225h-918z" />
    <glyph glyph-name="Omicron" unicode="&#x39f;" horiz-adv-x="1409" 
d="M1322 597q-43 -279 -235.5 -448.5t-466.5 -169.5q-259 0 -406 176.5t-107 441.5l39 262q41 277 232.5 447.5t464.5 170.5q261 0 409 -177.5t109 -440.5zM1070 861q26 176 -42.5 282t-219.5 106q-143 0 -244.5 -110t-126.5 -278l-39 -264q-27 -179 39 -285t217 -106
q144 0 247 110t130 281z" />
    <glyph glyph-name="Pi" unicode="&#x3a0;" horiz-adv-x="1444" 
d="M1231 0h-292l185 1231h-594l-185 -1231h-292l218 1456h1178z" />
    <glyph glyph-name="Rho" unicode="&#x3a1;" horiz-adv-x="1305" 
d="M425 528l-79 -528h-292l218 1456h557q241 0 370.5 -129.5t99.5 -335.5q-33 -217 -194 -340t-415 -123h-265zM459 753h265q117 0 192 67.5t91 168.5q16 109 -35.5 175.5t-175.5 66.5h-265z" />
    <glyph glyph-name="Sigma" unicode="&#x3a3;" horiz-adv-x="1163" 
d="M853 724l-434 -494l2 -5h638l-34 -225h-1033l23 152l530 581l-357 572l22 151h1006l-33 -225h-617l289 -490z" />
    <glyph glyph-name="Tau" unicode="&#x3a4;" horiz-adv-x="1175" 
d="M1254 1231h-417l-184 -1231h-292l184 1231h-409l33 225h1118z" />
    <glyph glyph-name="Upsilon" unicode="&#x3a5;" horiz-adv-x="1303" 
d="M685 786l6 -1l419 671h320l-640 -943l-77 -513h-292l79 527l-352 929h320z" />
    <glyph glyph-name="Phi" unicode="&#x3a6;" horiz-adv-x="1507" 
d="M1017 1255q237 -16 372.5 -162t102.5 -373q-36 -234 -208.5 -372.5t-425.5 -152.5l-29 -195h-292l29 195q-240 14 -376.5 157t-102.5 366q35 239 209 381t429 156l30 201h292zM373 718q-20 -131 40.5 -201t183.5 -76l6 1l85 564l-6 3q-120 -9 -205.5 -85.5t-103.5 -205.5
zM1205 720q20 135 -38.5 208.5t-180.5 80.5l-6 -2l-85 -563l6 -3q118 9 201 82.5t103 196.5z" />
    <glyph glyph-name="Chi" unicode="&#x3a7;" horiz-adv-x="1303" 
d="M710 940l350 516h340l-540 -722l347 -734h-353l-202 525l-360 -525h-341l553 734l-324 722h338z" />
    <glyph glyph-name="Psi" unicode="&#x3a8;" horiz-adv-x="1483" 
d="M895 582l5 -2q115 16 190 107.5t100 251.5l77 517h293l-77 -517q-41 -271 -206.5 -422t-417.5 -174l-51 -343h-291l51 342q-239 23 -365 180t-86 417l77 517h291l-77 -517q-25 -164 25.5 -254t165.5 -106l5 1l131 876h291z" />
    <glyph glyph-name="Omega" unicode="&#x3a9;" horiz-adv-x="1376" 
d="M673 123l8 55l8 49l1 4q97 33 169 164.5t109 368.5l14 94q29 198 -23 294.5t-174 96.5q-114 0 -198 -101.5t-112 -289.5l-14 -94q-38 -248 -3.5 -374t127.5 -159l-9 -53l-26 -178h-504l34 227h251q-109 90 -163 232.5t-29 304.5l13 92q43 284 226.5 452.5t441.5 168.5
q246 0 384.5 -175.5t98.5 -445.5l-13 -92q-26 -167 -120.5 -308t-227.5 -229h252l-34 -227h-505z" />
    <glyph glyph-name="Omega" unicode="&#x2126;" horiz-adv-x="1376" 
d="M673 123l8 55l8 49l1 4q97 33 169 164.5t109 368.5l14 94q29 198 -23 294.5t-174 96.5q-114 0 -198 -101.5t-112 -289.5l-14 -94q-38 -248 -3.5 -374t127.5 -159l-9 -53l-26 -178h-504l34 227h251q-109 90 -163 232.5t-29 304.5l13 92q43 284 226.5 452.5t441.5 168.5
q246 0 384.5 -175.5t98.5 -445.5l-13 -92q-26 -167 -120.5 -308t-227.5 -229h252l-34 -227h-505z" />
    <glyph glyph-name="Iotadieresis" unicode="&#x3aa;" horiz-adv-x="601" 
d="M366 0h-292l218 1456h292zM836 1601h-266l29 204h266zM336 1601h-266l29 204h266z" />
    <glyph glyph-name="Upsilondieresis" unicode="&#x3ab;" horiz-adv-x="1303" 
d="M685 786l6 -1l419 671h320l-640 -943l-77 -513h-292l79 527l-352 929h320zM1192 1601h-266l29 204h266zM692 1601h-266l29 204h266z" />
    <glyph glyph-name="alphatonos" unicode="&#x3ac;" horiz-adv-x="1154" 
d="M1111 1081l-113 -756q-10 -66 4 -90.5t50 -24.5q12 0 21.5 1.5t20.5 5.5l-7 -210q-37 -16 -70 -22t-75 -6q-89 0 -149 39t-82 117q-59 -76 -133.5 -116t-166.5 -40q-192 0 -284.5 148t-56.5 384l3 21q39 266 172 418t336 152q84 0 145 -41.5t99 -117.5l68 138h218z
M362 511q-23 -148 12.5 -228t143.5 -80q57 0 103.5 24t80.5 69q1 10 1.5 16t2.5 13l68 459q-20 44 -57.5 68.5t-94.5 24.5q-102 0 -168.5 -97t-88.5 -248zM716 1506h271l2 -5l-234 -278h-142z" />
    <glyph glyph-name="epsilontonos" unicode="&#x3ad;" horiz-adv-x="1140" 
d="M61 306q14 95 75.5 158t167.5 95q-81 36 -122 96t-30 131q23 156 165.5 235.5t365.5 79.5q187 0 308 -90t94 -234l-2 -6h-283q8 56 -38 87t-126 31q-85 0 -137 -37t-59 -87q-9 -57 32 -87.5t129 -30.5h187l-9 -59l-19 -130h-187q-92 0 -150 -32.5t-68 -100.5
q-9 -57 36.5 -95.5t139.5 -38.5q90 0 150.5 37.5t68.5 91.5h280l2 -6q-20 -169 -170 -251.5t-347 -82.5q-212 0 -344.5 88.5t-109.5 237.5zM682 1505h271l2 -5l-234 -278h-142z" />
    <glyph glyph-name="etatonos" unicode="&#x3ae;" 
d="M312 576l-3 6q32 234 162.5 377t313.5 143q160 0 238 -105t44 -334l-161 -1078h-293l161 1077q18 121 -14.5 168t-114.5 47q-118 0 -199.5 -85t-100.5 -214zM436 783l-117 -783h-292l162 1082h272l-9 -146l-5 -85zM674 1506h271l2 -5l-234 -278h-142z" />
    <glyph glyph-name="iotatonos" unicode="&#x3af;" horiz-adv-x="681" 
d="M511 1081l-114 -760q-10 -67 8.5 -91t65.5 -24q27 0 46 3.5t55 14.5l-2 -210q-50 -20 -93.5 -27.5t-98.5 -7.5q-151 0 -225 86.5t-47 259.5l113 756h292zM391 1484h271l2 -5l-234 -278h-142z" />
    <glyph glyph-name="upsilondieresistonos" unicode="&#x3b0;" 
d="M486 1082l-91 -612q-23 -148 17.5 -207.5t126.5 -59.5q100 0 167 107.5t89 255.5q16 127 9 256.5t-33 259.5h278q35 -105 47 -234t-10 -282q-42 -277 -177.5 -432t-392.5 -155q-221 0 -335 123t-77 370l91 610h291zM1085 1189h-254l30 204h254zM536 1189h-253l30 204h253
zM726 1694h282l-218 -279h-148z" />
    <glyph glyph-name="alpha" unicode="&#x3b1;" horiz-adv-x="1154" 
d="M1111 1081l-113 -756q-10 -66 4 -90.5t50 -24.5q12 0 21.5 1.5t20.5 5.5l-7 -210q-37 -16 -70 -22t-75 -6q-89 0 -149 39t-82 117q-59 -76 -133.5 -116t-166.5 -40q-192 0 -284.5 148t-56.5 384l3 21q39 266 172 418t336 152q84 0 145 -41.5t99 -117.5l68 138h218z
M362 511q-23 -148 12.5 -228t143.5 -80q57 0 103.5 24t80.5 69q1 10 1.5 16t2.5 13l68 459q-20 44 -57.5 68.5t-94.5 24.5q-102 0 -168.5 -97t-88.5 -248z" />
    <glyph glyph-name="beta" unicode="&#x3b2;" horiz-adv-x="1233" 
d="M769 1477q207 0 322 -106.5t88 -288.5q-16 -103 -78.5 -184t-159.5 -127q113 -45 166.5 -137.5t34.5 -218.5q-33 -215 -167 -325.5t-344 -110.5q-71 0 -142 19.5t-127 58.5l-69 -460h-291l216 1440q29 200 186.5 320t364.5 120zM576 653l9 63l14 90l8 53h65q91 0 144 53
t68 151q12 81 -25.5 135t-123.5 54q-82 0 -147.5 -60t-78.5 -155l-117 -776q34 -29 86.5 -43.5t119.5 -14.5q97 0 168 61t85 154q16 112 -30 173.5t-149 61.5h-96z" />
    <glyph glyph-name="gamma" unicode="&#x3b3;" horiz-adv-x="1046" 
d="M808 1082h305l-522 -1066l-65 -433h-292l66 438l-202 1061h305l80 -679l4 -99l6 -1l35 100z" />
    <glyph glyph-name="delta" unicode="&#x3b4;" 
d="M1117 1456l-33 -224h-404l-3 -6l216 -188q105 -87 162.5 -209.5t35.5 -277.5l-3 -21q-39 -253 -195 -402t-398 -149q-231 0 -349.5 147.5t-82.5 377.5l3 21q31 208 158 343.5t303 166.5l9 1l2 6l-256 237l26 177h809zM628 877q-109 0 -178 -92.5t-89 -233.5l-3 -21
q-24 -153 15 -240t155 -87q108 0 177 91t91 236l3 21q21 149 -17.5 237.5t-153.5 88.5z" />
    <glyph glyph-name="epsilon" unicode="&#x3b5;" horiz-adv-x="1140" 
d="M61 306q14 95 75.5 158t167.5 95q-81 36 -122 96t-30 131q23 156 165.5 235.5t365.5 79.5q187 0 308 -90t94 -234l-2 -6h-283q8 56 -38 87t-126 31q-85 0 -137 -37t-59 -87q-9 -57 32 -87.5t129 -30.5h187l-9 -59l-19 -130h-187q-92 0 -150 -32.5t-68 -100.5
q-9 -57 36.5 -95.5t139.5 -38.5q90 0 150.5 37.5t68.5 91.5h280l2 -6q-20 -169 -170 -251.5t-347 -82.5q-212 0 -344.5 88.5t-109.5 237.5z" />
    <glyph glyph-name="zeta" unicode="&#x3b6;" horiz-adv-x="1034" 
d="M1106 1456l-23 -156l-425 -432q-128 -130 -189 -225t-79 -221q-16 -106 25 -153.5t144 -47.5h54q141 0 217.5 -74t57.5 -206q-21 -125 -125 -225.5t-259 -142.5l-68 193q69 28 113.5 63t53.5 88q5 41 -22.5 62t-100.5 21h-49q-185 0 -273 111t-64 271q24 159 109 294.5
t253 308.5l240 241l-2 6h-514l33 224h893z" />
    <glyph glyph-name="eta" unicode="&#x3b7;" 
d="M312 576l-3 6q32 234 162.5 377t313.5 143q160 0 238 -105t44 -334l-161 -1078h-293l161 1077q18 121 -14.5 168t-114.5 47q-118 0 -199.5 -85t-100.5 -214zM436 783l-117 -783h-292l162 1082h272l-9 -146l-5 -85z" />
    <glyph glyph-name="theta" unicode="&#x3b8;" horiz-adv-x="1209" 
d="M1085 527q-40 -266 -194 -407t-379 -141q-215 0 -333 147.5t-79 400.5l60 401q40 265 194.5 407t380.5 142q214 0 331 -148.5t79 -400.5zM808 623h-403l-18 -124q-23 -149 18.5 -222.5t139.5 -73.5q92 0 157.5 77t87.5 219zM438 840h403l18 118q21 145 -20.5 219.5
t-137.5 74.5q-93 0 -159 -78t-86 -216z" />
    <glyph glyph-name="iota" unicode="&#x3b9;" horiz-adv-x="681" 
d="M511 1081l-114 -760q-10 -67 8.5 -91t65.5 -24q27 0 46 3.5t55 14.5l-2 -210q-50 -20 -93.5 -27.5t-98.5 -7.5q-151 0 -225 86.5t-47 259.5l113 756h292z" />
    <glyph glyph-name="kappa" unicode="&#x3ba;" horiz-adv-x="1210" 
d="M517 405h-116l-60 -405h-292l162 1082h292l-62 -412h88l340 412h361l2 -5l-455 -502l315 -575h-374z" />
    <glyph glyph-name="lambda" unicode="&#x3bb;" horiz-adv-x="1102" 
d="M247 0h-315l535 1059l-38 108q-16 55 -50.5 90t-87.5 35q-12 0 -34 -2t-33 -4l25 209q43 11 76 17t71 6q151 0 222.5 -81t98.5 -193l228 -899q10 -53 34.5 -87t64.5 -41q11 -2 23.5 -2t27.5 1l-51 -219q-34 -6 -67.5 -8.5t-66.5 -0.5q-126 9 -186.5 100.5t-84.5 222.5
l-84 392h-6l-27 -80z" />
    <glyph glyph-name="uni03BC" unicode="&#x3bc;" horiz-adv-x="1264" 
d="M512 1082l-97 -648q-17 -138 20 -183t126 -45q74 0 129 29t91 84l114 763h292l-162 -1082h-272l4 63q-50 -42 -109.5 -63t-127.5 -21q-49 0 -91 11t-75 34l-66 -440h-291l224 1498h291z" />
    <glyph glyph-name="nu" unicode="&#x3bd;" horiz-adv-x="1046" 
d="M483 403l4 -99l6 -1l35 100l280 679h305l-530 -1082h-279l-206 1082h305z" />
    <glyph glyph-name="xi" unicode="&#x3be;" horiz-adv-x="1097" 
d="M1119 1456l-34 -232h-279q-105 -3 -168.5 -47t-73.5 -114q-12 -78 35 -120t162 -42h151l-11 -75l-13 -86l-11 -71h-143q-151 0 -245.5 -65.5t-112.5 -187.5q-14 -95 40.5 -150t165.5 -55h121q147 0 226 -70.5t59 -206.5q-23 -141 -122 -237t-263 -145l-56 172
q63 27 110.5 63t56.5 96q7 47 -20 71.5t-93 24.5h-70q-225 0 -350.5 117.5t-94.5 323.5q20 139 109 230.5t240 135.5q-92 35 -136.5 94t-32.5 139q10 71 51.5 121.5t110.5 78.5l-3 5h-199l34 232h859z" />
    <glyph glyph-name="omicron" unicode="&#x3bf;" 
d="M70 551q37 251 193.5 401t397.5 150q231 0 348 -156t82 -395l-3 -21q-39 -253 -195 -402t-398 -149q-231 0 -348 155.5t-80 395.5zM358 530q-24 -153 15 -240t155 -87q108 0 177 91t91 236l3 21q21 149 -17.5 237.5t-153.5 88.5q-109 0 -178 -92.5t-89 -233.5z" />
    <glyph glyph-name="pi" unicode="&#x3c0;" horiz-adv-x="1356" 
d="M1273 868h-193l-82 -547q-10 -67 8.5 -91t65.5 -24q27 0 46 3.5t55 14.5l-2 -210q-50 -20 -93.5 -27.5t-98.5 -7.5q-151 0 -225 86.5t-47 259.5l81 543h-209l-130 -868h-292l130 868h-159l32 214h1145z" />
    <glyph glyph-name="rho" unicode="&#x3c1;" 
d="M1083 511q-38 -249 -168 -390.5t-331 -141.5q-82 0 -143.5 32.5t-101.5 93.5l-78 -521h-291l149 993q36 244 189.5 384.5t383.5 140.5q220 0 326 -158.5t68 -411.5zM795 532q24 159 -10.5 252t-140.5 93q-91 0 -154.5 -93.5t-83.5 -229.5l-1 -1h1l-38 -256
q20 -46 62.5 -70t110.5 -24q102 0 165.5 84t85.5 224z" />
    <glyph glyph-name="sigma1" unicode="&#x3c2;" horiz-adv-x="1052" 
d="M647 1102q193 0 300.5 -112.5t75.5 -302.5l-2 -5h-267q13 88 -21.5 141.5t-118.5 53.5q-107 0 -172 -92.5t-85 -229.5l-4 -30q-22 -141 31.5 -212.5t197.5 -92.5q184 -30 261 -94t57 -198q-21 -125 -125 -225t-258 -143l-68 193q69 29 113 63.5t53 87.5q5 42 -28.5 63.5
t-111.5 35.5q-243 36 -345.5 168t-68.5 354l4 30q37 246 190 396.5t392 150.5z" />
    <glyph glyph-name="sigma" unicode="&#x3c3;" horiz-adv-x="1172" 
d="M1197 856h-257q71 -66 106.5 -156t21.5 -190l-4 -21q-34 -229 -185.5 -369.5t-384.5 -140.5q-232 0 -349 155t-80 396l3 21q35 242 191 386.5t398 144.5h574zM357 530q-24 -153 15 -240t155 -87q101 0 166 91t87 236l3 21q20 139 -16.5 222t-143.5 83
q-109 0 -176.5 -86.5t-86.5 -218.5z" />
    <glyph glyph-name="tau" unicode="&#x3c4;" horiz-adv-x="1076" 
d="M1080 859h-348l-128 -859h-292l128 859h-340l33 223h980z" />
    <glyph glyph-name="upsilon" unicode="&#x3c5;" 
d="M486 1082l-91 -612q-23 -148 17.5 -207.5t126.5 -59.5q100 0 167 107.5t89 255.5q16 127 9 256.5t-33 259.5h278q35 -105 47 -234t-10 -282q-42 -277 -177.5 -432t-392.5 -155q-221 0 -335 123t-77 370l91 610h291z" />
    <glyph glyph-name="phi" unicode="&#x3c6;" horiz-adv-x="1529" 
d="M983 1082q255 0 383.5 -166.5t97.5 -378.5q-35 -228 -190.5 -375.5t-455.5 -175.5l-69 -464h-291l70 467q-275 38 -388 204.5t-78 398.5q22 150 75 269t127 221h271q-70 -131 -116.5 -252t-64.5 -238q-23 -150 23 -244.5t180 -121.5l6 1l129 855h291zM1172 537
q19 138 -37 227.5t-181 84.5l-6 -1l-94 -623l6 -3q138 23 215.5 108t96.5 207z" />
    <glyph glyph-name="chi" unicode="&#x3c7;" horiz-adv-x="1102" 
d="M251 1098q151 0 223 -81.5t98 -191.5l40 -145l6 -1l256 403h296l-466 -728l119 -427q12 -52 36 -86t63 -42q11 -2 23.5 -2h28.5l-52 -220q-32 -7 -66.5 -9t-67.5 1q-110 10 -164 100.5t-83 223.5l-39 136l-6 1l-285 -446h-289l489 769l-111 395q-14 57 -55 91t-99 34
q-12 0 -33.5 -2t-33.5 -4l25 209q41 10 75 16t72 6z" />
    <glyph glyph-name="psi" unicode="&#x3c8;" horiz-adv-x="1526" 
d="M981 1082l-128 -852l5 -3q137 29 217.5 127t102.5 238q15 118 4.5 239.5t-40.5 250.5h271q43 -98 60 -221.5t-4 -268.5q-39 -250 -196 -412.5t-457 -193.5l-69 -464h-292l70 468q-246 33 -367.5 182t-80.5 418l73 492h292l-74 -495q-25 -168 26 -254t161 -106l5 1
l129 854h292z" />
    <glyph glyph-name="omega" unicode="&#x3c9;" horiz-adv-x="1760" 
d="M594 1082q-84 -131 -140 -260t-78 -256q-25 -164 1 -263.5t120 -99.5q78 0 139 69.5t84 217.5l51 346h308l-51 -346q-24 -156 13.5 -221.5t120.5 -65.5q89 0 148 104t83 259q15 128 -2 257.5t-62 258.5h278q54 -103 77 -232.5t0 -283.5q-42 -277 -171 -432t-373 -155
q-112 0 -192 55t-116 160q-67 -107 -163 -161t-215 -54q-233 0 -321 162t-48 425q24 159 84.5 284.5t146.5 231.5h278z" />
    <glyph glyph-name="iotadieresis" unicode="&#x3ca;" horiz-adv-x="681" 
d="M511 1081l-114 -760q-10 -67 8.5 -91t65.5 -24q27 0 46 3.5t55 14.5l-2 -210q-50 -20 -93.5 -27.5t-98.5 -7.5q-151 0 -225 86.5t-47 259.5l113 756h292zM782 1257h-266l29 204h266zM282 1257h-266l29 204h266z" />
    <glyph glyph-name="upsilondieresis" unicode="&#x3cb;" 
d="M486 1082l-91 -612q-23 -148 17.5 -207.5t126.5 -59.5q100 0 167 107.5t89 255.5q16 127 9 256.5t-33 259.5h278q35 -105 47 -234t-10 -282q-42 -277 -177.5 -432t-392.5 -155q-221 0 -335 123t-77 370l91 610h291zM1081 1258h-266l29 204h266zM581 1258h-266l29 204h266
z" />
    <glyph glyph-name="omicrontonos" unicode="&#x3cc;" 
d="M70 551q37 251 193.5 401t397.5 150q231 0 348 -156t82 -395l-3 -21q-39 -253 -195 -402t-398 -149q-231 0 -348 155.5t-80 395.5zM358 530q-24 -153 15 -240t155 -87q108 0 177 91t91 236l3 21q21 149 -17.5 237.5t-153.5 88.5q-109 0 -178 -92.5t-89 -233.5zM674 1506
h271l2 -5l-234 -278h-142z" />
    <glyph glyph-name="upsilontonos" unicode="&#x3cd;" 
d="M486 1082l-91 -612q-23 -148 17.5 -207.5t126.5 -59.5q100 0 167 107.5t89 255.5q16 127 9 256.5t-33 259.5h278q35 -105 47 -234t-10 -282q-42 -277 -177.5 -432t-392.5 -155q-221 0 -335 123t-77 370l91 610h291zM691 1485h271l2 -5l-234 -278h-142z" />
    <glyph glyph-name="omegatonos" unicode="&#x3ce;" horiz-adv-x="1760" 
d="M594 1082q-84 -131 -140 -260t-78 -256q-25 -164 1 -263.5t120 -99.5q78 0 139 69.5t84 217.5l51 346h308l-51 -346q-24 -156 13.5 -221.5t120.5 -65.5q89 0 148 104t83 259q15 128 -2 257.5t-62 258.5h278q54 -103 77 -232.5t0 -283.5q-42 -277 -171 -432t-373 -155
q-112 0 -192 55t-116 160q-67 -107 -163 -161t-215 -54q-233 0 -321 162t-48 425q24 159 84.5 284.5t146.5 231.5h278zM973 1485h271l2 -5l-234 -278h-142z" />
    <glyph glyph-name="uni03D1" unicode="&#x3d1;" horiz-adv-x="1396" 
d="M611 968l16 103q27 183 154.5 294.5t293.5 111.5q173 0 256 -104.5t54 -301.5l-78 -515q-39 -258 -228.5 -417.5t-442.5 -159.5q-268 0 -409 159.5t-102 417.5l105 696l308 2l-105 -698q-22 -150 43.5 -246.5t194.5 -96.5t215 85t112 246q-194 13 -304.5 129t-82.5 295v0
zM1082 1098q9 64 -7 97.5t-54 33.5q-44 0 -73.5 -32.5t-39.5 -98.5l-20 -132q-13 -81 25 -138.5t112 -65.5l6 1z" />
    <glyph glyph-name="uni03D2" unicode="&#x3d2;" horiz-adv-x="1202" 
d="M870 1203q84 153 169 215t215 62q31 0 56 -4.5t44 -14.5l-57 -222q-4 1 -21.5 3t-28.5 2q-35 0 -68.5 -26.5t-57.5 -68.5l-387 -672l-71 -477h-291l73 490l-181 659q-13 43 -37 69t-60 26q-12 0 -30.5 -2t-20.5 -3l10 222q21 11 46.5 15t58.5 4q126 0 195 -60t106 -210
l91 -385l5 -89l6 -1l32 90z" />
    <glyph glyph-name="uni03D6" unicode="&#x3d6;" horiz-adv-x="1696" 
d="M1743 900h-133q16 -75 18.5 -159t-10.5 -175q-42 -277 -164.5 -432t-349.5 -155q-111 0 -189 55t-113 161q-66 -108 -161 -162t-213 -54q-217 0 -297.5 162t-40.5 425q14 94 41 177t66 157h-123l27 182h1669zM1327 566q9 83 6 166.5t-18 167.5h-822q-41 -84 -69.5 -167.5
t-42.5 -166.5q-25 -164 -7 -262.5t95 -93.5l6 -1q72 -5 132 63.5t83 217.5l30 205h307l-30 -205q-24 -156 12.5 -221.5t116.5 -65.5q74 0 125.5 103.5t75.5 259.5z" />
    <glyph glyph-name="uni0400" unicode="&#x400;" horiz-adv-x="1139" 
d="M982 640h-540l-63 -416h643l-34 -224h-934l218 1456h932l-33 -225h-641l-55 -366h541zM893 1600h-251l-235 261l2 5h326z" />
    <glyph glyph-name="uni0401" unicode="&#x401;" horiz-adv-x="1139" 
d="M982 640h-540l-63 -416h643l-34 -224h-934l218 1456h932l-33 -225h-641l-55 -366h541zM1136 1601h-266l29 204h266zM636 1601h-266l29 204h266z" />
    <glyph glyph-name="uni0402" unicode="&#x402;" horiz-adv-x="1560" 
d="M1274 1231h-417l-47 -314h176q256 0 401.5 -126.5t111.5 -360.5q-18 -134 -134.5 -269.5t-306.5 -192.5l-95 188q106 44 167.5 110.5t77.5 163.5q19 131 -48.5 194.5t-208.5 63.5h-175l-103 -688h-292l184 1231h-409l33 225h1118z" />
    <glyph glyph-name="uni0403" unicode="&#x403;" horiz-adv-x="1137" 
d="M1186 1231h-657l-185 -1231h-292l218 1456h949zM855 1866h324l2 -6l-314 -260h-242l-2 5z" />
    <glyph glyph-name="uni0404" unicode="&#x404;" horiz-adv-x="1290" 
d="M1234 483l2 -6q-32 -242 -195 -369.5t-424 -127.5q-252 0 -392.5 170t-100.5 434l43 289q41 276 221.5 440.5t438.5 164.5q256 0 391 -131.5t96 -364.5l-3 -6h-284q22 145 -35 211t-199 66q-126 0 -218 -107t-117 -271l-5 -31h432l-34 -226h-431l-5 -34
q-26 -174 35.5 -277t200.5 -103q126 0 203 69.5t98 209.5h282z" />
    <glyph glyph-name="uni0405" unicode="&#x405;" horiz-adv-x="1266" 
d="M870 380q13 88 -37 137t-192 94q-241 76 -356.5 179t-87.5 281q27 185 189.5 295.5t393.5 110.5q233 0 366 -123.5t99 -318.5l-2 -6h-284q17 113 -39.5 169.5t-177.5 56.5q-104 0 -173 -52.5t-80 -132.5q-13 -77 43 -122.5t208 -99.5q230 -68 339.5 -177.5t82.5 -288.5
q-29 -195 -189 -299t-403 -104q-227 0 -382 118t-115 348l2 6h284q-21 -134 45.5 -192.5t198.5 -58.5q112 0 183 49.5t84 130.5z" />
    <glyph glyph-name="uni0406" unicode="&#x406;" horiz-adv-x="601" 
d="M366 0h-292l218 1456h292z" />
    <glyph glyph-name="uni0407" unicode="&#x407;" horiz-adv-x="601" 
d="M366 0h-292l218 1456h292zM836 1601h-266l29 204h266zM336 1601h-266l29 204h266z" />
    <glyph glyph-name="uni0408" unicode="&#x408;" horiz-adv-x="1137" 
d="M852 1456h291l-150 -1005q-34 -225 -183.5 -348.5t-360.5 -123.5q-223 0 -344 115t-85 330l3 6h284q-19 -121 29 -174t146 -53q77 0 139.5 67t80.5 181z" />
    <glyph glyph-name="uni0409" unicode="&#x409;" horiz-adv-x="2169" 
d="M1449 1456l-76 -509h250q240 0 372.5 -134t102.5 -339q-33 -218 -198.5 -346t-418.5 -128h-542l184 1231h-386l-65 -438q-66 -437 -226 -615t-441 -178h-43l34 224h40q145 0 220.5 126t123.5 443l99 663h970zM1339 722l-74 -498h250q117 0 196.5 74t95.5 178
q15 106 -40 176t-178 70h-250z" />
    <glyph glyph-name="uni040A" unicode="&#x40a;" horiz-adv-x="2168" 
d="M470 841h593l93 615h292l-79 -527h250q241 0 374.5 -130t103.5 -333q-32 -213 -198 -339.5t-419 -126.5h-542l92 616h-593l-92 -616h-292l218 1456h292zM1335 704l-71 -476h250q117 0 196 70t95 170q15 103 -40 169.5t-179 66.5h-251z" />
    <glyph glyph-name="uni040B" unicode="&#x40b;" horiz-adv-x="1634" 
d="M1290 1231h-417l-38 -253h196q254 0 382 -119t92 -360l-75 -499h-292l75 499q22 149 -27 201.5t-189 52.5h-196l-112 -753h-292l184 1231h-409l33 225h1118z" />
    <glyph glyph-name="uni040C" unicode="&#x40c;" horiz-adv-x="1305" 
d="M536 604h-104l-90 -604h-293l218 1456h293l-89 -595h102l411 595h381l-570 -727l372 -729h-336zM834 1778h324l2 -6l-314 -260h-242l-2 5z" />
    <glyph glyph-name="uni040D" unicode="&#x40d;" horiz-adv-x="1431" 
d="M1147 1456h292l-218 -1456h-292l145 971l-5 2l-734 -973h-291l218 1456h291l-145 -971l5 -2zM1005 1600h-251l-235 261l2 5h326z" />
    <glyph glyph-name="uni040E" unicode="&#x40e;" horiz-adv-x="1310" 
d="M678 809l14 -88l6 -1l415 736h309l-708 -1180q-83 -141 -184 -219t-261 -78q-58 0 -105 10.5t-104 30.5l65 209q43 -13 76.5 -19.5t68.5 -6.5q79 0 130.5 36t86.5 105l30 55l-355 1057h315zM1188 1896l1 -6q-14 -132 -117.5 -210t-262.5 -78q-153 0 -238.5 81t-62.5 207
l2 6h214q-9 -55 17 -88t92 -33q61 0 97 34.5t44 86.5h214z" />
    <glyph glyph-name="uni040F" unicode="&#x40f;" horiz-adv-x="1431" 
d="M258 1456h291l-184 -1232h594l184 1232h292l-218 -1456h-431l-53 -360h-292l53 360h-454z" />
    <glyph glyph-name="uni0410" unicode="&#x410;" horiz-adv-x="1303" 
d="M861 314h-473l-145 -314h-305l709 1456h299l271 -1456h-305zM495 543h328l-83 514l-6 1z" />
    <glyph glyph-name="uni0411" unicode="&#x411;" horiz-adv-x="1283" 
d="M1186 1231h-657l-43 -287h250q241 0 373.5 -132.5t102.5 -337.5q-33 -218 -199 -346t-419 -128h-542l218 1456h949zM452 719l-13 -84l-61 -411h250q117 0 197 74t96 178q15 105 -40 174t-179 69h-250z" />
    <glyph glyph-name="uni0412" unicode="&#x412;" horiz-adv-x="1305" 
d="M54 0l218 1456h477q247 0 380.5 -101.5t105.5 -297.5q-17 -104 -79 -181.5t-167 -116.5q131 -26 184.5 -119t36.5 -216q-33 -217 -185 -320.5t-408 -103.5h-563zM442 644l-63 -420h272q112 0 182.5 51t85.5 149q15 110 -35 165t-173 55h-269zM473 846h206q108 2 177 51
t83 137q16 105 -39.5 151t-183.5 46h-185z" />
    <glyph glyph-name="uni0413" unicode="&#x413;" horiz-adv-x="1137" 
d="M1186 1231h-657l-185 -1231h-292l218 1456h949z" />
    <glyph glyph-name="uni0414" unicode="&#x414;" horiz-adv-x="1465" 
d="M1339 -358h-292l54 358h-876l-54 -358h-291l88 582h85q109 0 185 154.5t139 481.5l122 596h939l-185 -1232h174zM669 860q-43 -212 -102.5 -371t-137.5 -265h533l151 1007h-369z" />
    <glyph glyph-name="uni0415" unicode="&#x415;" horiz-adv-x="1139" 
d="M982 640h-540l-63 -416h643l-34 -224h-934l218 1456h932l-33 -225h-641l-55 -366h541z" />
    <glyph glyph-name="uni0416" unicode="&#x416;" horiz-adv-x="1870" 
d="M1190 608h-93l-91 -608h-291l91 608h-96l-420 -608h-364l577 785l-335 671h361l241 -595h74l89 595h291l-89 -595h70l412 595h360l-529 -670l335 -786h-363z" />
    <glyph glyph-name="uni0417" unicode="&#x417;" horiz-adv-x="1345" 
d="M518 852h197q132 0 208.5 54.5t91.5 150.5q12 87 -52 141t-204 54q-105 0 -187 -53t-94 -134h-282l-2 6q23 189 195 297.5t404 108.5q257 0 399.5 -109t113.5 -307q-16 -105 -92.5 -187.5t-198.5 -128.5q120 -44 177 -130t39 -207q-32 -209 -212 -319t-451 -110
q-222 0 -377 108t-118 311l2 6h284q-14 -89 53.5 -145t188.5 -56q136 0 230.5 59t108.5 149q17 119 -47 170.5t-211 51.5h-197l23 153z" />
    <glyph glyph-name="uni0418" unicode="&#x418;" horiz-adv-x="1431" 
d="M1147 1456h292l-218 -1456h-292l145 971l-5 2l-734 -973h-291l218 1456h291l-145 -971l5 -2z" />
    <glyph glyph-name="uni0419" unicode="&#x419;" horiz-adv-x="1431" 
d="M1147 1456h292l-218 -1456h-292l145 971l-5 2l-734 -973h-291l218 1456h291l-145 -971l5 -2zM1247 1896l1 -6q-14 -132 -117.5 -210t-262.5 -78q-153 0 -238.5 81t-62.5 207l2 6h214q-9 -55 17 -88t92 -33q61 0 97 34.5t44 86.5h214z" />
    <glyph glyph-name="uni041A" unicode="&#x41a;" horiz-adv-x="1305" 
d="M536 604h-104l-90 -604h-293l218 1456h293l-89 -595h102l411 595h381l-570 -727l372 -729h-336z" />
    <glyph glyph-name="uni041B" unicode="&#x41b;" horiz-adv-x="1444" 
d="M1449 1456l-218 -1456h-292l184 1231h-414l-65 -438q-66 -439 -218 -616t-421 -177h-43l34 224h40q132 0 200 124.5t116 444.5l99 663h998z" />
    <glyph glyph-name="uni041C" unicode="&#x41c;" horiz-adv-x="1782" 
d="M864 383l6 -1l535 1074h381l-218 -1456h-292l148 993l-5 1l-509 -994h-198l-211 996h-6l-149 -996h-292l218 1456h383z" />
    <glyph glyph-name="uni041D" unicode="&#x41d;" horiz-adv-x="1445" 
d="M1231 0h-292l90 605h-593l-90 -605h-292l218 1456h292l-94 -626h593l94 626h292z" />
    <glyph glyph-name="uni041E" unicode="&#x41e;" horiz-adv-x="1409" 
d="M1322 597q-43 -279 -235.5 -448.5t-466.5 -169.5q-259 0 -406 176.5t-107 441.5l39 262q41 277 232.5 447.5t464.5 170.5q261 0 409 -177.5t109 -440.5zM1070 861q26 176 -42.5 282t-219.5 106q-143 0 -244.5 -110t-126.5 -278l-39 -264q-27 -179 39 -285t217 -106
q144 0 247 110t130 281z" />
    <glyph glyph-name="uni041F" unicode="&#x41f;" horiz-adv-x="1444" 
d="M1231 0h-292l185 1231h-594l-185 -1231h-292l218 1456h1178z" />
    <glyph glyph-name="uni0420" unicode="&#x420;" horiz-adv-x="1305" 
d="M425 528l-79 -528h-292l218 1456h557q241 0 370.5 -129.5t99.5 -335.5q-33 -217 -194 -340t-415 -123h-265zM459 753h265q117 0 192 67.5t91 168.5q16 109 -35.5 175.5t-175.5 66.5h-265z" />
    <glyph glyph-name="uni0421" unicode="&#x421;" horiz-adv-x="1303" 
d="M1217 482l2 -6q-32 -242 -195 -369.5t-424 -127.5q-252 0 -392.5 170t-101.5 434l44 289q41 276 221.5 440.5t438.5 164.5q256 0 391 -131.5t96 -364.5l-3 -6h-284q22 145 -35 211t-199 66q-126 0 -218 -107t-117 -271l-44 -291q-26 -174 35.5 -277t200.5 -103
q126 0 203.5 69.5t98.5 209.5h282z" />
    <glyph glyph-name="uni0422" unicode="&#x422;" horiz-adv-x="1175" 
d="M1254 1231h-417l-184 -1231h-292l184 1231h-409l33 225h1118z" />
    <glyph glyph-name="uni0423" unicode="&#x423;" horiz-adv-x="1310" 
d="M678 809l14 -88l6 -1l415 736h309l-708 -1180q-83 -141 -184 -219t-261 -78q-58 0 -105 10.5t-104 30.5l65 209q43 -13 76.5 -19.5t68.5 -6.5q79 0 130.5 36t86.5 105l30 55l-355 1057h315z" />
    <glyph glyph-name="uni0424" unicode="&#x424;" horiz-adv-x="1507" 
d="M1017 1255q237 -16 372.5 -162t102.5 -373q-36 -234 -208.5 -372.5t-425.5 -152.5l-29 -195h-292l29 195q-240 14 -376.5 157t-102.5 366q35 239 209 381t429 156l30 201h292zM373 718q-20 -131 40.5 -201t183.5 -76l6 1l85 564l-6 3q-120 -9 -205.5 -85.5t-103.5 -205.5
zM1205 720q20 135 -38.5 208.5t-180.5 80.5l-6 -2l-85 -563l6 -3q118 9 201 82.5t103 196.5z" />
    <glyph glyph-name="uni0425" unicode="&#x425;" horiz-adv-x="1303" 
d="M710 940l350 516h340l-540 -722l347 -734h-353l-202 525l-360 -525h-341l553 734l-324 722h338z" />
    <glyph glyph-name="uni0426" unicode="&#x426;" horiz-adv-x="1558" 
d="M259 1456h292l-184 -1231h594l184 1231h292l-185 -1231h196l-88 -584h-292l54 359h-1081z" />
    <glyph glyph-name="uni0427" unicode="&#x427;" horiz-adv-x="1420" 
d="M1426 1456l-218 -1456h-293l84 561q-69 -16 -152 -24.5t-148 -8.5q-258 0 -392 117t-98 358l68 453h292l-68 -453q-22 -147 33 -198.5t199 -51.5q59 0 145 8.5t154 24.5l101 670h293z" />
    <glyph glyph-name="uni0428" unicode="&#x428;" horiz-adv-x="2119" 
d="M559 1456l-184 -1232h497l184 1232h291l-184 -1232h493l184 1232h292l-218 -1456h-1865l218 1456h292z" />
    <glyph glyph-name="uni0429" unicode="&#x429;" horiz-adv-x="2275" 
d="M559 1456l-184 -1232h497l184 1232h291l-184 -1232h493l184 1232h292l-187 -1248h226l-83 -557h-292l52 349h-1799l218 1456h292z" />
    <glyph glyph-name="uni042A" unicode="&#x42a;" horiz-adv-x="1474" 
d="M144 1456h581l-77 -512h251q241 0 373.5 -132.5t102.5 -337.5q-33 -218 -199 -346t-419 -128h-542l184 1231h-288zM615 719l-74 -495h250q117 0 197 74t96 178q15 105 -40 174t-179 69h-250z" />
    <glyph glyph-name="uni042B" unicode="&#x42b;" horiz-adv-x="1777" 
d="M485 944h251q241 0 373.5 -132.5t102.5 -337.5q-33 -218 -199 -346t-419 -128h-542l218 1456h292zM1564 0h-292l218 1456h292zM452 719l-74 -495h250q117 0 197 74t96 178q15 105 -40 174t-179 69h-250z" />
    <glyph glyph-name="uni042C" unicode="&#x42c;" horiz-adv-x="1283" 
d="M485 944h251q241 0 373.5 -132.5t102.5 -337.5q-33 -218 -199 -346t-419 -128h-542l218 1456h292zM452 719l-74 -495h250q117 0 197 74t96 178q15 105 -40 174t-179 69h-250z" />
    <glyph glyph-name="uni042D" unicode="&#x42d;" horiz-adv-x="1288" 
d="M161 974l-2 6q31 242 191.5 370t420.5 128q243 0 376.5 -170.5t94.5 -434.5l-43 -289q-42 -278 -219.5 -441t-433.5 -163q-250 0 -377 130t-87 365l3 6h283q-22 -147 28 -212t184 -65q124 0 212 106t113 272l6 43h-446l34 225h446l4 23q26 174 -28 277t-184 103
q-126 0 -199.5 -69.5t-93.5 -209.5h-283z" />
    <glyph glyph-name="uni042E" unicode="&#x42e;" horiz-adv-x="1935" 
d="M1802 597q-43 -279 -235.5 -448.5t-466.5 -169.5q-259 0 -406 176.5t-107 441.5l1 7h-132l-90 -604h-292l218 1456h292l-94 -627h131l5 30q41 277 232.5 447.5t464.5 170.5q261 0 409 -177.5t109 -440.5zM1550 861q26 176 -42.5 282t-219.5 106q-143 0 -244.5 -110
t-126.5 -278l-39 -264q-27 -179 39 -285t217 -106q144 0 247 110t130 281z" />
    <glyph glyph-name="uni042F" unicode="&#x42f;" horiz-adv-x="1203" 
d="M204 0h-316l412 649q-106 58 -150 150t-24 224q30 204 194.5 318.5t405.5 114.5h505l-218 -1456h-292l84 561h-247zM906 1231h-213q-122 0 -192 -56.5t-85 -164.5q-17 -104 39 -170t169 -66h213z" />
    <glyph glyph-name="uni0430" unicode="&#x430;" horiz-adv-x="1100" 
d="M670 0q-11 37 -16 78.5t-4 84.5q-57 -80 -138.5 -132t-183.5 -52q-164 0 -246 88.5t-59 237.5q24 165 158 249.5t372 84.5h164l13 86q12 81 -22.5 122.5t-116.5 41.5q-68 0 -113.5 -34.5t-53.5 -94.5h-281l-1 6q15 142 154.5 239t345.5 97q188 0 297 -99t82 -280
l-67 -447q-12 -79 -10 -144t17 -132h-291zM432 195q73 0 140 38.5t97 88.5l23 152h-164q-89 0 -145.5 -47t-66.5 -112q-9 -57 22 -88.5t94 -31.5z" />
    <glyph glyph-name="uni0431" unicode="&#x431;" horiz-adv-x="1148" 
d="M685 1102q219 0 329 -156t75 -395l-3 -21q-39 -253 -195 -402t-397 -149q-232 0 -349 155t-80 396l3 21l3 16l35 235q51 335 194 482t405 154q132 3 198.5 30t76.5 89h225l1 -6q-25 -200 -146 -270.5t-365 -74.5q-148 -3 -233 -63t-94 -162l3 -5q58 54 141.5 90t172.5 36
zM627 877q-109 0 -177.5 -92.5t-89.5 -233.5l-3 -21q-24 -153 15 -240t155 -87q108 0 177 91t91 236l3 21q21 149 -17.5 237.5t-153.5 88.5z" />
    <glyph glyph-name="uni0432" unicode="&#x432;" 
d="M47 0l162 1082h452q209 0 321.5 -77t90.5 -225q-13 -79 -71 -137t-155 -89q118 -24 171 -90t40 -155q-24 -159 -148 -234t-341 -75h-522zM407 451l-35 -229h230q74 0 116.5 28.5t51.5 84.5q9 58 -21.5 87t-111.5 29h-230zM435 641h176q75 1 116.5 27t49.5 77
q8 61 -28 87.5t-121 26.5h-160z" />
    <glyph glyph-name="uni0433" unicode="&#x433;" horiz-adv-x="855" 
d="M894 856h-447l-128 -856h-292l162 1082h739z" />
    <glyph glyph-name="uni0434" unicode="&#x434;" horiz-adv-x="1365" 
d="M96 224v1h31q76 0 124.5 96.5t92.5 317.5l88 443h801l-129 -858h150l-88 -582h-292l54 358h-643l-54 -358h-292l88 582h69zM635 639q-27 -134 -61 -237t-78 -178h317l94 625h-230z" />
    <glyph glyph-name="uni0435" unicode="&#x435;" horiz-adv-x="1071" 
d="M498 -21q-232 0 -351 150.5t-83 380.5l6 40q37 252 190.5 402.5t386.5 149.5q210 0 310.5 -135t66.5 -358l-22 -151h-646l-2 -5q-12 -115 38 -182.5t170 -67.5q94 0 169 20.5t152 60.5l52 -180q-74 -53 -190 -89t-247 -36zM614 877q-84 0 -141.5 -61t-83.5 -159l2 -6h354
l3 22q15 98 -15.5 151t-118.5 53z" />
    <glyph glyph-name="uni0436" unicode="&#x436;" horiz-adv-x="1661" 
d="M1036 408h-81l-61 -408h-290l61 408h-80l-274 -408h-374l442 585l-262 497h368l162 -408h58l61 408h290l-61 -408h61l283 408h362l3 -5l-407 -491l265 -586h-373z" />
    <glyph glyph-name="uni0437" unicode="&#x437;" horiz-adv-x="1140" 
d="M1071 786q-12 -76 -69 -136t-148 -95q91 -33 134.5 -96.5t30.5 -152.5q-24 -157 -175 -241.5t-373 -84.5q-186 0 -314.5 86.5t-98.5 247.5l2 6h282q-9 -57 37 -93.5t140 -36.5q88 0 145.5 40t66.5 95q10 72 -34.5 103.5t-139.5 31.5h-176l8 56l9 62l2 10l9 58h176
q82 0 132.5 32t59.5 87q7 53 -30 88.5t-125 35.5q-77 0 -132 -32t-63 -86h-281l-1 6q16 151 156.5 237.5t337.5 86.5q211 0 332.5 -83t99.5 -232z" />
    <glyph glyph-name="uni0438" unicode="&#x438;" 
d="M840 1082h291l-162 -1082h-291l98 658l-6 2l-451 -660h-292l162 1082h292l-99 -658l6 -2z" />
    <glyph glyph-name="uni0439" unicode="&#x439;" 
d="M840 1082h291l-162 -1082h-291l98 658l-6 2l-451 -660h-292l162 1082h292l-99 -658l6 -2zM1061 1553l1 -6q-14 -132 -117.5 -210t-262.5 -78q-153 0 -238.5 81t-62.5 207l2 6h214q-9 -55 17 -88t92 -33q61 0 97 34.5t44 86.5h214z" />
    <glyph glyph-name="uni043A" unicode="&#x43a;" horiz-adv-x="1167" 
d="M514 405h-113l-60 -405h-292l162 1082h292l-62 -412h88l309 412h362l2 -5l-428 -497l303 -580h-389z" />
    <glyph glyph-name="uni043B" unicode="&#x43b;" horiz-adv-x="1149" 
d="M1131 1082l-162 -1082h-291l128 856h-260l-35 -235q-50 -332 -168.5 -476.5t-357.5 -144.5h-47l31 230l32 1q96 0 140.5 84t77.5 306l69 461h843z" />
    <glyph glyph-name="uni043C" unicode="&#x43c;" horiz-adv-x="1557" 
d="M737 341l6 -1l390 742h365l-162 -1082h-291l96 645l-5 2l-348 -647h-196l-150 633l-6 -1l-95 -632h-292l162 1082h362z" />
    <glyph glyph-name="uni043D" unicode="&#x43d;" 
d="M967 0h-292l63 420h-356l-63 -420h-292l162 1082h292l-66 -438h356l66 438h292z" />
    <glyph glyph-name="uni043E" unicode="&#x43e;" 
d="M70 551q37 251 193.5 401t397.5 150q231 0 348 -156t82 -395l-3 -21q-39 -253 -195 -402t-398 -149q-231 0 -348 155.5t-80 395.5zM358 530q-24 -153 15 -240t155 -87q108 0 177 91t91 236l3 21q21 149 -17.5 237.5t-153.5 88.5q-109 0 -178 -92.5t-89 -233.5z" />
    <glyph glyph-name="uni043F" unicode="&#x43f;" 
d="M969 0h-292l128 856h-358l-128 -856h-292l162 1082h942z" />
    <glyph glyph-name="uni0440" unicode="&#x440;" 
d="M1085 511q-38 -249 -169 -390.5t-332 -141.5q-83 0 -144.5 33.5t-100.5 97.5l-78 -526h-291l224 1498h263l-2 -128q59 72 132 110t163 38q193 0 284 -158.5t54 -411.5zM796 532q23 157 -13.5 250t-142.5 93q-64 0 -115 -28.5t-87 -80.5l-71 -468q20 -47 63 -71t111 -24
q102 0 166 84t86 224z" />
    <glyph glyph-name="uni0441" unicode="&#x441;" horiz-adv-x="1056" 
d="M514 203q73 0 126.5 46t65.5 121h265l2 -6q-22 -170 -162.5 -277.5t-329.5 -107.5q-231 0 -343.5 155.5t-76.5 390.5l4 30q37 247 189 397t393 150q191 0 298.5 -115t75.5 -300l-2 -5h-267q13 86 -22.5 140.5t-115.5 54.5q-109 0 -172.5 -92t-84.5 -230l-4 -30
q-23 -149 11 -235.5t150 -86.5z" />
    <glyph glyph-name="uni0442" unicode="&#x442;" horiz-adv-x="1070" 
d="M1077 859h-347l-128 -859h-293l128 859h-340l33 223h980z" />
    <glyph glyph-name="uni0443" unicode="&#x443;" horiz-adv-x="1046" 
d="M490 454l2 -59l6 -1l311 688h314l-625 -1244q-63 -116 -154.5 -195.5t-249.5 -79.5q-35 0 -66.5 6t-74.5 17l66 213q12 -2 27 -4t27 -2q69 0 115 36.5t75 87.5l46 83l-222 1082h314z" />
    <glyph glyph-name="uni0444" unicode="&#x444;" horiz-adv-x="1790" 
d="M62 532q39 266 172 418t336 152q79 0 138 -33.5t100 -96.5l88 588h292l-88 -585q58 61 127 94t153 33q193 0 284.5 -159t54.5 -411l-3 -21q-38 -249 -169 -390.5t-333 -141.5q-83 0 -143.5 32t-100.5 93l-78 -520h-292l77 513q-58 -58 -126.5 -88t-150.5 -30
q-191 0 -284 148t-57 384zM1426 532q24 158 -12 251.5t-143 93.5q-63 0 -114 -28.5t-88 -79.5l-70 -473q20 -45 62.5 -69t109.5 -24q102 0 166 84t86 224zM351 511q-23 -148 12.5 -228t143.5 -80q63 0 113.5 25t86.5 73l71 476q-21 48 -62.5 74t-104.5 26q-102 0 -168.5 -97
t-88.5 -248z" />
    <glyph glyph-name="uni0445" unicode="&#x445;" horiz-adv-x="1046" 
d="M550 739l6 -1l217 344h330l-406 -535l255 -547h-329l-123 359l-231 -359h-330l419 547l-247 535h328z" />
    <glyph glyph-name="uni0446" unicode="&#x446;" horiz-adv-x="1247" 
d="M189 1082h292l-128 -858h358l128 858h292l-129 -858h157l-88 -582h-291l54 358h-807z" />
    <glyph glyph-name="uni0447" unicode="&#x447;" horiz-adv-x="1147" 
d="M961 0h-292l51 343q-38 -8 -77 -11.5t-73 -3.5q-231 0 -349.5 103t-86.5 311l51 340h292l-51 -340q-16 -111 24.5 -150t153.5 -39q37 0 74.5 3.5t75.5 12.5l77 513h292z" />
    <glyph glyph-name="uni0448" unicode="&#x448;" horiz-adv-x="1691" 
d="M481 1082l-128 -858h294l128 858h293l-128 -858h294l128 858h292l-162 -1082h-1465l162 1082h292z" />
    <glyph glyph-name="uni0449" unicode="&#x449;" horiz-adv-x="1855" 
d="M481 1082l-128 -858h294l128 858h293l-128 -858h294l128 858h292l-128 -853h223l-88 -589h-292l54 360h-1396l162 1082h292z" />
    <glyph glyph-name="uni044A" unicode="&#x44a;" horiz-adv-x="1302" 
d="M96 1082h606l-53 -350h204q209 0 323 -101.5t90 -262.5q-26 -171 -164.5 -269.5t-358.5 -98.5h-496l128 856h-313zM616 508l-43 -285h203q86 0 137.5 40.5t61.5 102.5q9 63 -28.5 102.5t-127.5 39.5h-203z" />
    <glyph glyph-name="uni044B" unicode="&#x44b;" horiz-adv-x="1703" 
d="M471 732h204q209 0 323 -101.5t90 -262.5q-26 -171 -164.5 -269.5t-358.5 -98.5h-496l162 1082h293zM1427 0h-292l162 1082h292zM438 508l-43 -285h203q86 0 137.5 40.5t61.5 102.5q9 63 -28.5 102.5t-127.5 39.5h-203z" />
    <glyph glyph-name="uni044C" unicode="&#x44c;" horiz-adv-x="1143" 
d="M451 732h204q209 0 323 -101.5t90 -262.5q-26 -171 -164.5 -269.5t-358.5 -98.5h-496l162 1082h293zM418 508l-43 -285h203q86 0 137.5 40.5t61.5 102.5q9 63 -28.5 102.5t-127.5 39.5h-203z" />
    <glyph glyph-name="uni044D" unicode="&#x44d;" horiz-adv-x="1064" 
d="M557 877q-74 0 -128.5 -46.5t-65.5 -119.5h-265l-2 6q20 169 162 277t332 108q228 0 341 -156.5t78 -390.5l-4 -30q-38 -247 -190.5 -396.5t-391.5 -149.5q-192 0 -300.5 115t-75.5 300l2 5h267q-14 -88 23 -142t117 -54q92 0 152.5 70t85.5 179l-3 6h-279l26 175h287
q6 113 -33 178.5t-135 65.5z" />
    <glyph glyph-name="uni044E" unicode="&#x44e;" horiz-adv-x="1662" 
d="M444 663h156q58 203 206 321t361 118q231 0 348 -156t82 -395l-3 -21q-39 -253 -195 -402t-398 -149q-208 0 -324.5 127t-111.5 332h-155l-65 -438h-292l162 1082h292zM864 530q-24 -153 15 -240t155 -87q108 0 177 91t91 236l3 21q21 149 -17.5 237.5t-153.5 88.5
q-109 0 -178 -92.5t-89 -233.5z" />
    <glyph glyph-name="uni044F" unicode="&#x44f;" 
d="M1106 1082l-162 -1082h-290l57 379h-176l-269 -379h-295l305 430q-92 44 -135.5 120.5t-28.5 172.5q24 163 163.5 261t354.5 98h476zM403 715q-9 -58 28 -98.5t118 -40.5h191l43 283h-186q-79 0 -132.5 -44.5t-61.5 -99.5z" />
    <glyph glyph-name="uni0450" unicode="&#x450;" horiz-adv-x="1071" 
d="M498 -21q-232 0 -351 150.5t-83 380.5l6 40q37 252 190.5 402.5t386.5 149.5q210 0 310.5 -135t66.5 -358l-22 -151h-646l-2 -5q-12 -115 38 -182.5t170 -67.5q94 0 169 20.5t152 60.5l52 -180q-74 -53 -190 -89t-247 -36zM614 877q-84 0 -141.5 -61t-83.5 -159l2 -6h354
l3 22q15 98 -15.5 151t-118.5 53zM783 1279h-251l-235 261l2 5h326z" />
    <glyph glyph-name="uni0451" unicode="&#x451;" horiz-adv-x="1071" 
d="M498 -21q-232 0 -351 150.5t-83 380.5l6 40q37 252 190.5 402.5t386.5 149.5q210 0 310.5 -135t66.5 -358l-22 -151h-646l-2 -5q-12 -115 38 -182.5t170 -67.5q94 0 169 20.5t152 60.5l52 -180q-74 -53 -190 -89t-247 -36zM614 877q-84 0 -141.5 -61t-83.5 -159l2 -6h354
l3 22q15 98 -15.5 151t-118.5 53zM1026 1280h-266l29 204h266zM526 1280h-266l29 204h266z" />
    <glyph glyph-name="uni0452" unicode="&#x452;" 
d="M655 1206h-157l-39 -255q63 72 142.5 111.5t169.5 39.5q163 0 245.5 -113.5t47.5 -346.5l-26 -172h2l-77 -511q-30 -197 -145 -296.5t-297 -99.5q-39 0 -72.5 4t-68.5 13l47 220q21 -6 45.5 -9t51.5 -3q55 0 94 45t52 126l6 41l71 470l26 174q19 131 -13.5 181t-114.5 50
q-66 0 -118.5 -23t-91.5 -65l-118 -787h-292l181 1206h-140l27 180h140l26 174h292l-26 -174h157z" />
    <glyph glyph-name="uni0453" unicode="&#x453;" horiz-adv-x="855" 
d="M894 856h-447l-128 -856h-292l162 1082h739zM619 1523h324l2 -6l-314 -260h-242l-2 5z" />
    <glyph glyph-name="uni0454" unicode="&#x454;" horiz-adv-x="1064" 
d="M514 203q73 0 126.5 46t65.5 121h265l2 -6q-22 -170 -162.5 -277.5t-329.5 -107.5q-231 0 -343.5 155.5t-76.5 390.5l4 30q37 247 189 397t393 150q191 0 298.5 -115t75.5 -300l-2 -5h-267q13 86 -22.5 140.5t-115.5 54.5q-96 0 -156.5 -72t-83.5 -182l3 -6h296l-27 -175
h-302q-6 -112 32.5 -175.5t137.5 -63.5z" />
    <glyph glyph-name="uni0455" unicode="&#x455;" horiz-adv-x="1056" 
d="M664 300q7 50 -34.5 83t-164.5 60q-184 38 -272 115t-70 209q20 144 150.5 239.5t328.5 95.5q197 0 310.5 -99t88.5 -243l-2 -6h-282q9 67 -27 107t-116 40q-67 0 -114.5 -35t-54.5 -86q-7 -52 30.5 -82t165.5 -56q193 -40 279.5 -117.5t68.5 -213.5
q-22 -152 -158.5 -242t-343.5 -90q-208 0 -322 111t-89 248l3 6h267q-9 -87 39.5 -126t135.5 -39q77 0 126 33t57 88z" />
    <glyph glyph-name="uni0456" unicode="&#x456;" horiz-adv-x="547" 
d="M339 0h-292l162 1082h292zM540 1341h-292l33 219h292z" />
    <glyph glyph-name="uni0457" unicode="&#x457;" horiz-adv-x="562" 
d="M345 0h-292l162 1082h292zM765 1258h-266l29 204h266zM265 1258h-266l29 204h266z" />
    <glyph glyph-name="uni0458" unicode="&#x458;" horiz-adv-x="543" 
d="M509 1082l-168 -1122q-30 -198 -145 -297.5t-297 -99.5q-38 0 -71.5 4t-68.5 13l47 223q22 -6 45 -9t49 -3q58 0 96 41.5t52 127.5l168 1122h293zM542 1343h-293l33 217h293z" />
    <glyph glyph-name="uni0459" unicode="&#x459;" horiz-adv-x="1771" 
d="M1132 1082l-53 -349h204q210 0 324 -102t90 -263q-26 -171 -164.5 -269.5t-359.5 -98.5h-495l128 856h-232l-35 -235q-50 -328 -176 -474.5t-368 -146.5h-47l31 227h31q86 0 146.5 97.5t90.5 296.5l69 461h816zM1046 508l-43 -286h203q86 0 138.5 42.5t62.5 105.5
q8 62 -29.5 100t-128.5 38h-203z" />
    <glyph glyph-name="uni045A" unicode="&#x45a;" horiz-adv-x="1768" 
d="M418 665h356l63 417h292l-53 -350h204q209 0 323 -101.5t90 -262.5q-26 -171 -164.5 -269.5t-358.5 -98.5h-495l66 441h-356l-66 -441h-292l162 1082h292zM1043 508l-43 -286h203q85 0 137.5 42.5t62.5 105.5q8 62 -29.5 100t-127.5 38h-203z" />
    <glyph glyph-name="uni045B" unicode="&#x45b;" 
d="M802 1211h-304l-39 -260q63 72 142.5 111.5t169.5 39.5q163 0 245.5 -113.5t47.5 -346.5l-96 -642h-292l97 644q19 131 -13.5 181t-114.5 50q-66 0 -118.5 -23t-91.5 -65l-118 -787h-292l181 1211h-75l27 181h75l26 168h292l-26 -168h304z" />
    <glyph glyph-name="uni045C" unicode="&#x45c;" horiz-adv-x="1167" 
d="M514 405h-113l-60 -405h-292l162 1082h292l-62 -412h88l309 412h362l2 -5l-428 -497l303 -580h-389zM767 1522h324l2 -6l-314 -260h-242l-2 5z" />
    <glyph glyph-name="uni045D" unicode="&#x45d;" 
d="M840 1082h291l-162 -1082h-291l98 658l-6 2l-451 -660h-292l162 1082h292l-99 -658l6 -2zM819 1257h-251l-235 261l2 5h326z" />
    <glyph glyph-name="uni045E" unicode="&#x45e;" horiz-adv-x="1046" 
d="M490 454l2 -59l6 -1l311 688h314l-625 -1244q-63 -116 -154.5 -195.5t-249.5 -79.5q-35 0 -66.5 6t-74.5 17l66 213q12 -2 27 -4t27 -2q69 0 115 36.5t75 87.5l46 83l-222 1082h314zM1006 1553l1 -6q-14 -132 -117.5 -210t-262.5 -78q-153 0 -238.5 81t-62.5 207l2 6h214
q-9 -55 17 -88t92 -33q61 0 97 34.5t44 86.5h214z" />
    <glyph glyph-name="uni045F" unicode="&#x45f;" 
d="M481 1082l-128 -858h358l128 858h292l-162 -1082h-325l-54 -358h-291l54 358h-326l162 1082h292z" />
    <glyph glyph-name="uni0460" unicode="&#x460;" horiz-adv-x="1964" 
d="M1232 1435q60 20 127.5 31t138.5 11q217 0 341.5 -168.5t85.5 -428.5l-46 -304q-41 -275 -213.5 -436t-410.5 -161q-107 0 -191 23t-146 64q-73 -41 -164 -64t-203 -23q-227 0 -356.5 168t-89.5 429l46 304q41 274 209 435.5t398 161.5q67 0 132.5 -11t119.5 -31
l-94 -213q-36 14 -83 22t-102 8q-101 0 -183 -104.5t-106 -265.5l-46 -306q-26 -172 25 -272.5t163 -100.5q81 0 133.5 21t83.5 52l42 277h-188l30 202h668l-30 -202h-188l-41 -276q22 -33 65 -53.5t129 -20.5q106 0 190 105t109 268l46 306q25 169 -23 269.5t-153 100.5
q-54 0 -105 -8t-91 -22z" />
    <glyph glyph-name="uni0461" unicode="&#x461;" horiz-adv-x="1461" 
d="M483 403l6 -147l6 -1l63 148l124 300l-54 379h290l42 -679l3 -77l6 -1l4 11q95 154 152 346t83 400h305q-67 -287 -182.5 -554.5t-276.5 -527.5h-272l-47 327l-5 1l-162 -328h-264l-206 1082h305z" />
    <glyph glyph-name="uni0462" unicode="&#x462;" horiz-adv-x="1283" 
d="M761 1090h-254l-22 -146h251q241 0 373.5 -132.5t102.5 -337.5q-33 -218 -199 -346t-419 -128h-542l163 1090h-125l27 181h125l28 185h292l-28 -185h254zM452 719l-74 -495h250q117 0 197 74t96 178q15 105 -40 174t-179 69h-250z" />
    <glyph glyph-name="uni0463" unicode="&#x463;" horiz-adv-x="1143" 
d="M763 1105h-256l-56 -373h204q209 0 323 -101.5t90 -262.5q-26 -171 -164.5 -269.5t-358.5 -98.5h-496l165 1105h-139l27 181h139l42 276h293l-42 -276h256zM418 508l-43 -285h203q86 0 137.5 40.5t61.5 102.5q9 63 -28.5 102.5t-127.5 39.5h-203z" />
    <glyph glyph-name="uni0464" unicode="&#x464;" horiz-adv-x="1828" 
d="M1238 611h-369l-4 -27q-26 -174 35.5 -277t200.5 -103q126 0 203 69.5t98 209.5h282l2 -6q-32 -242 -195 -369.5t-424 -127.5q-252 0 -392.5 170t-100.5 434l4 27h-120l-91 -611h-292l218 1456h292l-93 -620h119l6 37q41 276 221.5 440.5t438.5 164.5q256 0 391 -131.5
t96 -364.5l-3 -6h-284q22 145 -35 211t-199 66q-126 0 -218 -107t-117 -271l-6 -39h369z" />
    <glyph glyph-name="uni0465" unicode="&#x465;" horiz-adv-x="1546" 
d="M1086 461h-315q-10 -121 28 -189.5t141 -68.5q73 0 126.5 46t65.5 121h265l2 -6q-22 -170 -162.5 -277.5t-329.5 -107.5q-214 0 -327.5 135t-99.5 347h-68l-69 -461h-292l162 1082h292l-66 -440h69q54 210 200 335t365 125q191 0 298.5 -115t75.5 -300l-2 -5h-267
q13 86 -22.5 140.5t-115.5 54.5q-90 0 -149 -64.5t-84 -164.5l2 -6h304z" />
    <glyph glyph-name="uni0466" unicode="&#x466;" horiz-adv-x="1346" 
d="M887 390h-112l-58 -390h-245l58 390h-100l-187 -390h-305l732 1456h300l293 -1456h-306zM527 591h324l-86 480l-6 1z" />
    <glyph glyph-name="uni0467" unicode="&#x467;" horiz-adv-x="1146" 
d="M694 271h-77l-41 -271h-191l41 271h-69l-133 -271h-297l570 1082h300l247 -1082h-297zM447 456h212l-43 221l-10 112l-6 1l-44 -113z" />
    <glyph glyph-name="uni0468" unicode="&#x468;" horiz-adv-x="1919" 
d="M473 591h291l435 865h300l293 -1456h-306l-70 390h-112l-58 -390h-245l58 390h-100l-187 -390h-305l195 389h-219l-58 -389h-292l218 1456h292zM1056 591h324l-86 480l-6 1z" />
    <glyph glyph-name="uni0469" unicode="&#x469;" horiz-adv-x="1638" 
d="M446 455h168l330 627h300l247 -1082h-297l-53 271h-77l-41 -271h-191l41 271h-69l-133 -271h-585l162 1082h292zM894 456h212l-43 221l-10 112l-6 1l-44 -113zM418 272l-36 -244l5 -2l130 246h-99z" />
    <glyph glyph-name="uni046A" unicode="&#x46a;" horiz-adv-x="1784" 
d="M1216 804q234 -8 347.5 -118.5t79.5 -341.5l-52 -344h-292l52 344q20 136 -29.5 184.5t-179.5 48.5h-84l-87 -577h-292l87 577h-110q-124 0 -192 -52t-87 -181l-52 -344h-292l52 344q37 251 185 355t413 106l-277 651h1282zM955 840l260 388h-404z" />
    <glyph glyph-name="uni046B" unicode="&#x46b;" horiz-adv-x="1501" 
d="M1026 607q175 -22 258 -125.5t54 -302.5l-27 -179h-291l27 179q19 128 -17.5 173.5t-137.5 45.5h-11l-60 -398h-292l59 398h-19q-96 0 -149.5 -48.5t-71.5 -170.5l-27 -179h-291l27 179q32 215 145 315t310 116l-204 472h1065zM771 636l6 -1l161 259h-252z" />
    <glyph glyph-name="uni046C" unicode="&#x46c;" horiz-adv-x="2383" 
d="M1309 578h-970l34 228h970zM366 0h-292l218 1456h292zM1783 804q234 -8 347.5 -118.5t79.5 -341.5l-52 -344h-292l52 344q20 136 -29.5 184.5t-179.5 48.5h-84l-87 -577h-292l87 577h-110q-124 0 -192 -52t-87 -181l-52 -344h-292l52 344q37 251 185 355t413 106
l-277 651h1282zM1522 840l260 388h-404z" />
    <glyph glyph-name="uni046D" unicode="&#x46d;" horiz-adv-x="2062" 
d="M1209 406h-996l31 207h996zM345 0h-292l162 1082h292zM1532 607q175 -22 258 -125.5t54 -302.5l-27 -179h-291l27 179q19 128 -17.5 173.5t-137.5 45.5h-11l-60 -398h-292l59 398h-19q-96 0 -149.5 -48.5t-71.5 -170.5l-27 -179h-291l27 179q32 215 145 315t310 116
l-204 472h1065zM1277 636l6 -1l161 259h-252z" />
    <glyph glyph-name="uni046E" unicode="&#x46e;" horiz-adv-x="1052" 
d="M519 1456q242 0 367 -96t97 -285q-19 -123 -91 -205.5t-188 -124.5q124 -44 183 -130t41 -207q-32 -210 -184 -319.5t-385 -109.5h-58q-56 0 -88.5 -26t-39.5 -70q-10 -63 26 -97.5t94 -62.5l-107 -171q-154 36 -223 132t-50 236q23 150 126.5 220.5t274.5 70.5h64
q102 0 173.5 54t84.5 139q17 114 -44 170t-196 56h-143l10 71l24 161h150q109 0 173 51.5t78 137.5q12 83 -38 128.5t-165 45.5h-260l34 231h260zM750 1788l136 127h264l-3 -17l-319 -255h-199l-243 256l3 16h264z" />
    <glyph glyph-name="uni046F" unicode="&#x46f;" horiz-adv-x="1033" 
d="M463 1082q230 0 351 -75.5t99 -223.5q-13 -88 -68 -149t-147 -95q102 -34 151 -94t38 -141q-25 -158 -162.5 -241.5t-350.5 -83.5h-49q-64 0 -100.5 -26t-43.5 -70q-10 -63 21.5 -98t83.5 -62l-105 -157q-125 42 -193.5 135.5t-51.5 218.5q21 136 115.5 200t251.5 64h56
q97 0 163 36t75 93q10 68 -44.5 102t-168.5 34h-159l12 82l15 95h166q89 0 140 36.5t61 97.5q8 55 -38 86t-148 31h-260l30 205h260zM626 1444l136 127h264l-3 -17l-319 -255h-199l-243 256l3 16h264z" />
    <glyph glyph-name="uni0470" unicode="&#x470;" horiz-adv-x="1483" 
d="M895 582l5 -2q115 16 190 107.5t100 251.5l77 517h293l-77 -517q-41 -271 -206.5 -422t-417.5 -174l-51 -343h-291l51 342q-239 23 -365 180t-86 417l77 517h291l-77 -517q-25 -164 25.5 -254t165.5 -106l5 1l131 876h291z" />
    <glyph glyph-name="uni0471" unicode="&#x471;" horiz-adv-x="1526" 
d="M981 1082l-128 -852l5 -3q137 29 217.5 127t102.5 238q15 118 4.5 239.5t-40.5 250.5h271q43 -98 60 -221.5t-4 -268.5q-39 -250 -196 -412.5t-457 -193.5l-69 -464h-292l70 468q-246 33 -367.5 182t-80.5 418l73 492h292l-74 -495q-25 -168 26 -254t161 -106l5 1
l129 854h292z" />
    <glyph glyph-name="uni0472" unicode="&#x472;" horiz-adv-x="1410" 
d="M1322 597q-43 -279 -235.5 -448.5t-466.5 -169.5q-259 0 -406 176.5t-107 441.5l39 262q41 277 232.5 447.5t464.5 170.5q261 0 409 -177.5t109 -440.5zM922 754q33 0 73.5 19.5t69.5 51.5l5 36q26 176 -42.5 282t-219.5 106q-143 0 -244.5 -110t-126.5 -278l-11 -72
q36 38 82.5 59t101.5 21q63 0 156.5 -57.5t155.5 -57.5zM1034 616q-36 -31 -79.5 -47t-93.5 -16q-78 0 -163 58t-148 58q-42 0 -89.5 -32t-67.5 -75q-17 -165 50.5 -260.5t210.5 -95.5q144 0 247 110t130 281z" />
    <glyph glyph-name="uni0473" unicode="&#x473;" 
d="M70 551q37 251 193.5 401t397.5 150q231 0 348 -156t82 -395l-3 -21q-39 -253 -195 -402t-398 -149q-231 0 -348 155.5t-80 395.5zM717 567q24 0 48.5 17.5t40.5 45.5q4 115 -38 181t-140 66q-101 0 -167 -80t-83 -197l4 -4q16 22 46.5 37t63.5 15q45 0 112.5 -40.5
t112.5 -40.5zM445 493q-29 0 -57 -24t-39 -59q2 -99 45 -153t134 -54q93 0 156 67.5t85 173.5l-3 5q-15 -18 -41 -28t-54 -10q-56 0 -118.5 41t-107.5 41z" />
    <glyph glyph-name="uni0474" unicode="&#x474;" horiz-adv-x="1315" 
d="M613 395l6 -82l6 -1l29 80l314 743q76 170 173 255t228 85q32 0 57 -4.5t43 -15.5l-56 -221q-5 0 -22.5 2t-27.5 2q-41 0 -79 -32.5t-61 -87.5l-498 -1118h-300l-274 1456h308z" />
    <glyph glyph-name="uni0475" unicode="&#x475;" horiz-adv-x="1046" 
d="M462 403l3 -87l6 -1l30 88l149 374q72 162 168 243.5t225 81.5q31 0 56 -4.5t44 -14.5l-57 -221q-3 1 -20 2.5t-30 1.5q-36 0 -72 -30t-54 -72l-347 -764h-279l-186 1082h305z" />
    <glyph glyph-name="uni0476" unicode="&#x476;" horiz-adv-x="1315" 
d="M613 395l6 -82l6 -1l29 80l314 743q76 170 173 255t228 85q32 0 57 -4.5t43 -15.5l-56 -221q-5 0 -22.5 2t-27.5 2q-41 0 -79 -32.5t-61 -87.5l-498 -1118h-300l-274 1456h308zM736 1590h-240l-246 260l3 6h278zM1078 1590h-236l-205 266h282z" />
    <glyph glyph-name="uni0477" unicode="&#x477;" horiz-adv-x="1046" 
d="M462 403l3 -87l6 -1l30 88l149 374q72 162 168 243.5t225 81.5q31 0 56 -4.5t44 -14.5l-57 -221q-3 1 -20 2.5t-30 1.5q-36 0 -72 -30t-54 -72l-347 -764h-279l-186 1082h305zM598 1334h-240l-246 260l3 6h278zM940 1334h-236l-205 266h282z" />
    <glyph glyph-name="uni0478" unicode="&#x478;" horiz-adv-x="2455" 
d="M1322 597q-43 -279 -235.5 -448.5t-466.5 -169.5q-259 0 -406 176.5t-107 441.5l39 262q41 277 232.5 447.5t464.5 170.5q261 0 409 -177.5t109 -440.5zM1070 861q26 176 -42.5 282t-219.5 106q-143 0 -244.5 -110t-126.5 -278l-39 -264q-27 -179 39 -285t217 -106
q144 0 247 110t130 281zM1899 454l2 -59l6 -1l311 688h314l-625 -1244q-63 -116 -154.5 -195.5t-249.5 -79.5q-35 0 -66.5 6t-74.5 17l66 213q12 -2 27 -4t27 -2q69 0 115 36.5t75 87.5l46 83l-222 1082h314z" />
    <glyph glyph-name="uni0479" unicode="&#x479;" horiz-adv-x="2202" 
d="M70 551q37 251 193.5 401t397.5 150q231 0 348 -156t82 -395l-3 -21q-39 -253 -195 -402t-398 -149q-231 0 -348 155.5t-80 395.5zM358 530q-24 -153 15 -240t155 -87q108 0 177 91t91 236l3 21q21 149 -17.5 237.5t-153.5 88.5q-109 0 -178 -92.5t-89 -233.5zM1646 454
l2 -59l6 -1l311 688h314l-625 -1244q-63 -116 -154.5 -195.5t-249.5 -79.5q-35 0 -66.5 6t-74.5 17l66 213q12 -2 27 -4t27 -2q69 0 115 36.5t75 87.5l46 83l-222 1082h314z" />
    <glyph glyph-name="uni047A" unicode="&#x47a;" horiz-adv-x="1410" 
d="M890 1123h-195l69 454h195zM704 -136h-195l69 464h195zM1322 597q-43 -279 -235.5 -448.5t-466.5 -169.5q-259 0 -406 176.5t-107 441.5l39 262q41 277 232.5 447.5t464.5 170.5q261 0 409 -177.5t109 -440.5zM1070 861q26 176 -42.5 282t-219.5 106q-143 0 -244.5 -110
t-126.5 -278l-39 -264q-27 -179 39 -285t217 -106q144 0 247 110t130 281z" />
    <glyph glyph-name="uni047B" unicode="&#x47b;" 
d="M713 763h-196l67 441h196zM575 -123h-195l68 454h195zM70 551q37 251 193.5 401t397.5 150q231 0 348 -156t82 -395l-3 -21q-39 -253 -195 -402t-398 -149q-231 0 -348 155.5t-80 395.5zM358 530q-24 -153 15 -240t155 -87q108 0 177 91t91 236l3 21q21 149 -17.5 237.5
t-153.5 88.5q-109 0 -178 -92.5t-89 -233.5z" />
    <glyph glyph-name="uni047C" unicode="&#x47c;" horiz-adv-x="1964" 
d="M1262 1435q53 20 113 31t123 11q218 0 340.5 -179.5t80.5 -456.5l-32 -214q-45 -298 -219.5 -473t-412.5 -175q-107 0 -190.5 27t-143.5 75q-74 -48 -166 -75t-204 -27q-227 0 -354 182t-84 466l32 214q43 291 213 463.5t400 172.5q60 0 117 -11t105 -31l-94 -213
q-30 14 -69 22t-86 8q-101 0 -185 -115.5t-110 -293.5l-32 -216q-30 -195 19 -309.5t161 -114.5q82 0 134.5 25t85.5 62l6 41h292l-6 -41q21 -39 63.5 -63t128.5 -24q106 0 193 119t115 305l32 216q28 187 -19 298t-152 111q-46 0 -89 -8t-76 -22zM1661 1877l-21 -134h-23
q-122 0 -273.5 60t-193.5 60q-47 0 -79 -25.5t-39 -76.5l-3 -18h-133l6 37q16 113 83.5 165t181.5 52q65 0 212.5 -60t259.5 -60h22zM1097 1448l-74 55l76 109l21 146h182l-19 -128z" />
    <glyph glyph-name="uni047D" unicode="&#x47d;" horiz-adv-x="1682" 
d="M1031 1061q48 20 100.5 31t109.5 11q189 0 297.5 -151.5t74.5 -385.5l-7 -45q-37 -249 -189.5 -395.5t-361.5 -146.5q-87 0 -156 23.5t-120 65.5q-64 -42 -141 -65.5t-167 -23.5q-199 0 -312 152.5t-77 389.5l7 45q36 245 184 391t348 146q53 0 104 -11t94 -31l-94 -213
q-26 14 -58.5 22t-71.5 8q-73 0 -134 -87.5t-81 -222.5l-7 -47q-22 -145 13.5 -231.5t117.5 -86.5q57 0 95.5 21t62.5 53l9 60h292l-9 -60q14 -33 43.5 -53.5t90.5 -20.5q77 0 141.5 90t85.5 228l7 47q21 142 -12 226t-109 84q-39 0 -75 -8t-65 -22zM1487 1496l-20 -134h-23
q-121 0 -272.5 60t-194.5 60q-46 0 -78.5 -25.5t-39.5 -76.5l-3 -18h-133l6 37q16 113 83.5 165t181.5 52q65 0 212.5 -60t259.5 -60h21zM927 1080l-74 55l76 109l19 133h182l-18 -115z" />
    <glyph glyph-name="uni047E" unicode="&#x47e;" horiz-adv-x="1965" 
d="M888 1687l-19 -127l-178 1l37 238h885l-36 -239h-179l19 127h-181l-19 -127h-181l19 127h-167zM1261 1222q40 14 91 22t105 8q105 0 153 -100.5t23 -269.5l-46 -306q-25 -163 -109 -268t-190 -105q-86 0 -129 20.5t-65 53.5l41 276h188l30 202h-668l-30 -202h188
l-42 -277q-31 -31 -83.5 -52t-133.5 -21q-112 0 -163 100.5t-25 272.5l46 306q24 161 106 265.5t183 104.5q55 0 102 -8t83 -22l94 213q-54 20 -119.5 31t-132.5 11q-230 0 -398 -161.5t-209 -435.5l-46 -304q-40 -261 89.5 -429t356.5 -168q112 0 203 23t164 64
q62 -41 146 -64t191 -23q238 0 410.5 161t213.5 436l46 304q39 260 -85.5 428.5t-341.5 168.5q-71 0 -138.5 -11t-127.5 -31z" />
    <glyph glyph-name="uni047F" unicode="&#x47f;" horiz-adv-x="1461" 
d="M634 1345l-19 -127l-178 1l37 238h824l-36 -239h-179l19 127h-151l-19 -127h-181l19 127h-136zM403 1082h-305l206 -1082h264l162 328l5 -1l47 -327h272q161 260 276.5 527.5t182.5 554.5h-305q-26 -208 -83 -400t-152 -346l-4 -11l-6 1l-3 77l-42 679h-290l54 -379
l-124 -300l-63 -148l-6 1l-6 147z" />
    <glyph glyph-name="uni0480" unicode="&#x480;" horiz-adv-x="1277" 
d="M707 -366h-291l53 354q-200 35 -302.5 197.5t-67.5 397.5l44 289q41 277 218 441t435 164q248 0 374.5 -131t87.5 -365l-3 -6h-283q22 146 -27.5 211.5t-182.5 65.5q-125 0 -213.5 -106t-113.5 -272l-44 -291q-27 -175 27 -277.5t186 -102.5h188z" />
    <glyph glyph-name="uni0481" unicode="&#x481;" horiz-adv-x="1095" 
d="M641 -367h-292l53 356q-180 34 -264.5 182t-52.5 354l4 30q37 246 189.5 396.5t391.5 150.5q191 0 299.5 -115.5t76.5 -299.5l-2 -5h-267q13 86 -23.5 140.5t-116.5 54.5q-106 0 -171.5 -92.5t-85.5 -229.5l-4 -30q-23 -147 12 -234.5t149 -87.5h189z" />
    <glyph glyph-name="uni0482" unicode="&#x482;" horiz-adv-x="1275" 
d="M588 449l264 -172l-92 -128l-265 170l-229 -319h-175l285 398l-264 171l91 128l267 -171l256 360l-264 171l92 130l265 -171l234 326h172l-288 -405l267 -171l-95 -127l-263 170z" />
    <glyph glyph-name="uni0483" unicode="&#x483;" horiz-adv-x="912" 
d="M386 1312l-19 -126l-177 1l37 238h546l15 108l177 -1l-33 -220h-546z" />
    <glyph glyph-name="uni0484" unicode="&#x484;" horiz-adv-x="952" 
d="M259 1437q114 0 283.5 60t237.5 60q115 0 168 -52t37 -165l-6 -37h-136l3 18q7 51 -18.5 76.5t-72.5 25.5q-44 0 -218 -60t-297 -60h-23l21 134h21z" />
    <glyph glyph-name="uni0485" unicode="&#x485;" horiz-adv-x="476" 
d="M270 1500l21 141h190l-25 -159l42 -109l-91 -68z" />
    <glyph glyph-name="uni0486" unicode="&#x486;" horiz-adv-x="491" 
d="M304 1305l-71 68l74 109l23 159h190l-21 -141z" />
    <glyph glyph-name="uni0488" unicode="&#x488;" horiz-adv-x="2068" 
d="M922 1267l-2 6q7 82 70 132t161 50q92 0 143 -52t35 -130l-3 -6h-104q6 45 -14 73t-70 28q-48 0 -77 -29.5t-35 -71.5h-104zM1472 990l-2 6q7 82 70.5 132t160.5 50q92 0 143 -52t36 -130l-3 -6h-105q6 45 -13.5 73t-70.5 28q-47 0 -76.5 -29.5t-34.5 -71.5h-105z
M1583 487l-2 6q7 82 70.5 132t160.5 50q92 0 143 -52t35 -130l-3 -6h-104q6 45 -13.5 73t-70.5 28q-47 0 -76.5 -29.5t-35.5 -71.5h-104zM1308 -32l-2 6q8 82 71 132t160 50q92 0 143 -52t35 -130l-3 -6h-104q7 45 -13 73t-71 28q-47 0 -76.5 -29.5t-35.5 -71.5h-104z
M690 -316l-2 6q7 83 70 132.5t161 49.5q92 0 142.5 -51.5t35.5 -130.5l-3 -6h-104q6 46 -14 73.5t-70 27.5q-47 0 -76.5 -29t-35.5 -72h-104zM308 990l-2 6q7 82 70.5 132t161.5 50q92 0 142.5 -52t35.5 -130l-3 -6h-104q6 45 -14 73t-70 28q-48 0 -77.5 -29.5t-34.5 -71.5
h-105zM56 487l-2 6q7 82 70.5 132t160.5 50q92 0 143 -52t35 -130l-3 -6h-104q6 45 -13.5 73t-70.5 28q-47 0 -76.5 -29.5t-35.5 -71.5h-104zM144 -32l-2 6q8 82 71 132t160 50q93 0 144 -52.5t35 -129.5l-3 -6h-105q7 45 -13 73t-71 28q-47 0 -76 -29.5t-35 -71.5h-105z
" />
    <glyph glyph-name="uni0489" unicode="&#x489;" horiz-adv-x="2000" 
d="M1011 -60l9 -14l-173 -339h-96l123 353h137zM994 1126l-10 14l173 338h96l-123 -352h-136zM1598 631l14 12l315 -124l-15 -98l-335 71zM404 433l-15 -12l-314 124l14 98l336 -71zM1413 1002l5 16l344 153l57 -68q-40 -23 -324 -200zM582 21l-4 -17l-343 -153l-59 69
l324 200zM568 860l-17 2l-99 326l76 69l153 -299zM1425 161l17 -2l100 -325l-77 -71l-152 299z" />
    <glyph glyph-name="uni048A" unicode="&#x48a;" horiz-adv-x="1431" 
d="M1147 1456h292l-218 -1456h-292l145 971l-5 2l-734 -973h-291l218 1456h291l-145 -971l5 -2zM1247 1896l1 -6q-14 -132 -117.5 -210t-262.5 -78q-153 0 -238.5 81t-62.5 207l2 6h214q-9 -55 17 -88t92 -33q61 0 97 34.5t44 86.5h214zM1483 -27l-206 -315h-195l118 324
l35 228h284z" />
    <glyph glyph-name="uni048B" unicode="&#x48b;" 
d="M840 1082h291l-162 -1082h-291l98 658l-6 2l-451 -660h-292l162 1082h292l-99 -658l6 -2zM1061 1553l1 -6q-14 -132 -117.5 -210t-262.5 -78q-153 0 -238.5 81t-62.5 207l2 6h214q-9 -55 17 -88t92 -33q61 0 97 34.5t44 86.5h214zM1231 -27l-206 -315h-195l118 324
l35 228h284z" />
    <glyph glyph-name="uni048C" unicode="&#x48c;" horiz-adv-x="1283" 
d="M761 1090h-254l-22 -146h251q241 0 373.5 -132.5t102.5 -337.5q-33 -218 -199 -346t-419 -128h-542l163 1090h-125l27 181h125l28 185h292l-28 -185h254zM452 719l-74 -495h250q117 0 197 74t96 178q15 105 -40 174t-179 69h-250z" />
    <glyph glyph-name="uni048D" unicode="&#x48d;" horiz-adv-x="1143" 
d="M700 810h-237l-12 -78h204q209 0 323 -101.5t90 -262.5q-26 -171 -164.5 -269.5t-358.5 -98.5h-496l121 810h-141l27 181h141l14 91h293l-14 -91h237zM418 508l-43 -285h203q86 0 137.5 40.5t61.5 102.5q9 63 -28.5 102.5t-127.5 39.5h-203z" />
    <glyph glyph-name="uni048E" unicode="&#x48e;" horiz-adv-x="1284" 
d="M1033 401l-129 -64l-216 574l130 63zM418 528l-79 -528h-292l218 1456h557q241 0 370.5 -129.5t99.5 -335.5q-33 -217 -194 -340t-415 -123h-265zM452 753h265q117 0 192 67.5t91 168.5q16 109 -35.5 175.5t-175.5 66.5h-265z" />
    <glyph glyph-name="uni048F" unicode="&#x48f;" horiz-adv-x="1154" 
d="M772 -135l-135 -48l-116 556l135 49zM1085 511q-38 -249 -169 -390.5t-332 -141.5q-83 0 -144.5 33.5t-100.5 97.5l-78 -526h-291l224 1498h263l-2 -128q59 72 132 110t163 38q193 0 284 -158.5t54 -411.5zM796 532q23 157 -13.5 250t-142.5 93q-64 0 -115 -28.5
t-87 -80.5l-71 -468q20 -47 63 -71t111 -24q102 0 166 84t86 224z" />
    <glyph glyph-name="uni0490" unicode="&#x490;" horiz-adv-x="1138" 
d="M1200 1231h-671l-185 -1231h-292l218 1456h672l55 368h292z" />
    <glyph glyph-name="uni0491" unicode="&#x491;" horiz-adv-x="946" 
d="M726 1397h291l-81 -540h-42v-1h-447l-128 -856h-292l162 1082h489z" />
    <glyph glyph-name="uni0492" unicode="&#x492;" horiz-adv-x="1137" 
d="M675 664h-231l-100 -664h-292l99 664h-147l27 181h147l92 611h949l-33 -225h-657l-58 -386h231z" />
    <glyph glyph-name="uni0493" unicode="&#x493;" horiz-adv-x="855" 
d="M613 455h-226l-68 -455h-292l68 455h-153l27 181h153l67 446h739l-34 -226h-447l-33 -220h226z" />
    <glyph glyph-name="uni0494" unicode="&#x494;" horiz-adv-x="1145" 
d="M1186 1231h-657l-48 -319h204q256 0 401.5 -126.5t111.5 -360.5q-18 -134 -134.5 -269.5t-306.5 -192.5l-94 188q105 44 166.5 110.5t77.5 163.5q19 131 -48.5 194.5t-208.5 63.5h-204l-102 -683h-292l218 1456h949z" />
    <glyph glyph-name="uni0495" unicode="&#x495;" horiz-adv-x="1208" 
d="M894 856h-447l-22 -146h54q256 0 401.5 -127t110.5 -360q-17 -134 -133.5 -269t-306.5 -193l-95 188q106 45 167.5 111t76.5 163q20 131 -47.5 194.5t-208.5 63.5h-53l-72 -481h-292l162 1082h739z" />
    <glyph glyph-name="uni0496" unicode="&#x496;" horiz-adv-x="1870" 
d="M1190 608h-93l-91 -608h-291l91 608h-96l-420 -608h-364l577 785l-335 671h361l241 -595h74l89 595h291l-89 -595h70l412 595h360l-529 -670l335 -786h-363zM1844 -357h-292l89 591h292z" />
    <glyph glyph-name="uni0497" unicode="&#x497;" horiz-adv-x="1661" 
d="M1036 408h-81l-61 -408h-290l61 408h-80l-274 -408h-374l442 585l-262 497h368l162 -408h58l61 408h290l-61 -408h61l283 408h362l3 -5l-407 -491l265 -586h-373zM1579 -357h-292l89 591h292z" />
    <glyph glyph-name="uni0498" unicode="&#x498;" horiz-adv-x="1345" 
d="M518 852h197q132 0 208.5 54.5t91.5 150.5q12 87 -52 141t-204 54q-105 0 -187 -53t-94 -134h-282l-2 6q23 189 195 297.5t404 108.5q257 0 399.5 -109t113.5 -307q-16 -105 -92.5 -187.5t-198.5 -128.5q120 -44 177 -130t39 -207q-32 -209 -212 -319t-451 -110
q-222 0 -377 108t-118 311l2 6h284q-14 -89 53.5 -145t188.5 -56q136 0 230.5 59t108.5 149q17 119 -47 170.5t-211 51.5h-197l23 153zM616 54q84 -52 118 -121t23 -145q-16 -105 -95.5 -159.5t-190.5 -54.5q-60 0 -105 13t-78 31l58 154q23 -9 44 -14.5t52 -5.5
q51 0 73.5 22t27.5 48q7 49 -11 82.5t-62 86.5z" />
    <glyph glyph-name="uni0499" unicode="&#x499;" horiz-adv-x="1140" 
d="M1071 786q-12 -76 -69 -136t-148 -95q91 -33 134.5 -96.5t30.5 -152.5q-24 -157 -175 -241.5t-373 -84.5q-186 0 -314.5 86.5t-98.5 247.5l2 6h282q-9 -57 37 -93.5t140 -36.5q88 0 145.5 40t66.5 95q10 72 -34.5 103.5t-139.5 31.5h-176l8 56l9 62l2 10l9 58h176
q82 0 132.5 32t59.5 87q7 53 -30 88.5t-125 35.5q-77 0 -132 -32t-63 -86h-281l-1 6q16 151 156.5 237.5t337.5 86.5q211 0 332.5 -83t99.5 -232zM515 55q84 -52 118 -121t23 -145q-16 -105 -95.5 -159.5t-190.5 -54.5q-60 0 -105 13t-78 31l58 154q23 -9 44 -14.5t52 -5.5
q51 0 73.5 22t27.5 48q7 49 -11 82.5t-62 86.5z" />
    <glyph glyph-name="uni049A" unicode="&#x49a;" horiz-adv-x="1305" 
d="M536 604h-104l-90 -604h-293l218 1456h293l-89 -595h102l411 595h381l-570 -727l372 -729h-336zM1239 -357h-292l89 591h292z" />
    <glyph glyph-name="uni049B" unicode="&#x49b;" horiz-adv-x="1167" 
d="M514 405h-113l-60 -405h-292l162 1082h292l-62 -412h88l309 412h362l2 -5l-428 -497l303 -580h-389zM1101 -357h-292l89 591h292z" />
    <glyph glyph-name="uni049C" unicode="&#x49c;" horiz-adv-x="1351" 
d="M1473 1456l-480 -663l301 -793h-372l-183 604h-55l-34 -229h-167l34 229h-83l-90 -604h-292l218 1456h292l-90 -599h83l39 256h167l-39 -256h41l349 599h361z" />
    <glyph glyph-name="uni049D" unicode="&#x49d;" horiz-adv-x="1184" 
d="M1261 1082l-369 -509l223 -573h-373l-104 405h-27l-25 -172h-151l25 172h-59l-60 -405h-292l162 1082h292l-62 -412h59l29 191h151l-29 -191h26l215 412h369z" />
    <glyph glyph-name="uni049E" unicode="&#x49e;" horiz-adv-x="1305" 
d="M544 608h-107l-91 -608h-292l170 1140h-217l27 181h217l21 135h292l-21 -135h162l-27 -181h-162l-41 -279h82l488 595h354l2 -5l-599 -671l425 -780h-372z" />
    <glyph glyph-name="uni049F" unicode="&#x49f;" horiz-adv-x="1097" 
d="M466 453h-74l-68 -453h-292l181 1208h-197l27 181h197l26 171h292l-26 -171h182l-27 -181h-182l-80 -533h65l320 407h331l2 -5l-421 -488l312 -589h-336z" />
    <glyph glyph-name="uni04A0" unicode="&#x4a0;" horiz-adv-x="1753" 
d="M983 608h-107l-91 -608h-292l184 1230h-488l33 226h781l-89 -595h82l488 595h354l2 -5l-599 -671l425 -780h-372z" />
    <glyph glyph-name="uni04A1" unicode="&#x4a1;" horiz-adv-x="1513" 
d="M894 405h-113l-60 -405h-292l128 856h-437l34 226h729l-62 -412h88l309 412h362l2 -5l-428 -497l303 -580h-389z" />
    <glyph glyph-name="uni04A2" unicode="&#x4a2;" horiz-adv-x="1445" 
d="M1231 0h-292l90 605h-593l-90 -605h-292l218 1456h292l-94 -626h593l94 626h292zM1360 -357h-292l89 591h292z" />
    <glyph glyph-name="uni04A3" unicode="&#x4a3;" 
d="M967 0h-292l63 420h-356l-63 -420h-292l162 1082h292l-66 -438h356l66 438h292zM1096 -357h-292l89 591h292z" />
    <glyph glyph-name="uni04A4" unicode="&#x4a4;" horiz-adv-x="2016" 
d="M469 830h593l94 626h918l-33 -225h-626h-1l-184 -1231h-292l90 605h-593l-90 -605h-292l218 1456h292z" />
    <glyph glyph-name="uni04A5" unicode="&#x4a5;" horiz-adv-x="1446" 
d="M415 644h356l66 438h631l-33 -225h-340l-128 -857h-292l63 420h-356l-63 -420h-292l162 1082h292z" />
    <glyph glyph-name="uni04A6" unicode="&#x4a6;" horiz-adv-x="2119" 
d="M1368 917h175q256 0 401 -126.5t111 -359.5q-17 -134 -134 -269.5t-307 -194.5l-94 189q106 44 167 110.5t77 164.5q19 131 -48.5 194.5t-207.5 63.5h-174l-103 -689h-292l185 1231h-594l-185 -1231h-292l218 1456h1178z" />
    <glyph glyph-name="uni04A7" unicode="&#x4a7;" horiz-adv-x="1773" 
d="M1076 713h159q257 0 402.5 -127t110.5 -360q-18 -134 -134.5 -269t-305.5 -193l-95 188q105 45 166.5 111t77.5 163q19 131 -48 194.5t-208 63.5h-160l-72 -484h-292l128 856h-358l-128 -856h-292l162 1082h942z" />
    <glyph glyph-name="uni04A8" unicode="&#x4a8;" horiz-adv-x="1472" 
d="M588 648l14 92q24 164 151 273.5t293 109.5q187 0 285 -112t71 -298l-13 -88q-42 -275 -254 -460.5t-485 -185.5q-285 0 -435 171t-108 447l39 262q39 262 243 439t464 173l6 -3l-35 -226q-146 0 -245.5 -104t-125.5 -277l-39 -264q-26 -167 49.5 -275.5t221.5 -108.5
q31 0 62 5t60 15q-125 53 -183.5 160.5t-35.5 254.5v0zM1082 625l13 91q11 75 -12.5 124t-71.5 49q-52 0 -88.5 -47.5t-48.5 -125.5l-10 -70q-15 -91 21 -158t111 -87h6q28 42 48.5 99.5t31.5 124.5v0z" />
    <glyph glyph-name="uni04A9" unicode="&#x4a9;" horiz-adv-x="1178" 
d="M490 495l4 26q19 126 120 211.5t232 85.5q137 0 208.5 -90t50.5 -236l-5 -34q-31 -205 -192.5 -342t-368.5 -137q-249 0 -380.5 145t-95.5 382l6 41q35 236 217 394.5t414 154.5l6 -3l-34 -224q-117 -9 -196 -93t-100 -227l-6 -43q-19 -128 38 -210.5t166 -82.5h2
q-55 45 -78 117.5t-8 164.5v0zM825 472l5 36q7 49 -5.5 83t-38.5 34q-27 0 -49 -32t-29 -80l-5 -31q-10 -60 7.5 -103t54.5 -51h6q18 24 32.5 62t21.5 82v0z" />
    <glyph glyph-name="uni04AA" unicode="&#x4aa;" horiz-adv-x="1303" 
d="M1217 482l2 -6q-32 -242 -195 -369.5t-424 -127.5q-252 0 -392.5 170t-101.5 434l44 289q41 276 221.5 440.5t438.5 164.5q256 0 391 -131.5t96 -364.5l-3 -6h-284q22 145 -35 211t-199 66q-126 0 -218 -107t-117 -271l-44 -291q-26 -174 35.5 -277t200.5 -103
q126 0 203.5 69.5t98.5 209.5h282zM616 61q84 -52 118 -121t23 -145q-16 -105 -95.5 -159.5t-190.5 -54.5q-60 0 -105 13t-78 31l58 154q23 -9 44 -14.5t52 -5.5q51 0 73.5 22t27.5 48q7 49 -11 82.5t-62 86.5z" />
    <glyph glyph-name="uni04AB" unicode="&#x4ab;" horiz-adv-x="1056" 
d="M514 203q73 0 126.5 46t65.5 121h265l2 -6q-22 -170 -162.5 -277.5t-329.5 -107.5q-231 0 -343.5 155.5t-76.5 390.5l4 30q37 247 189 397t393 150q191 0 298.5 -115t75.5 -300l-2 -5h-267q13 86 -22.5 140.5t-115.5 54.5q-109 0 -172.5 -92t-84.5 -230l-4 -30
q-23 -149 11 -235.5t150 -86.5zM503 61q84 -52 118 -121t23 -145q-16 -105 -95.5 -159.5t-190.5 -54.5q-60 0 -105 13t-78 31l58 154q23 -9 44 -14.5t52 -5.5q51 0 73.5 22t27.5 48q7 49 -11 82.5t-62 86.5z" />
    <glyph glyph-name="uni04AC" unicode="&#x4ac;" horiz-adv-x="1175" 
d="M1254 1231h-417l-184 -1231h-292l184 1231h-409l33 225h1118zM782 -357h-292l89 591h292z" />
    <glyph glyph-name="uni04AD" unicode="&#x4ad;" horiz-adv-x="1070" 
d="M1077 859h-347l-128 -859h-293l128 859h-340l33 223h980zM731 -357h-292l89 591h292z" />
    <glyph glyph-name="uni04AE" unicode="&#x4ae;" horiz-adv-x="1303" 
d="M685 786l6 -1l419 671h320l-640 -943l-77 -513h-292l79 527l-352 929h320z" />
    <glyph glyph-name="uni04AF" unicode="&#x4af;" horiz-adv-x="1046" 
d="M808 1082h305l-522 -1066l-65 -433h-292l66 438l-202 1061h305l80 -679l4 -99l6 -1l35 100z" />
    <glyph glyph-name="uni04B0" unicode="&#x4b0;" horiz-adv-x="1303" 
d="M685 785l6 -1l419 672h320l-514 -757h104l-27 -181h-200l-3 -5l-77 -513h-292l78 518h-177l27 181h86l-287 757h320z" />
    <glyph glyph-name="uni04B1" unicode="&#x4b1;" horiz-adv-x="1046" 
d="M788 9h-198l-64 -426h-292l64 426h-181l28 181h123l-170 892h305l80 -679l4 -99l6 -1l35 100l280 679h305l-437 -892h140z" />
    <glyph glyph-name="uni04B2" unicode="&#x4b2;" horiz-adv-x="1303" 
d="M710 940l350 516h340l-540 -722l347 -734h-353l-202 525l-360 -525h-341l553 734l-324 722h338zM1181 -357h-292l89 591h292z" />
    <glyph glyph-name="uni04B3" unicode="&#x4b3;" horiz-adv-x="1046" 
d="M550 739l6 -1l217 344h330l-406 -535l255 -547h-329l-123 359l-231 -359h-330l419 547l-247 535h328zM940 -357h-292l89 591h292z" />
    <glyph glyph-name="uni04B4" unicode="&#x4b4;" horiz-adv-x="1841" 
d="M484 1230h-336l33 225h337v1h292v-1h331l-33 -225h-332l-150 -1005h594l184 1231h292l-183 -1218h224l-89 -591h-292l53 353h-1109z" />
    <glyph glyph-name="uni04B5" unicode="&#x4b5;" horiz-adv-x="1420" 
d="M312 857h-217l33 225h707l-33 -225h-198l-94 -633h358l128 858h292l-129 -858h157l-88 -582h-291l54 358h-807z" />
    <glyph glyph-name="uni04B6" unicode="&#x4b6;" horiz-adv-x="1420" 
d="M1426 1456l-218 -1456h-293l84 561q-69 -16 -152 -24.5t-148 -8.5q-258 0 -392 117t-98 358l68 453h292l-68 -453q-22 -147 33 -198.5t199 -51.5q59 0 145 8.5t154 24.5l101 670h293zM1337 -357h-292l89 591h292z" />
    <glyph glyph-name="uni04B7" unicode="&#x4b7;" horiz-adv-x="1147" 
d="M961 0h-292l51 343q-38 -8 -77 -11.5t-73 -3.5q-231 0 -349.5 103t-86.5 311l51 340h292l-51 -340q-16 -111 24.5 -150t153.5 -39q37 0 74.5 3.5t75.5 12.5l77 513h292zM1090 -357h-292l89 591h292z" />
    <glyph glyph-name="uni04B8" unicode="&#x4b8;" horiz-adv-x="1394" 
d="M795 291h-167l113 756h167zM1426 1456l-218 -1456h-293l84 561q-69 -16 -152 -24.5t-148 -8.5q-258 0 -392 117t-98 358l68 453h292l-68 -453q-22 -147 33 -198.5t199 -51.5q59 0 145 8.5t154 24.5l101 670h293z" />
    <glyph glyph-name="uni04B9" unicode="&#x4b9;" horiz-adv-x="1148" 
d="M607 184h-167l96 641h167zM961 0h-292l51 343q-38 -8 -77 -11.5t-73 -3.5q-231 0 -349.5 103t-86.5 311l51 340h292l-51 -340q-16 -111 24.5 -150t153.5 -39q37 0 74.5 3.5t75.5 12.5l77 513h292z" />
    <glyph glyph-name="uni04BA" unicode="&#x4ba;" horiz-adv-x="1433" 
d="M-2 0l218 1456h293l-84 -561q69 14 152 23.5t148 9.5q257 0 391 -117.5t99 -357.5l-68 -453h-292l68 453q22 146 -33.5 198t-198.5 52q-59 0 -144.5 -9.5t-155.5 -23.5l-100 -670h-293z" />
    <glyph glyph-name="uni04BB" unicode="&#x4bb;" horiz-adv-x="1148" 
d="M338.059 1084h291.982l-50.9971 -342.979q37.998 8 76.9951 11.5q38.998 3.49902 72.9961 3.49902q230.985 0 349.479 -102.993q118.492 -102.994 86.4941 -310.981l-50.9961 -339.979h-291.982l50.9971 339.979q15.999 110.993 -24.499 149.991
q-40.4971 38.998 -153.49 38.998q-36.998 0 -74.4961 -3.5q-37.4971 -3.5 -75.4951 -12.499l-76.9951 -512.969h-291.982z" />
    <glyph glyph-name="uni04BC" unicode="&#x4bc;" horiz-adv-x="1680" 
d="M947 -23q-325 0 -491 189t-133 498q-147 26 -216 136.5t-43 281.5h196q-14 -89 10.5 -144t88.5 -75q74 281 273.5 447t448.5 165q281 0 414.5 -184.5t87.5 -497.5l-23 -150h-941l-2 -5q-20 -196 66.5 -308t299.5 -112q111 0 210.5 19.5t177.5 46.5l15 -225
q-57 -28 -172 -55t-267 -27zM1045 1233q-135 0 -239.5 -102.5t-148.5 -261.5l2 -6h643l5 31q24 158 -37 248.5t-225 90.5z" />
    <glyph glyph-name="uni04BD" unicode="&#x4bd;" horiz-adv-x="1225" 
d="M609 -21q-227 0 -345.5 143.5t-91.5 365.5q-111 39 -160.5 136.5t-29.5 240.5h183q-10 -63 1.5 -108t45.5 -72q61 195 204 306t342 111q210 0 310.5 -135t66.5 -358l-22 -151h-646l-2 -5q-12 -115 38 -182.5t170 -67.5q94 0 169 20.5t152 60.5l52 -180q-74 -53 -190 -89
t-247 -36zM725 877q-84 0 -141.5 -61t-83.5 -159l2 -6h354l3 22q15 98 -15.5 151t-118.5 53z" />
    <glyph glyph-name="uni04BE" unicode="&#x4be;" horiz-adv-x="1680" 
d="M947 -23q-325 0 -491 189t-133 498q-147 26 -216 136.5t-43 281.5h196q-14 -89 10.5 -144t88.5 -75q74 281 273.5 447t448.5 165q281 0 414.5 -184.5t87.5 -497.5l-23 -150h-941l-2 -5q-20 -196 66.5 -308t299.5 -112q111 0 210.5 19.5t177.5 46.5l15 -225
q-57 -28 -172 -55t-267 -27zM1045 1233q-135 0 -239.5 -102.5t-148.5 -261.5l2 -6h643l5 31q24 158 -37 248.5t-225 90.5zM865 0q-61 -52 -92 -89.5t-38 -86.5q-5 -28 8.5 -49t66.5 -21q27 0 50.5 6t46.5 14l12 -154q-38 -19 -85 -31.5t-108 -12.5q-104 0 -167 57t-48 157
q13 80 68.5 147.5t162.5 122.5z" />
    <glyph glyph-name="uni04BF" unicode="&#x4bf;" horiz-adv-x="1225" 
d="M609 -21q-227 0 -345.5 143.5t-91.5 365.5q-111 39 -160.5 136.5t-29.5 240.5h183q-10 -63 1.5 -108t45.5 -72q61 195 204 306t342 111q210 0 310.5 -135t66.5 -358l-22 -151h-646l-2 -5q-12 -115 38 -182.5t170 -67.5q94 0 169 20.5t152 60.5l52 -180q-74 -53 -190 -89
t-247 -36zM725 877q-84 0 -141.5 -61t-83.5 -159l2 -6h354l3 22q15 98 -15.5 151t-118.5 53zM638 0q-61 -52 -92 -89.5t-38 -86.5q-5 -28 8.5 -49t66.5 -21q27 0 50.5 6t46.5 14l12 -154q-38 -19 -85 -31.5t-108 -12.5q-104 0 -167 57t-48 157q13 80 68.5 147.5t162.5 122.5
z" />
    <glyph glyph-name="uni04C0" unicode="&#x4c0;" horiz-adv-x="601" 
d="M366 0h-292l218 1456h292z" />
    <glyph glyph-name="uni04C1" unicode="&#x4c1;" horiz-adv-x="1870" 
d="M1190 608h-93l-91 -608h-291l91 608h-96l-420 -608h-364l577 785l-335 671h361l241 -595h74l89 595h291l-89 -595h70l412 595h360l-529 -670l335 -786h-363zM1468 1896l1 -6q-14 -132 -117.5 -210t-262.5 -78q-153 0 -238.5 81t-62.5 207l2 6h214q-9 -55 17 -88t92 -33
q61 0 97 34.5t44 86.5h214z" />
    <glyph glyph-name="uni04C2" unicode="&#x4c2;" horiz-adv-x="1661" 
d="M1036 408h-81l-61 -408h-290l61 408h-80l-274 -408h-374l442 585l-262 497h368l162 -408h58l61 408h290l-61 -408h61l283 408h362l3 -5l-407 -491l265 -586h-373zM1313 1553l1 -6q-14 -132 -117.5 -210t-262.5 -78q-153 0 -238.5 81t-62.5 207l2 6h214q-9 -55 17 -88
t92 -33q61 0 97 34.5t44 86.5h214z" />
    <glyph glyph-name="uni04C3" unicode="&#x4c3;" horiz-adv-x="1297" 
d="M848 814q194 -38 294 -165t69 -337q-19 -141 -144 -282t-331 -202l-95 188q122 46 191.5 118t86.5 178q22 151 -47.5 219.5t-218.5 68.5h-219l-90 -600h-292l218 1456h292l-90 -599h103l460 599h354l2 -5z" />
    <glyph glyph-name="uni04C4" unicode="&#x4c4;" horiz-adv-x="1170" 
d="M790 599q148 -49 221.5 -160.5t48.5 -280.5q-18 -132 -133.5 -264t-306.5 -191l-94 189q106 44 166.5 108t75.5 158q19 125 -48.5 186t-208.5 61h-110l-60 -405h-292l162 1082h292l-62 -412h88l309 412h362l2 -5z" />
    <glyph glyph-name="uni04C5" unicode="&#x4c5;" horiz-adv-x="1444" 
d="M1449 1456l-218 -1456h-292l184 1231h-414l-65 -438q-66 -439 -218 -616t-421 -177h-43l34 224h40q132 0 200 124.5t116 444.5l99 663h998zM1493 -27l-206 -315h-195l118 324l35 228h284z" />
    <glyph glyph-name="uni04C6" unicode="&#x4c6;" horiz-adv-x="1149" 
d="M1131 1082l-162 -1082h-291l128 856h-260l-35 -235q-50 -332 -168.5 -476.5t-357.5 -144.5h-47l31 230l32 1q96 0 140.5 84t77.5 306l69 461h843zM1231 -27l-206 -315h-195l118 324l35 228h284z" />
    <glyph glyph-name="uni04C7" unicode="&#x4c7;" horiz-adv-x="1444" 
d="M564 1456l-93 -626h593l93 626h291l-224 -1496q-30 -198 -144.5 -297.5t-296.5 -99.5q-39 0 -73 4t-69 13l47 221q22 -6 46.5 -9.5t51.5 -3.5q55 0 94.5 45t52.5 127l97 645h-593l-91 -605h-293l218 1456h293z" />
    <glyph glyph-name="uni04C8" unicode="&#x4c8;" 
d="M481 1082l-65 -438h356l65 438h292l-168 -1122q-30 -198 -145 -297.5t-297 -99.5q-39 0 -72.5 4t-68.5 13l47 221q22 -6 46 -9.5t51 -3.5q55 0 94.5 45t52.5 127l69 460h-356l-63 -420h-292l162 1082h292z" />
    <glyph glyph-name="uni04C9" unicode="&#x4c9;" horiz-adv-x="1445" 
d="M1231 0h-292l90 605h-593l-90 -605h-292l218 1456h292l-94 -626h593l94 626h292zM1493 -27l-206 -315h-195l118 324l35 228h284z" />
    <glyph glyph-name="uni04CA" unicode="&#x4ca;" 
d="M967 0h-292l63 420h-356l-63 -420h-292l162 1082h292l-66 -438h356l66 438h292zM1229 -27l-206 -315h-195l118 324l35 228h284z" />
    <glyph glyph-name="uni04CB" unicode="&#x4cb;" horiz-adv-x="1420" 
d="M1426 1456l-218 -1456h-293l84 561q-69 -16 -152 -24.5t-148 -8.5q-258 0 -392 117t-98 358l68 453h292l-68 -453q-22 -147 33 -198.5t199 -51.5q59 0 145 8.5t154 24.5l101 670h293zM962 -357h-292l89 591h292z" />
    <glyph glyph-name="uni04CC" unicode="&#x4cc;" horiz-adv-x="1147" 
d="M961 0h-292l51 343q-38 -8 -77 -11.5t-73 -3.5q-231 0 -349.5 103t-86.5 311l51 340h292l-51 -340q-16 -111 24.5 -150t153.5 -39q37 0 74.5 3.5t75.5 12.5l77 513h292zM715 -357h-292l89 591h292z" />
    <glyph glyph-name="uni04CD" unicode="&#x4cd;" horiz-adv-x="1782" 
d="M864 383l6 -1l535 1074h381l-218 -1456h-292l148 993l-5 1l-509 -994h-198l-211 996h-6l-149 -996h-292l218 1456h383zM1830 -27l-206 -315h-195l118 324l35 228h284z" />
    <glyph glyph-name="uni04CE" unicode="&#x4ce;" horiz-adv-x="1557" 
d="M737 341l6 -1l390 742h365l-162 -1082h-291l96 645l-5 2l-348 -647h-196l-150 633l-6 -1l-95 -632h-292l162 1082h362zM1598 -27l-206 -315h-195l118 324l35 228h284z" />
    <glyph glyph-name="uni04CF" unicode="&#x4cf;" horiz-adv-x="601" 
d="M366 0h-292l218 1456h292z" />
    <glyph glyph-name="uni04D0" unicode="&#x4d0;" horiz-adv-x="1303" 
d="M861 314h-473l-145 -314h-305l709 1456h299l271 -1456h-305zM495 543h328l-83 514l-6 1zM1187 1896l1 -6q-14 -132 -117.5 -210t-262.5 -78q-153 0 -238.5 81t-62.5 207l2 6h214q-9 -55 17 -88t92 -33q61 0 97 34.5t44 86.5h214z" />
    <glyph glyph-name="uni04D1" unicode="&#x4d1;" horiz-adv-x="1100" 
d="M670 0q-11 37 -16 78.5t-4 84.5q-57 -80 -138.5 -132t-183.5 -52q-164 0 -246 88.5t-59 237.5q24 165 158 249.5t372 84.5h164l13 86q12 81 -22.5 122.5t-116.5 41.5q-68 0 -113.5 -34.5t-53.5 -94.5h-281l-1 6q15 142 154.5 239t345.5 97q188 0 297 -99t82 -280
l-67 -447q-12 -79 -10 -144t17 -132h-291zM432 195q73 0 140 38.5t97 88.5l23 152h-164q-89 0 -145.5 -47t-66.5 -112q-9 -57 22 -88.5t94 -31.5zM1032 1574l1 -6q-14 -132 -117.5 -210t-262.5 -78q-153 0 -238.5 81t-62.5 207l2 6h214q-9 -55 17 -88t92 -33q61 0 97 34.5
t44 86.5h214z" />
    <glyph glyph-name="uni04D2" unicode="&#x4d2;" horiz-adv-x="1303" 
d="M861 314h-473l-145 -314h-305l709 1456h299l271 -1456h-305zM495 543h328l-83 514l-6 1zM1188 1601h-266l29 204h266zM688 1601h-266l29 204h266z" />
    <glyph glyph-name="uni04D3" unicode="&#x4d3;" horiz-adv-x="1100" 
d="M670 0q-11 37 -16 78.5t-4 84.5q-57 -80 -138.5 -132t-183.5 -52q-164 0 -246 88.5t-59 237.5q24 165 158 249.5t372 84.5h164l13 86q12 81 -22.5 122.5t-116.5 41.5q-68 0 -113.5 -34.5t-53.5 -94.5h-281l-1 6q15 142 154.5 239t345.5 97q188 0 297 -99t82 -280
l-67 -447q-12 -79 -10 -144t17 -132h-291zM432 195q73 0 140 38.5t97 88.5l23 152h-164q-89 0 -145.5 -47t-66.5 -112q-9 -57 22 -88.5t94 -31.5zM1033 1279h-266l29 204h266zM533 1279h-266l29 204h266z" />
    <glyph glyph-name="uni04D4" unicode="&#x4d4;" horiz-adv-x="1945" 
d="M1794 0h-898l36 335h-440l-218 -335h-342l1002 1456h1016l-34 -228h-596l-39 -366h499l-34 -227h-490l-44 -408h616zM958 575l60 557l-6 2l-364 -559h310z" />
    <glyph glyph-name="uni04D5" unicode="&#x4d5;" horiz-adv-x="1771" 
d="M1197 -21q-124 0 -217.5 42t-151.5 120q-69 -71 -178 -116.5t-251 -45.5q-185 0 -279.5 91.5t-70.5 246.5q24 165 161.5 248t383.5 83h181l9 59q12 82 -21 126t-108 44q-78 0 -132 -38t-62 -93l-279 18l-1 6q17 150 156.5 241t353.5 91q97 0 176 -27t132 -79
q69 52 156 79t187 27q204 0 309.5 -133t72.5 -357l-24 -158h-651l-2 -5q-14 -115 37 -180.5t177 -65.5q88 0 156.5 20.5t151.5 60.5l49 -184q-70 -48 -182.5 -84.5t-238.5 -36.5zM485 185q56 0 124.5 31t111.5 73l26 175h-178q-93 0 -157 -45t-73 -106q-10 -61 26.5 -94.5
t119.5 -33.5zM1309 877q-90 0 -148.5 -62t-81.5 -165l2 -6h361l4 28q14 97 -19.5 151t-117.5 54z" />
    <glyph glyph-name="uni04D6" unicode="&#x4d6;" horiz-adv-x="1139" 
d="M982 640h-540l-63 -416h643l-34 -224h-934l218 1456h932l-33 -225h-641l-55 -366h541zM1135 1896l1 -6q-14 -132 -117.5 -210t-262.5 -78q-153 0 -238.5 81t-62.5 207l2 6h214q-9 -55 17 -88t92 -33q61 0 97 34.5t44 86.5h214z" />
    <glyph glyph-name="uni04D7" unicode="&#x4d7;" horiz-adv-x="1071" 
d="M498 -21q-232 0 -351 150.5t-83 380.5l6 40q37 252 190.5 402.5t386.5 149.5q210 0 310.5 -135t66.5 -358l-22 -151h-646l-2 -5q-12 -115 38 -182.5t170 -67.5q94 0 169 20.5t152 60.5l52 -180q-74 -53 -190 -89t-247 -36zM614 877q-84 0 -141.5 -61t-83.5 -159l2 -6h354
l3 22q15 98 -15.5 151t-118.5 53zM1025 1575l1 -6q-14 -132 -117.5 -210t-262.5 -78q-153 0 -238.5 81t-62.5 207l2 6h214q-9 -55 17 -88t92 -33q61 0 97 34.5t44 86.5h214z" />
    <glyph glyph-name="uni04D8" unicode="&#x4d8;" horiz-adv-x="1506" 
d="M782 1477q336 0 500.5 -202t116.5 -528l-6 -42q-50 -331 -261 -529t-485 -197q-300 0 -444.5 183.5t-97.5 497.5l23 150h981l2 5q20 194 -66.5 307t-299.5 113q-112 0 -210.5 -19.5t-177.5 -46.5l-15 225q59 28 173 55.5t267 27.5zM683 220q134 0 238.5 101.5
t149.5 262.5l-2 6h-683l-5 -31q-25 -159 45 -249t257 -90z" />
    <glyph glyph-name="uni04D9" unicode="&#x4d9;" horiz-adv-x="1081" 
d="M787.03 1103q231.986 0 350.979 -150.491q118.993 -150.49 82.9951 -380.477l-6 -39.998q-36.9971 -251.984 -190.488 -402.475q-153.49 -150.491 -386.477 -149.491q-209.986 0 -310.48 134.991q-100.494 134.992 -66.4961 357.979l21.999 150.991h645.96l2 4.99902
q11.999 114.993 -37.998 182.489q-49.9961 67.4961 -169.989 67.4961q-93.9941 0 -168.989 -20.499q-74.9961 -20.499 -151.991 -60.4961l-51.9971 179.988q73.9961 52.9971 189.989 88.9951q115.992 35.998 246.984 35.998zM671.037 205.054q83.9951 0 141.492 60.9961
q57.4961 60.9961 83.4941 158.99l-2 6h-353.978l-3 -21.999q-14.999 -97.9941 15.499 -150.99q30.498 -52.9971 118.492 -52.9971z" />
    <glyph glyph-name="uni04DA" unicode="&#x4da;" horiz-adv-x="1506" 
d="M782 1477q336 0 500.5 -202t116.5 -528l-6 -42q-50 -331 -261 -529t-485 -197q-300 0 -444.5 183.5t-97.5 497.5l23 150h981l2 5q20 194 -66.5 307t-299.5 113q-112 0 -210.5 -19.5t-177.5 -46.5l-15 225q59 28 173 55.5t267 27.5zM683 220q134 0 238.5 101.5
t149.5 262.5l-2 6h-683l-5 -31q-25 -159 45 -249t257 -90zM1207 1546h-266l29 204h266zM707 1546h-266l29 204h266z" />
    <glyph glyph-name="uni04DB" unicode="&#x4db;" horiz-adv-x="1081" 
d="M787.03 1103q231.986 0 350.979 -150.491q118.993 -150.49 82.9951 -380.477l-6 -39.998q-36.9971 -251.984 -190.488 -402.475q-153.49 -150.491 -386.477 -149.491q-209.986 0 -310.48 134.991q-100.494 134.992 -66.4961 357.979l21.999 150.991h645.96l2 4.99902
q11.999 114.993 -37.998 182.489q-49.9961 67.4961 -169.989 67.4961q-93.9941 0 -168.989 -20.499q-74.9961 -20.499 -151.991 -60.4961l-51.9971 179.988q73.9961 52.9971 189.989 88.9951q115.992 35.998 246.984 35.998zM671.037 205.054q83.9951 0 141.492 60.9961
q57.4961 60.9961 83.4941 158.99l-2 6h-353.978l-3 -21.999q-14.999 -97.9941 15.499 -150.99q30.498 -52.9971 118.492 -52.9971zM1051 1279h-266l29 204h266zM551 1279h-266l29 204h266z" />
    <glyph glyph-name="uni04DC" unicode="&#x4dc;" horiz-adv-x="1870" 
d="M1190 608h-93l-91 -608h-291l91 608h-96l-420 -608h-364l577 785l-335 671h361l241 -595h74l89 595h291l-89 -595h70l412 595h360l-529 -670l335 -786h-363zM1469 1601h-266l29 204h266zM969 1601h-266l29 204h266z" />
    <glyph glyph-name="uni04DD" unicode="&#x4dd;" horiz-adv-x="1661" 
d="M1036 408h-81l-61 -408h-290l61 408h-80l-274 -408h-374l442 585l-262 497h368l162 -408h58l61 408h290l-61 -408h61l283 408h362l3 -5l-407 -491l265 -586h-373zM1314 1258h-266l29 204h266zM814 1258h-266l29 204h266z" />
    <glyph glyph-name="uni04DE" unicode="&#x4de;" horiz-adv-x="1345" 
d="M518 852h197q132 0 208.5 54.5t91.5 150.5q12 87 -52 141t-204 54q-105 0 -187 -53t-94 -134h-282l-2 6q23 189 195 297.5t404 108.5q257 0 399.5 -109t113.5 -307q-16 -105 -92.5 -187.5t-198.5 -128.5q120 -44 177 -130t39 -207q-32 -209 -212 -319t-451 -110
q-222 0 -377 108t-118 311l2 6h284q-14 -89 53.5 -145t188.5 -56q136 0 230.5 59t108.5 149q17 119 -47 170.5t-211 51.5h-197l23 153zM1207 1622h-266l29 204h266zM707 1622h-266l29 204h266z" />
    <glyph glyph-name="uni04DF" unicode="&#x4df;" horiz-adv-x="1140" 
d="M1071 786q-12 -76 -69 -136t-148 -95q91 -33 134.5 -96.5t30.5 -152.5q-24 -157 -175 -241.5t-373 -84.5q-186 0 -314.5 86.5t-98.5 247.5l2 6h282q-9 -57 37 -93.5t140 -36.5q88 0 145.5 40t66.5 95q10 72 -34.5 103.5t-139.5 31.5h-176l8 56l9 62l2 10l9 58h176
q82 0 132.5 32t59.5 87q7 53 -30 88.5t-125 35.5q-77 0 -132 -32t-63 -86h-281l-1 6q16 151 156.5 237.5t337.5 86.5q211 0 332.5 -83t99.5 -232zM1054 1278h-266l29 204h266zM554 1278h-266l29 204h266z" />
    <glyph glyph-name="uni04E0" unicode="&#x4e0;" horiz-adv-x="1186" 
d="M464 866l391 359l-2 6h-604l33 225h946l-26 -183l-427 -409q180 -33 267.5 -150.5t59.5 -305.5q-32 -209 -194 -319t-402 -110q-201 0 -337 107.5t-100 311.5l2 6h284q-14 -89 36 -145t148 -56q106 0 182 59t90 149q21 148 -38 210.5t-201 62.5h-135l8 57l11 73l7 47z
" />
    <glyph glyph-name="uni04E1" unicode="&#x4e1;" horiz-adv-x="1186" 
d="M408 491l384 359l-2 6h-605l34 226h953l-26 -184l-423 -409q178 -33 264.5 -151t58.5 -305q-32 -207 -194 -317.5t-402 -110.5q-201 0 -336.5 108t-101.5 310l2 6h284q-13 -86 37.5 -142.5t148.5 -56.5q106 0 181.5 59t88.5 147q22 149 -37 211.5t-201 62.5h-135l8 56
l6 44l12 77z" />
    <glyph glyph-name="uni04E2" unicode="&#x4e2;" horiz-adv-x="1431" 
d="M1147 1456h292l-218 -1456h-292l145 971l-5 2l-734 -973h-291l218 1456h291l-145 -971l5 -2zM1234 1613h-731l23 165h731z" />
    <glyph glyph-name="uni04E3" unicode="&#x4e3;" 
d="M840 1082h291l-162 -1082h-291l98 658l-6 2l-451 -660h-292l162 1082h292l-99 -658l6 -2zM1048 1271h-731l23 165h731z" />
    <glyph glyph-name="uni04E4" unicode="&#x4e4;" horiz-adv-x="1431" 
d="M1147 1456h292l-218 -1456h-292l145 971l-5 2l-734 -973h-291l218 1456h291l-145 -971l5 -2zM1248 1601h-266l29 204h266zM748 1601h-266l29 204h266z" />
    <glyph glyph-name="uni04E5" unicode="&#x4e5;" 
d="M840 1082h291l-162 -1082h-291l98 658l-6 2l-451 -660h-292l162 1082h292l-99 -658l6 -2zM1062 1258h-266l29 204h266zM562 1258h-266l29 204h266z" />
    <glyph glyph-name="uni04E6" unicode="&#x4e6;" horiz-adv-x="1409" 
d="M1322 597q-43 -279 -235.5 -448.5t-466.5 -169.5q-259 0 -406 176.5t-107 441.5l39 262q41 277 232.5 447.5t464.5 170.5q261 0 409 -177.5t109 -440.5zM1070 861q26 176 -42.5 282t-219.5 106q-143 0 -244.5 -110t-126.5 -278l-39 -264q-27 -179 39 -285t217 -106
q144 0 247 110t130 281zM1244 1622h-266l29 204h266zM744 1622h-266l29 204h266z" />
    <glyph glyph-name="uni04E7" unicode="&#x4e7;" 
d="M70 551q37 251 193.5 401t397.5 150q231 0 348 -156t82 -395l-3 -21q-39 -253 -195 -402t-398 -149q-231 0 -348 155.5t-80 395.5zM358 530q-24 -153 15 -240t155 -87q108 0 177 91t91 236l3 21q21 149 -17.5 237.5t-153.5 88.5q-109 0 -178 -92.5t-89 -233.5zM1064 1279
h-266l29 204h266zM564 1279h-266l29 204h266z" />
    <glyph glyph-name="uni04E8" unicode="&#x4e8;" horiz-adv-x="1410" 
d="M1322 597q-43 -279 -235.5 -448.5t-466.5 -169.5q-259 0 -406 176.5t-107 441.5l39 262q41 277 232.5 447.5t464.5 170.5q261 0 409 -177.5t109 -440.5zM922 754q33 0 73.5 19.5t69.5 51.5l5 36q26 176 -42.5 282t-219.5 106q-143 0 -244.5 -110t-126.5 -278l-11 -72
q36 38 82.5 59t101.5 21q63 0 156.5 -57.5t155.5 -57.5zM1034 616q-36 -31 -79.5 -47t-93.5 -16q-78 0 -163 58t-148 58q-42 0 -89.5 -32t-67.5 -75q-17 -165 50.5 -260.5t210.5 -95.5q144 0 247 110t130 281z" />
    <glyph glyph-name="uni04E9" unicode="&#x4e9;" 
d="M70 551q37 251 193.5 401t397.5 150q231 0 348 -156t82 -395l-3 -21q-39 -253 -195 -402t-398 -149q-231 0 -348 155.5t-80 395.5zM717 567q24 0 48.5 17.5t40.5 45.5q4 115 -38 181t-140 66q-101 0 -167 -80t-83 -197l4 -4q16 22 46.5 37t63.5 15q45 0 112.5 -40.5
t112.5 -40.5zM445 493q-29 0 -57 -24t-39 -59q2 -99 45 -153t134 -54q93 0 156 67.5t85 173.5l-3 5q-15 -18 -41 -28t-54 -10q-56 0 -118.5 41t-107.5 41z" />
    <glyph glyph-name="uni04EA" unicode="&#x4ea;" horiz-adv-x="1410" 
d="M1322 597q-43 -279 -235.5 -448.5t-466.5 -169.5q-259 0 -406 176.5t-107 441.5l39 262q41 277 232.5 447.5t464.5 170.5q261 0 409 -177.5t109 -440.5zM922 754q33 0 73.5 19.5t69.5 51.5l5 36q26 176 -42.5 282t-219.5 106q-143 0 -244.5 -110t-126.5 -278l-11 -72
q36 38 82.5 59t101.5 21q63 0 156.5 -57.5t155.5 -57.5zM1034 616q-36 -31 -79.5 -47t-93.5 -16q-78 0 -163 58t-148 58q-42 0 -89.5 -32t-67.5 -75q-17 -165 50.5 -260.5t210.5 -95.5q144 0 247 110t130 281zM1263 1596h-266l29 204h266zM763 1596h-266l29 204h266z" />
    <glyph glyph-name="uni04EB" unicode="&#x4eb;" 
d="M70 551q37 251 193.5 401t397.5 150q231 0 348 -156t82 -395l-3 -21q-39 -253 -195 -402t-398 -149q-231 0 -348 155.5t-80 395.5zM717 567q24 0 48.5 17.5t40.5 45.5q4 115 -38 181t-140 66q-101 0 -167 -80t-83 -197l4 -4q16 22 46.5 37t63.5 15q45 0 112.5 -40.5
t112.5 -40.5zM445 493q-29 0 -57 -24t-39 -59q2 -99 45 -153t134 -54q93 0 156 67.5t85 173.5l-3 5q-15 -18 -41 -28t-54 -10q-56 0 -118.5 41t-107.5 41zM1050 1307h-266l29 204h266zM550 1307h-266l29 204h266z" />
    <glyph glyph-name="uni04EC" unicode="&#x4ec;" horiz-adv-x="1288" 
d="M161 974l-2 6q31 242 191.5 370t420.5 128q243 0 376.5 -170.5t94.5 -434.5l-43 -289q-42 -278 -219.5 -441t-433.5 -163q-250 0 -377 130t-87 365l3 6h283q-22 -147 28 -212t184 -65q124 0 212 106t113 272l6 43h-446l34 225h446l4 23q26 174 -28 277t-184 103
q-126 0 -199.5 -69.5t-93.5 -209.5h-283zM1182 1623h-266l29 204h266zM682 1623h-266l29 204h266z" />
    <glyph glyph-name="uni04ED" unicode="&#x4ed;" horiz-adv-x="1064" 
d="M557 877q-74 0 -128.5 -46.5t-65.5 -119.5h-265l-2 6q20 169 162 277t332 108q228 0 341 -156.5t78 -390.5l-4 -30q-38 -247 -190.5 -396.5t-391.5 -149.5q-192 0 -300.5 115t-75.5 300l2 5h267q-14 -88 23 -142t117 -54q92 0 152.5 70t85.5 179l-3 6h-279l26 175h287
q6 113 -33 178.5t-135 65.5zM1022 1279h-266l29 204h266zM522 1279h-266l29 204h266z" />
    <glyph glyph-name="uni04EE" unicode="&#x4ee;" horiz-adv-x="1310" 
d="M678 809l14 -88l6 -1l415 736h309l-708 -1180q-83 -141 -184 -219t-261 -78q-58 0 -105 10.5t-104 30.5l65 209q43 -13 76.5 -19.5t68.5 -6.5q79 0 130.5 36t86.5 105l30 55l-355 1057h315zM1175 1613h-731l23 165h731z" />
    <glyph glyph-name="uni04EF" unicode="&#x4ef;" horiz-adv-x="1046" 
d="M490 454l2 -59l6 -1l311 688h314l-625 -1244q-63 -116 -154.5 -195.5t-249.5 -79.5q-35 0 -66.5 6t-74.5 17l66 213q12 -2 27 -4t27 -2q69 0 115 36.5t75 87.5l46 83l-222 1082h314zM993 1271h-731l23 165h731z" />
    <glyph glyph-name="uni04F0" unicode="&#x4f0;" horiz-adv-x="1310" 
d="M678 809l14 -88l6 -1l415 736h309l-708 -1180q-83 -141 -184 -219t-261 -78q-58 0 -105 10.5t-104 30.5l65 209q43 -13 76.5 -19.5t68.5 -6.5q79 0 130.5 36t86.5 105l30 55l-355 1057h315zM1189 1601h-266l29 204h266zM689 1601h-266l29 204h266z" />
    <glyph glyph-name="uni04F1" unicode="&#x4f1;" horiz-adv-x="1046" 
d="M490 454l2 -59l6 -1l311 688h314l-625 -1244q-63 -116 -154.5 -195.5t-249.5 -79.5q-35 0 -66.5 6t-74.5 17l66 213q12 -2 27 -4t27 -2q69 0 115 36.5t75 87.5l46 83l-222 1082h314zM1008 1258h-266l29 204h266zM508 1258h-266l29 204h266z" />
    <glyph glyph-name="uni04F2" unicode="&#x4f2;" horiz-adv-x="1310" 
d="M678 809l14 -88l6 -1l415 736h309l-708 -1180q-83 -141 -184 -219t-261 -78q-58 0 -105 10.5t-104 30.5l65 209q43 -13 76.5 -19.5t68.5 -6.5q79 0 130.5 36t86.5 105l30 55l-355 1057h315zM1131 1867h278l2 -6l-324 -260h-233l-2 6zM743 1867h274l2 -6l-279 -260h-228
l-2 5z" />
    <glyph glyph-name="uni04F3" unicode="&#x4f3;" horiz-adv-x="1046" 
d="M490 454l2 -59l6 -1l311 688h314l-625 -1244q-63 -116 -154.5 -195.5t-249.5 -79.5q-35 0 -66.5 6t-74.5 17l66 213q12 -2 27 -4t27 -2q69 0 115 36.5t75 87.5l46 83l-222 1082h314zM949 1524h278l2 -6l-324 -260h-233l-2 6zM561 1524h274l2 -6l-279 -260h-228l-2 5z" />
    </font>
</defs>
</svg>
